#VERSION:0.83;
#TITLE:UNBELIEVABLE (Sparky remix);
#SUBTITLE:;
#ARTIST:jun feat. Sarah-Jane;
#TITLETRANSLIT:;
#SUBTITLETRANSLIT:;
#ARTISTTRANSLIT:;
#GENRE:HARDCORE LOVE SONG;
#ORIGIN:;
#CREDIT:;
#BANNER:;
#BACKGROUND:;
#PREVIEWVID:;
#JACKET:;
#CDIMAGE:;
#DISCIMAGE:;
#LYRICSPATH:;
#CDTITLE:;
#MUSIC:UNBELIEVABLE (Sparky remix).ogg;
#OFFSET:0.000000;
#SAMPLESTART:45.239998;
#SAMPLELENGTH:15.000000;
#SELECTABLE:YES;
#DISPLAYBPM:88.000000:176.000000;
#BPMS:0.000=175.610,
4.000=174.996,
260.000=87.485,
276.000=175.012;
#STOPS:;
#DELAYS:;
#WARPS:;
#TIMESIGNATURES:0.000=4=4;
#TICKCOUNTS:0.000=4;
#COMBOS:0.000=1;
#SPEEDS:0.000=1.000=0.000=0;
#SCROLLS:0.000=1.000;
#FAKES:;
#LABELS:0.000=Song Start;
#BGCHANGES:;
#KEYSOUNDS:;
#ATTACKS:
;

//---------------dance-single - ----------------
#NOTEDATA:;
#CHARTNAME:;
#STEPSTYPE:dance-single;
#DESCRIPTION:;
#CHARTSTYLE:;
#DIFFICULTY:Hard;
#METER:14;
#RADARVALUES:0.628711,0.739609,0.654907,0.261963,0.222669,504.000000,429.000000,75.000000,30.000000,0.000000,0.000000,0.000000,0.000000,0.000000,0.628711,0.739609,0.654907,0.261963,0.222669,504.000000,429.000000,75.000000,30.000000,0.000000,0.000000,0.000000,0.000000,0.000000;
#CREDIT:Pandemonium X;
#DISPLAYBPM:88.000000:176.000000;
#NOTES:
0000
0000
0000
0000
,
0000
0000
0000
0000
,
0000
0000
0000
0000
,
0000
0000
0000
0000
,
0000
0000
0000
0000
,
1010
0000
1010
0000
0000
1000
0001
0001
,
0000
0011
0000
0101
0000
0010
1000
1000
,
1001
0000
0101
0000
1100
0000
1000
1001
,
0000
0000
0000
0000
,
0001
0100
1000
0010
0000
0001
1000
0001
,
1000
0100
0001
0010
0000
0100
0010
0001
,
1000
0010
1000
0001
0000
0011
0000
1200
,
0000
0300
1001
0110
,
0001
0100
1000
0010
0000
0001
0100
0001
,
1000
0100
0001
0010
0000
0000
0100
0010
,
0002
0000
0000
1003
0000
0000
0010
1000
,
0100
0000
0000
1000
0000
0000
0001
0000
0100
0001
0100
0001
1000
0010
1000
0010
,
0100
1000
0100
0001
0000
0100
0010
1000
,
0001
0010
1000
0010
0000
0100
0010
0001
,
1000
0001
0100
0001
0000
0011
0000
2100
,
0000
3000
1001
0110
,
1001
0001
0010
1000
0000
0010
0100
0010
,
0001
0100
1000
0100
0000
0010
0100
0010
,
2000
0000
0000
3000
0000
0100
0010
0001
,
0021
0000
0000
0100
0200
0000
0330
0000
,
1000
0001
1001
0000
0001
0100
0101
0000
,
0100
0010
0110
0000
1000
0010
1010
0000
,
1000
0001
1001
0000
0001
0010
0011
0000
,
1000
0100
1100
0000
1001
0000
0101
0000
,
0010
0100
0110
0000
0100
0001
0101
0000
,
0001
0010
0011
0000
0010
0100
0110
0000
,
1200
0000
0000
0310
0000
0100
0001
0100
,
0110
0000
0000
0011
0000
0000
0100
0000
0001
1000
0001
1000
0010
0100
0010
0100
,
0002
0000
0100
0000
1003
0001
0010
0100
,
1000
0000
0000
0100
0010
0000
0000
0010
0001
0000
0000
0001
0100
0000
0000
0100
,
0020
0000
1030
0200
0000
0010
0310
0000
,
0200
0000
1300
0100
0020
0000
0031
0000
,
2001
0000
0010
0000
3100
1000
0100
0010
,
0001
0000
0000
0010
0100
0000
0000
0100
1000
0000
0000
1000
0001
0000
0000
0000
,
0002
0000
0103
2000
0100
0000
3100
0000
,
1000
0100
1000
0100
0010
0100
0010
0100
0001
0000
0000
0000
1001
0000
0000
0000
,
0210
0000
1000
0000
0301
0010
0100
1000
,
0010
0000
0000
0100
0001
0000
0000
0010
0100
0000
0000
1000
0010
0000
0000
0100
,
0002
0000
0013
2000
0000
0010
3010
0000
,
0200
0000
1300
0001
0200
0000
0300
0000
,
0110
0000
0000
0000
1000
0000
0000
1000
0001
0000
0000
0001
0010
0000
0000
0010
,
0100
0000
0000
0100
1000
0000
0000
1000
0010
0000
0000
0010
0100
0000
0000
0100
,
0001
0000
0000
1000
0001
0000
0010
0000
0001
0000
0100
0000
0010
0100
0010
0000
,
2002
0000
3000
0003
,
1010
0000
1010
0000
1000
0010
0100
0101
,
0000
0011
0000
0101
0000
0001
0010
0010
,
0110
0000
1100
0000
0110
0000
0010
0011
,
0000
1000
0100
0100
0100
0000
1100
0000
,
1001
0000
0011
0000
0000
0010
0001
0001
,
0000
1001
0000
0101
0000
1000
0010
0010
,
0110
0000
1001
0000
1010
0000
0101
0001
,
0010
0001
0010
0001
1000
0100
1000
0100
0010
0000
0000
0000
1001
0000
0000
0000
,
0110
0000
0110
0000
0000
1000
0010
0010
,
0000
1010
0000
1100
0000
0100
0010
0010
,
0011
0000
0101
0000
1001
0000
0001
1001
,
0000
0001
0100
0100
0100
0000
1010
0000
,
1100
0000
1100
0000
0000
0100
0010
0010
,
0000
0011
0000
0101
0000
1000
0001
0001
,
0101
0000
1010
0000
1001
0000
0001
0010
,
0200
0000
0000
0000
0000
0000
0000
0000
0310
0001
0010
0001
1000
0100
0010
0001
,
1000
0000
0000
0000
0001
0000
0000
0100
0000
0001
0010
0000
1000
0000
0010
0000
,
0001
0000
0000
0100
0000
0000
1000
0000
0200
0000
0000
0010
0310
0000
0000
0000
,
0010
0000
0000
0000
1000
0000
0000
0001
0000
1000
0001
0000
0010
0000
0100
0000
,
1000
0000
0010
0001
0000
0010
0100
0000
0002
0000
0000
1000
2000
0000
3003
0000
,
0110
0010
0100
0010
0100
0010
0100
0010
,
1000
0001
1000
0001
1000
0001
1000
0001
,
1000
0010
1000
0010
1000
0010
1000
0010
,
0100
0001
0100
0001
0100
0001
0100
0001
,
0010
0100
1000
0100
0001
0100
0010
0001
,
1000
0001
0100
1000
0100
0001
0010
0100
,
2000
0000
0000
3200
0000
0000
0302
0000
,
0200
0000
0000
0000
,
0303
0000
0000
0000
;

//---------------dance-single - ----------------
#NOTEDATA:;
#CHARTNAME:;
#STEPSTYPE:dance-single;
#DESCRIPTION:;
#CHARTSTYLE:;
#DIFFICULTY:Easy;
#METER:7;
#RADARVALUES:0.318098,0.437042,0.122249,0.139714,0.004366,255.000000,241.000000,14.000000,16.000000,0.000000,0.000000,0.000000,0.000000,0.000000,0.318098,0.437042,0.122249,0.139714,0.004366,255.000000,241.000000,14.000000,16.000000,0.000000,0.000000,0.000000,0.000000,0.000000;
#CREDIT:Pandemonium X;
#DISPLAYBPM:88.000000:176.000000;
#NOTES:
0000
0000
0000
0000
,
0000
0000
0000
0000
,
0000
0000
0000
0000
,
0000
0000
0000
0000
,
0000
0000
0000
0000
,
1000
1000
0000
0001
,
1000
0010
1000
0100
,
0010
0000
0010
0000
0010
0000
0100
0010
,
0000
0000
0000
0000
,
0001
0100
0010
0000
,
1000
0100
0010
0000
,
0100
1000
0001
0100
,
0010
0000
1001
0110
,
1001
0001
1000
0000
,
0010
1000
0100
0000
,
0020
0000
0000
0130
0000
0000
0010
0000
,
0001
0001
0002
0000
,
1003
0001
0100
0000
,
0010
1000
0001
0000
,
1000
0100
1000
0001
,
0100
0000
0110
1001
,
0110
0100
1000
0000
,
0001
1000
0010
0000
,
0200
0000
0300
0001
,
2000
0000
3001
0110
,
0001
1000
0010
1000
,
0100
0010
0100
1000
,
0001
0100
0001
0010
,
0100
0010
0001
1000
,
0001
0100
0001
0010
,
1000
0010
0001
0100
,
1000
0100
0010
1000
,
2002
0000
3003
0000
,
0101
0000
0000
0001
,
1000
0010
1000
0100
,
0010
0000
0000
0100
0000
0000
1000
0000
,
0002
0000
1003
0000
,
1001
0000
0000
0100
,
0001
0010
1000
0010
,
0100
0000
0000
1000
0000
0000
0010
0000
,
0200
0000
0301
1001
,
1010
0000
0000
0010
,
1000
0100
0010
0100
,
1000
0000
0000
0010
0000
0000
0100
0000
,
0002
0000
0013
0000
,
0100
0000
0010
0100
,
1000
0100
0001
0100
,
0010
0000
0000
0001
0000
0000
0100
0000
,
0020
0000
0100
0130
,
1000
0001
0000
1000
,
0001
0010
0001
1000
,
0100
0100
1000
0010
,
0100
0001
0010
0100
,
0010
0010
0000
0100
,
0010
0001
1000
0010
,
0100
0000
0100
0000
0100
0000
0010
1000
,
0002
0000
1003
0110
,
1001
1000
0000
0010
,
1000
0100
1000
0010
,
0100
0100
0010
1000
,
0001
0010
0100
0010
,
0001
0001
0000
1000
,
0001
0100
0010
1000
,
0001
0000
0001
0000
0001
0000
1000
0010
,
0100
0000
0020
0000
,
0130
0000
0001
0000
1000
0100
0010
0100
,
1000
0000
0010
0000
0100
0001
0010
0100
,
0010
0000
0001
0000
1000
0001
0100
0001
,
0010
0000
0000
0000
0100
0000
0000
0000
1000
0000
0000
0100
0020
0000
0000
0000
,
0031
0000
0000
0001
,
0100
0010
1000
0001
,
1000
0000
0000
0010
0000
0000
0100
0000
,
0002
0000
0013
0000
,
0100
0000
0010
0001
,
0100
0010
1000
0001
,
0100
0000
0000
0010
0000
0000
2000
0000
,
0002
0000
0000
0000
,
3003
0000
0000
0000
;

//---------------dance-single - ----------------
#NOTEDATA:;
#CHARTNAME:;
#STEPSTYPE:dance-single;
#DESCRIPTION:;
#CHARTSTYLE:;
#DIFFICULTY:Medium;
#METER:10;
#RADARVALUES:0.419141,0.504279,0.200838,0.340552,0.030562,336.000000,313.000000,23.000000,39.000000,0.000000,0.000000,0.000000,0.000000,0.000000,0.419141,0.504279,0.200838,0.340552,0.030562,336.000000,313.000000,23.000000,39.000000,0.000000,0.000000,0.000000,0.000000,0.000000;
#CREDIT:Pandemonium X;
#DISPLAYBPM:88.000000:176.000000;
#NOTES:
0000
0000
0000
0000
,
0000
0000
0000
0000
,
0000
0000
0000
0000
,
0000
0000
0000
0000
,
0000
0000
0000
0000
,
1000
0000
1000
0000
0000
0001
0100
0001
,
0000
0010
0000
0100
0000
0010
0100
1000
,
0010
0000
0010
0000
0010
0000
0010
0100
,
0001
0000
0000
0000
,
1000
0010
1000
0010
1000
0000
0010
0000
,
0100
0001
0100
0001
0100
0000
0001
0000
,
1000
0001
1000
0001
1000
0000
0001
0000
,
1000
0000
0011
1100
,
0100
0010
0100
0010
0100
0000
0010
0000
,
0001
0100
0001
0100
0001
0000
0100
0000
,
0020
0000
0000
1030
0000
0000
0100
1000
,
0001
0000
0000
1000
0000
0000
1000
0000
0020
0000
0000
0000
0000
0000
0000
0000
,
0130
0010
1000
0010
0000
0010
0100
0000
,
0001
0010
0100
0010
0000
0010
0001
0000
,
1000
0001
0010
0100
0000
0010
0001
0000
,
0100
1000
0010
0000
0101
0000
0011
0000
,
0010
0100
1000
0001
1000
0000
0001
0000
,
0100
0001
0010
0001
1000
0000
0010
0000
,
1001
0000
0000
0000
0000
0001
0100
0010
,
2000
0000
0000
0100
3100
0000
0011
0000
,
1100
0000
0000
0000
0010
0000
0100
1000
,
0000
0000
0001
0000
0100
0000
0000
0000
0010
0000
0000
1000
0000
0000
0001
0000
,
1000
0000
0100
0010
0000
0100
1000
0001
,
0000
1000
0000
0010
0100
0000
0110
0000
,
1001
0000
0000
0000
1000
0000
0100
1000
,
0000
0001
0100
0000
0000
0000
0000
0000
,
0210
0000
0000
0301
0000
0010
0100
1000
,
1100
0000
0000
0110
0000
0000
0011
0000
0002
0000
0000
0000
2003
0000
0000
0000
,
3010
0000
0000
0000
0000
0100
0001
0010
,
0100
0010
0001
1000
,
0200
0000
0000
2300
0000
0000
3020
0000
,
0230
0000
0000
0001
0301
0000
0000
0000
,
1001
0000
0000
0000
0000
0001
0100
0001
,
1000
0100
0010
0100
,
2000
0000
0000
3020
0000
0000
0230
0000
,
0302
0000
0000
0100
0103
0000
1010
0000
,
0101
0000
0000
0000
0000
0010
0100
0001
,
1000
0100
1000
0010
,
0200
0000
0000
0302
0000
0000
0023
0000
,
0230
0000
0000
1000
1300
0000
0000
0000
,
1100
0000
0100
1000
,
0010
0100
0001
1000
,
0002
0000
0000
2003
0000
0000
3020
0000
,
0200
0000
0000
0330
,
1001
0000
1001
0000
0000
0001
0100
0001
,
0000
0100
0000
0010
0000
1000
0010
1000
,
0010
0000
1000
0000
0010
0000
0100
0010
,
0000
1000
0001
1000
0001
0000
1000
0000
,
0100
0000
0100
0000
0000
0100
0010
0001
,
0000
0010
0000
0010
0000
0010
0100
1000
,
0001
0000
1000
0000
0001
0000
1000
0001
,
0200
0000
0310
0101
,
0011
0000
0010
0000
0000
0001
0100
0001
,
0000
0100
0000
0010
0000
1000
0001
0010
,
0001
0000
1000
0000
0001
0000
0100
0001
,
0000
0010
0100
1000
0100
0000
1000
0000
,
0010
0000
0010
0000
0000
0100
0010
1000
,
0000
0001
0000
0001
0000
1000
0001
0010
,
0100
0000
0100
0000
0010
0000
0010
0001
,
0200
0000
0000
0000
0020
0000
0000
0330
,
1001
0000
0000
1000
0001
0010
1000
0010
,
0100
0000
0000
1000
0000
0000
0010
0000
0200
0000
0000
0001
0301
0000
0000
0000
,
1000
0000
0000
0001
1000
0010
1000
0100
,
2000
0000
0000
3020
0000
0000
0230
0000
0302
0000
0000
1000
2003
0000
0000
0000
,
3001
0000
0000
0000
0000
0100
0001
0010
,
0100
0010
0001
1000
,
0020
0000
0000
2030
0000
0000
3200
0000
,
0320
0000
0000
0100
0130
0000
0000
0000
,
1001
0000
0001
1000
,
0010
1000
0100
0010
,
0200
0000
0000
2300
0000
0000
3002
0000
,
2000
0000
0000
0000
,
3003
0000
0000
0000
;

//---------------dance-single - ----------------
#NOTEDATA:;
#CHARTNAME:;
#STEPSTYPE:dance-single;
#DESCRIPTION:;
#CHARTSTYLE:;
#DIFFICULTY:Beginner;
#METER:4;
#RADARVALUES:0.157178,0.232274,0.061125,0.000000,0.000000,126.000000,119.000000,7.000000,0.000000,0.000000,0.000000,0.000000,0.000000,0.000000,0.157178,0.232274,0.061125,0.000000,0.000000,126.000000,119.000000,7.000000,0.000000,0.000000,0.000000,0.000000,0.000000,0.000000;
#CREDIT:Pandemonium X;
#DISPLAYBPM:88.000000:176.000000;
#NOTES:
// measure 0
0000
0000
0000
0000
,  // measure 1
0000
0000
0000
0000
,  // measure 2
0000
0000
0000
0000
,  // measure 3
0000
0000
0000
0000
,  // measure 4
0000
0000
0000
0000
,  // measure 5
0010
0010
0000
0000
,  // measure 6
1000
0000
0000
0000
,  // measure 7
0001
0001
0001
0000
,  // measure 8
1001
0000
0000
0000
,  // measure 9
0010
0000
0000
0000
,  // measure 10
0100
0000
0000
0000
,  // measure 11
0001
0000
0000
0000
,  // measure 12
1000
0000
0010
0100
,  // measure 13
0001
0000
0000
0000
,  // measure 14
1000
0000
0000
0000
,  // measure 15
0100
0000
0000
0000
,  // measure 16
1000
0000
0001
0000
,  // measure 17
0100
0000
0000
0000
,  // measure 18
0010
0000
0000
0000
,  // measure 19
1000
0000
0000
0000
,  // measure 20
0001
0000
1000
0001
,  // measure 21
0100
0000
0000
0000
,  // measure 22
0010
0000
0000
0000
,  // measure 23
1000
0000
0000
0000
,  // measure 24
0001
0000
1000
0000
,  // measure 25
0110
0000
0000
0000
,  // measure 26
0100
0000
0000
0000
,  // measure 27
0001
0000
0000
0000
,  // measure 28
1000
0000
0001
0000
,  // measure 29
1000
0000
0000
0000
,  // measure 30
0010
0000
0000
0000
,  // measure 31
0100
0000
0001
0000
,  // measure 32
1001
0000
0000
0000
,  // measure 33
0110
0000
0000
0000
,  // measure 34
0010
0010
0010
0000
,  // measure 35
1000
0000
1000
0000
,  // measure 36
0001
0000
0001
0000
,  // measure 37
1001
0000
0000
0000
,  // measure 38
0100
0100
0100
0000
,  // measure 39
0010
0000
1000
1000
,  // measure 40
0001
0000
1000
0001
,  // measure 41
0100
0000
0000
0000
,  // measure 42
0010
0010
0010
0000
,  // measure 43
1000
0000
0000
0000
,  // measure 44
0001
0000
0000
0000
,  // measure 45
0100
0000
0010
0000
,  // measure 46
1000
0000
0001
0000
,  // measure 47
1000
0000
0001
0000
,  // measure 48
0110
0000
0000
0000
,  // measure 49
1000
1000
0000
0000
,  // measure 50
0001
0000
0000
0000
,  // measure 51
0010
0010
0010
0000
,  // measure 52
0100
0000
0000
0000
,  // measure 53
0010
0010
0000
0000
,  // measure 54
0001
0000
0000
0000
,  // measure 55
1000
1000
1000
0000
,  // measure 56
0010
0000
0100
0010
,  // measure 57
1000
1000
0000
0000
,  // measure 58
0001
0000
0000
0000
,  // measure 59
0010
0010
0010
0000
,  // measure 60
0001
0000
0000
0000
,  // measure 61
0100
0100
0000
0000
,  // measure 62
0010
0000
0000
0000
,  // measure 63
1000
1000
1000
0001
,  // measure 64
0000
0000
0000
0000
,  // measure 65
0100
0000
0000
0000
,  // measure 66
0010
0000
0000
0000
,  // measure 67
1000
0000
0000
0000
,  // measure 68
0001
0000
1000
0000
,  // measure 69
0010
0000
0000
0000
,  // measure 70
0100
0000
0000
0000
,  // measure 71
0001
0000
1000
0000
,  // measure 72
0010
0000
1000
0000
,  // measure 73
0100
0000
0010
0010
,  // measure 74
0001
0000
1000
0000
,  // measure 75
0010
0000
0100
0000
,  // measure 76
1001
0000
0000
0000
;
