#VERSION:0.83;
#TITLE:U.S.A.;
#SUBTITLE:;
#ARTIST:Joe Yellow;
#TITLETRANSLIT:;
#SUBTITLETRANSLIT:;
#ARTISTTRANSLIT:;
#GENRE:EUROBEAT;
#ORIGIN:;
#CREDIT:;
#BANNER:banner.png;
#BACKGROUND:background.png;
#PREVIEWVID:;
#JACKET:jacket.png;
#CDIMAGE:;
#DISCIMAGE:;
#LYRICSPATH:;
#CDTITLE:cdtitle.png;
#MUSIC:U.S.A..ogg;
#OFFSET:-0.015000;
#SAMPLESTART:55.013569;
#SAMPLELENGTH:13.749645;
#SELECTABLE:YES;
#BPMS:0.000=139.640;
#STOPS:;
#DELAYS:;
#WARPS:;
#TIMESIGNATURES:0.000=4=4;
#TICKCOUNTS:0.000=4;
#COMBOS:0.000=1;
#SPEEDS:0.000=1.000=0.000=0;
#SCROLLS:0.000=1.000;
#FAKES:;
#LABELS:0.000=Song Start;
#BGCHANGES:;
#KEYSOUNDS:;
#ATTACKS:
;

//---------------dance-single - ----------------
#NOTEDATA:;
#CHARTNAME:;
#STEPSTYPE:dance-single;
#DESCRIPTION:;
#CHARTSTYLE:;
#DIFFICULTY:Hard;
#METER:11;
#RADARVALUES:0.430145,0.506918,0.266799,0.152456,0.104814,316.000000,288.000000,28.000000,16.000000,0.000000,0.000000,0.000000,0.000000,0.000000,0.430145,0.506918,0.266799,0.152456,0.104814,316.000000,288.000000,28.000000,16.000000,0.000000,0.000000,0.000000,0.000000,0.000000;
#CREDIT:Pandemonium X;
#NOTES:
// measure 0
0000
0000
0000
0000
,  // measure 1
0000
0000
0000
0000
,  // measure 2
0000
0000
0000
0000
,  // measure 3
0000
0000
0000
0000
,  // measure 4
1000
0000
0001
0000
0010
0000
0000
0010
0000
0000
0100
0000
1000
0000
0001
0000
,  // measure 5
0100
0000
0001
0000
1000
0000
0000
1000
0000
0000
0001
0000
0010
0000
0100
0000
,  // measure 6
1000
0001
0000
1000
0001
0000
0100
0010
0000
0100
0010
0000
0100
0000
0001
0000
,  // measure 7
2010
0001
0010
3100
,  // measure 8
1001
0000
0110
0000
1001
0000
0000
0100
,  // measure 9
0000
0001
0010
0100
0010
0001
1000
0010
,  // measure 10
0100
0001
1000
0000
0100
0000
0010
0000
,  // measure 11
0001
0010
1000
0010
0001
0010
0100
1000
,  // measure 12
1001
0000
0110
0000
1001
0000
0000
0100
,  // measure 13
0000
0010
1000
0001
0010
0001
1000
0100
,  // measure 14
0010
0100
1000
0000
0100
0000
0010
0000
,  // measure 15
0001
0000
1000
0000
0010
0100
0001
1000
,  // measure 16
1001
0000
0110
0000
1001
0000
0000
1000
,  // measure 17
0000
0001
0010
0001
1000
0100
1000
0001
,  // measure 18
0100
0010
0100
0000
0010
0000
1000
0000
,  // measure 19
0001
1000
0010
0001
0010
0100
0010
1000
,  // measure 20
1001
0000
0110
0000
1001
0000
0000
0001
,  // measure 21
0000
0010
0001
1000
0100
1000
0010
0100
,  // measure 22
0001
1000
0100
0000
0010
0000
0100
0000
,  // measure 23
1000
0000
0000
0000
0001
0000
0000
0000
0100
0010
0100
0010
1000
0001
1000
0001
,  // measure 24
2000
0000
3200
0000
0320
0000
0031
0010
,  // measure 25
0100
0010
0000
1001
0000
0000
0000
0100
,  // measure 26
0000
0010
1000
0010
0100
0001
0010
0000
,  // measure 27
0002
0000
0000
2000
0000
0000
3003
0000
,  // measure 28
0020
0000
0230
0000
0302
0000
1003
0100
,  // measure 29
1000
0001
0100
0001
0000
0000
0000
0010
,  // measure 30
0000
0100
0010
0001
1000
0000
0001
0000
,  // measure 31
1001
0010
1001
0100
1001
0000
0000
0000
,  // measure 32
0102
0010
0100
1003
,  // measure 33
0100
0010
0001
1000
0000
0000
0000
0100
,  // measure 34
0000
0010
0100
1000
0010
0100
0001
0010
,  // measure 35
0110
0011
0000
0000
0000
0000
0000
0000
,  // measure 36
2100
0010
0001
3100
,  // measure 37
1000
0100
1000
0001
0000
0000
0000
0100
,  // measure 38
0000
0010
1000
0001
0010
0000
0000
0000
,  // measure 39
0100
0010
0001
2000
0000
0000
3000
0000
,  // measure 40
0201
0001
0010
1300
,  // measure 41
1000
0100
0001
1000
0000
0000
0000
0100
,  // measure 42
0000
0010
0100
1000
0001
0100
0001
0010
,  // measure 43
0110
1100
0000
0000
0000
0000
0000
0000
,  // measure 44
1020
1000
0100
0031
,  // measure 45
0001
0010
0100
0001
0000
0000
0000
1000
,  // measure 46
0000
0001
1000
0010
1000
0000
0000
0000
,  // measure 47
0001
0010
0100
0010
0000
0000
0000
0000
,  // measure 48
0100
0000
1000
0000
0010
0000
0000
0010
0000
0000
0100
0000
0010
0000
1000
0000
,  // measure 49
0001
0000
0010
0000
0100
0000
0000
0100
0000
0000
0100
0000
0010
0000
0001
0000
,  // measure 50
1000
0001
0000
0100
0010
0000
1000
0001
0000
0100
0010
0000
1000
0000
0001
0000
,  // measure 51
0102
0010
0100
1003
,  // measure 52
0001
0000
0010
0000
0100
0000
0000
0100
0000
0000
0010
0000
0100
0000
1000
0000
,  // measure 53
0010
0000
0100
0000
0001
0000
0000
0001
0000
0000
1000
0000
0010
0000
0100
0000
,  // measure 54
0001
0100
0000
0010
1000
0000
0001
0100
0000
0010
1000
0000
0001
0000
1000
0000
,  // measure 55
2100
0100
0010
3001
,  // measure 56
0110
0000
0000
0000
;

//---------------dance-single - ----------------
#NOTEDATA:;
#CHARTNAME:;
#STEPSTYPE:dance-single;
#DESCRIPTION:;
#CHARTSTYLE:;
#DIFFICULTY:Medium;
#METER:7;
#RADARVALUES:0.308997,0.426878,0.409727,0.000000,0.000000,227.000000,184.000000,43.000000,0.000000,0.000000,0.000000,0.000000,0.000000,0.000000,0.308997,0.426878,0.409727,0.000000,0.000000,227.000000,184.000000,43.000000,0.000000,0.000000,0.000000,0.000000,0.000000,0.000000;
#CREDIT:Pandemonium X;
#NOTES:
0000
0000
0000
0000
,
0000
0000
0000
0000
,
0000
0000
0000
0000
,
0000
0000
0000
0000
,
1000
0010
0100
0100
,
0010
1000
0001
0001
,
0010
0010
0010
0010
,
0110
1001
0110
1001
,
0101
1010
0101
0000
,
0001
1000
0100
0010
,
0100
1000
0000
0000
0000
0000
0000
0000
,
0100
1000
0010
0100
,
0101
0011
0101
0000
,
0001
1000
0010
1000
,
0100
0010
0000
0000
0000
0000
0000
0000
,
0100
1000
0010
0100
,
1001
1010
1001
0000
,
1000
0001
0010
0100
,
0010
0001
0000
0000
0000
0000
0000
0000
,
0010
0100
1000
0010
,
0101
1010
1100
0000
,
1000
0100
1000
0001
,
0100
0000
0000
0000
,
0010
0000
0100
0000
,
0001
0001
0001
1000
,
0001
0100
0010
0000
,
1000
1000
0010
0100
,
0011
0000
0000
1100
0000
0000
0000
0000
,
0100
1000
0010
0100
,
0001
0001
1000
0000
,
0100
1000
0010
0100
,
0001
1000
0001
1000
0001
0000
0000
0000
,
1010
1010
0011
0011
,
0001
1000
0010
0000
,
0100
0010
1000
0001
,
0010
0100
0000
0000
0000
0000
0000
0000
,
0011
0011
1100
1100
,
0100
0000
1000
0010
0000
0000
0000
0000
,
0100
0000
0010
1000
0010
0000
0000
0000
,
0100
0001
0100
0001
0000
0000
0000
0000
,
0101
0011
0101
0011
,
0001
1000
0001
1000
0000
0000
0000
0000
,
0100
1000
0010
1000
,
0100
0010
0000
0000
0000
0000
0000
0000
,
1100
1100
1010
1010
,
1000
0010
1000
0010
0000
0000
0000
0000
,
1000
0001
0100
0000
,
0010
0100
0010
0100
0000
0000
0000
0000
,
0010
1000
0001
0010
,
0100
0010
0001
1000
,
0100
0100
0100
0100
,
0110
1001
0110
1001
,
0001
1000
0010
1000
,
0100
1000
0010
0100
,
0001
0001
0001
0001
,
1001
0110
1001
0110
,
1001
0000
0000
0000
;

//---------------dance-single - ----------------
#NOTEDATA:;
#CHARTNAME:;
#STEPSTYPE:dance-single;
#DESCRIPTION:;
#CHARTSTYLE:;
#DIFFICULTY:Easy;
#METER:4;
#RADARVALUES:0.185126,0.398412,0.228685,0.000000,0.000000,136.000000,112.000000,24.000000,0.000000,0.000000,0.000000,0.000000,0.000000,0.000000,0.185126,0.398412,0.228685,0.000000,0.000000,136.000000,112.000000,24.000000,0.000000,0.000000,0.000000,0.000000,0.000000,0.000000;
#CREDIT:Pandemonium X;
#NOTES:
0000
0000
0000
0000
,
0000
0000
0000
0000
,
0000
0000
0000
0000
,
0000
0000
0000
0000
,
1000
0000
0001
0000
,
0100
0000
0010
0000
,
1000
0000
0010
0000
,
0110
1001
0110
1001
,
1001
0110
1001
0000
,
0001
0000
1000
0000
,
0010
0000
0000
0000
,
0100
0000
0010
0000
,
1001
0110
1001
0000
,
0001
0000
1000
0000
,
0100
0000
0000
0000
,
1000
0000
0010
0000
,
0110
1001
0110
0000
,
0001
0000
1000
0000
,
0010
0000
0000
0000
,
1000
0000
0100
0000
,
1001
0110
1001
0000
,
0001
0000
0010
0000
,
0100
0000
0000
0000
,
0010
0000
0001
0000
,
1000
1000
1000
0001
,
1000
0000
0000
0000
,
0001
0001
1000
0001
,
0110
0000
0000
0000
,
0100
0100
0010
0010
,
0100
0000
0000
0000
,
0100
0000
0001
0000
,
1001
0110
1001
0000
,
1000
1000
1000
1000
,
0001
0000
0000
0000
,
0100
0000
0010
0000
,
1000
0000
0000
0000
,
0001
0001
0001
0001
,
0010
0000
0000
0000
,
0110
0000
0000
0000
,
1001
0000
0000
0000
,
0010
0010
0010
0010
,
1000
0000
0000
0000
,
0100
0000
1000
0000
,
0001
0000
0000
0000
,
0100
0100
0100
0100
,
0010
0000
0000
0000
,
1001
0000
0000
0000
,
0110
0000
0000
0000
,
1000
0000
0010
0000
,
0100
0000
0001
0000
,
0010
0000
0100
0000
,
1000
0001
0100
0010
,
1000
0000
0010
0000
,
0100
0000
0001
0000
,
0010
0000
0100
0000
,
1000
0100
0010
0001
;

//---------------dance-single - ----------------
#NOTEDATA:;
#CHARTNAME:;
#STEPSTYPE:dance-single;
#DESCRIPTION:;
#CHARTSTYLE:;
#DIFFICULTY:Beginner;
#METER:2;
#RADARVALUES:0.108897,0.160079,0.047643,0.000000,0.000000,80.000000,75.000000,5.000000,0.000000,0.000000,0.000000,0.000000,0.000000,0.000000,0.108897,0.160079,0.047643,0.000000,0.000000,80.000000,75.000000,5.000000,0.000000,0.000000,0.000000,0.000000,0.000000,0.000000;
#CREDIT:Pandemonium X;
#NOTES:
0000
0000
0000
0000
,
0000
0000
0000
0000
,
0000
0000
0000
0000
,
0000
0000
0000
0000
,
0010
0000
0000
0000
,
0100
0000
0000
0000
,
0001
0000
0000
0000
,
1000
0000
0000
0000
,
0010
0010
0010
0000
,
0100
0000
0000
0000
,
0001
0000
0000
0000
,
1000
0000
0000
0000
,
0001
0001
0001
0000
,
1000
0000
0000
0000
,
0010
0000
0000
0000
,
1000
0000
0000
0000
,
0100
0100
0100
0000
,
1000
0000
0000
0000
,
0010
0000
0000
0000
,
0100
0000
0000
0000
,
0001
0001
0001
0000
,
1000
0000
0000
0000
,
0010
0000
0000
0000
,
1000
0000
0000
0000
,
0001
0000
1000
0000
,
0001
0000
0000
0000
,
0100
0000
0010
0000
,
0100
0000
0000
0000
,
0001
0000
1000
0000
,
0010
0000
0000
0000
,
0100
0000
0001
0000
,
1000
1000
1000
0000
,
0001
0000
0001
0000
,
0001
0000
0000
0000
,
0100
0000
0100
0000
,
0100
0000
0000
0000
,
0010
0000
0010
0000
,
0010
0000
0000
0000
,
1001
0000
0000
0000
,
0110
0000
0000
0000
,
1000
0000
1000
0000
,
1000
0000
0000
0000
,
0010
0000
0010
0000
,
0010
0000
0000
0000
,
0100
0000
0100
0000
,
0100
0000
0000
0000
,
1001
0000
0000
0000
,
0110
0000
0000
0000
,
1000
0000
0000
0000
,
0010
0000
0000
0000
,
0100
0000
0000
0000
,
0001
0000
1000
0000
,
0010
0000
0000
0000
,
0100
0000
0000
0000
,
0001
0000
0000
0000
,
1000
0000
0001
0000
,
0110
0000
0000
0000
;

//---------------dance-single - ----------------
#NOTEDATA:;
#CHARTNAME:;
#STEPSTYPE:dance-single;
#DESCRIPTION:;
#CHARTSTYLE:;
#DIFFICULTY:Challenge;
#METER:13;
#RADARVALUES:0.491400,0.640317,0.524069,0.009529,0.161985,361.000000,306.000000,55.000000,1.000000,168.000000,0.000000,0.000000,0.000000,0.000000,0.491400,0.640317,0.524069,0.009529,0.161985,361.000000,306.000000,55.000000,1.000000,168.000000,0.000000,0.000000,0.000000,0.000000;
#CREDIT:Pandemonium X;
#NOTES:
// measure 0
0000
0000
0000
0000
,  // measure 1
0000
0000
0000
0000
,  // measure 2
0000
0000
0000
0000
,  // measure 3
0000
0000
0000
0000
,  // measure 4
0001
0000
1000
0000
0100
0000
0000
0100
0000
0000
0010
0000
0001
0000
1000
0000
,  // measure 5
0010
0000
1000
0000
0100
0000
0000
0100
0000
0000
1000
0000
0100
0000
0010
0000
,  // measure 6
0001
0001
0000
1000
1000
0000
0010
0010
0000
0100
0100
0000
0010
0000
1000
0000
,  // measure 7
1010
MMMM
0011
MMMM
1100
MMMM
0101
MMMM
,  // measure 8
1001
MMMM
0110
MMMM
1001
0000
0000
0010
,  // measure 9
0000
1000
0100
0010
0100
1000
0001
0100
,  // measure 10
0010
1000
0001
0000
0010
0000
0100
0000
,  // measure 11
1000
0100
0001
0100
1000
0100
0010
0001
,  // measure 12
1001
MMMM
0110
MMMM
1001
0000
0000
0010
,  // measure 13
0000
0100
0001
1000
0100
1000
0001
0010
,  // measure 14
0100
0010
0001
0000
0010
0000
0100
0000
,  // measure 15
0000
0001
1000
0000
0001
1000
0001
0000
0100
0010
0100
0010
1000
0001
1000
0001
,  // measure 16
1000
MMMM
0110
MMMM
1001
0000
0000
0001
,  // measure 17
0000
1000
0100
1000
0001
0010
0001
1000
,  // measure 18
0010
0100
0010
0000
0100
0000
0001
0000
,  // measure 19
1000
0001
0100
1000
0100
0010
0100
0001
,  // measure 20
1001
MMMM
0110
MMMM
1001
0000
0000
1000
,  // measure 21
0000
0100
1000
0001
0010
0001
0100
0010
,  // measure 22
1000
0001
0010
0000
0100
0000
0010
0000
,  // measure 23
0001
0000
0000
0000
1000
0000
0000
0000
0010
0100
0010
0100
0001
1000
0001
1000
,  // measure 24
0001
MMMM
0110
MMMM
1010
MMMM
1000
0100
,  // measure 25
0010
0100
0000
1001
0000
0000
0000
0010
,  // measure 26
0000
0100
0001
0100
0010
1000
0100
0000
,  // measure 27
1010
MMMM
MMMM
0101
0000
0000
MMMM
0000
,  // measure 28
0110
0000
0101
0000
1010
0000
0001
0010
,  // measure 29
0001
1000
0010
1000
0000
0000
0000
0100
,  // measure 30
0000
0010
0100
1000
0001
0000
1000
0000
,  // measure 31
1001
0000
0110
0000
1001
0000
0110
0000
1000
0001
1000
0001
1000
0001
1000
0001
,  // measure 32
1000
MMMM
0110
MMMM
0011
MMMM
1001
0000
,  // measure 33
0010
0100
1000
0001
0000
0000
0000
0010
,  // measure 34
0000
0100
0010
0001
0100
0010
1000
0100
,  // measure 35
1100
0011
0000
0000
MMMM
0000
MMMM
0000
,  // measure 36
0011
MMMM
0110
MMMM
1100
MMMM
1010
0000
,  // measure 37
0001
0010
0001
1000
0000
0000
0000
0010
,  // measure 38
0000
0100
0001
1000
0100
0000
0000
0000
,  // measure 39
0010
0100
1000
0002
0000
0000
0003
0000
,  // measure 40
1010
MMMM
1100
MMMM
0110
MMMM
0011
0000
,  // measure 41
0001
0010
1000
0001
0000
0000
0000
0010
,  // measure 42
0000
0100
0010
0001
1000
0010
1000
0100
,  // measure 43
0110
1001
0000
0000
MMMM
0000
MMMM
0000
,  // measure 44
0101
MMMM
0011
MMMM
0110
MMMM
1100
0000
,  // measure 45
1000
0100
0010
1000
0000
0000
0000
0001
,  // measure 46
0000
1000
0001
0100
0001
0000
0000
0000
,  // measure 47
1000
0000
0100
0000
0010
0000
0100
0000
0000
0000
0000
0000
0010
0001
0010
0001
,  // measure 48
0010
0000
0001
0000
0100
0000
0000
0100
0000
0000
0010
0000
0100
0000
0001
0000
,  // measure 49
1000
0000
0100
0000
0010
0000
0000
0010
0000
0000
0010
0000
0100
0000
1000
0000
,  // measure 50
0001
0001
0000
0010
0010
0000
0100
0100
0000
1000
1000
0000
0001
0000
1000
0000
,  // measure 51
1010
MMMM
1100
MMMM
0110
MMMM
0011
MMMM
,  // measure 52
1000
0000
0100
0000
0010
0000
0000
0010
0000
0000
0100
0000
0010
0000
0001
0000
,  // measure 53
0100
0000
0010
0000
1000
0000
0000
1000
0000
0000
0001
0000
0100
0000
0010
0000
,  // measure 54
1000
1000
0000
0100
0100
0000
0010
0010
0000
0100
0100
0000
1000
0000
0001
0000
,  // measure 55
0011
MMMM
0110
MMMM
1100
MMMM
1001
MMMM
,  // measure 56
0110
0000
0000
0000
;
