#VERSION:0.83;
#TITLE:Time Attack;
#SUBTITLE:(BLUE);
#ARTIST:r300k;
#TITLETRANSLIT:;
#SUBTITLETRANSLIT:;
#ARTISTTRANSLIT:;
#GENRE:ELECTRONICA;
#ORIGIN:;
#CREDIT:;
#BANNER:banner.png;
#BACKGROUND:background.png;
#PREVIEWVID:;
#JACKET:jacket.png;
#CDIMAGE:;
#DISCIMAGE:;
#LYRICSPATH:;
#CDTITLE:cdtitle.png;
#MUSIC:Time Attack (BLUE).ogg;
#OFFSET:-0.020000;
#SAMPLESTART:82.689072;
#SAMPLELENGTH:16.134460;
#SELECTABLE:YES;
#BPMS:0.000=119.000;
#STOPS:;
#DELAYS:;
#WARPS:;
#TIMESIGNATURES:0.000=4=4;
#TICKCOUNTS:0.000=4;
#COMBOS:0.000=1;
#SPEEDS:0.000=1.000=0.000=0;
#SCROLLS:0.000=1.000;
#FAKES:;
#LABELS:0.000=Song Start;
#BGCHANGES:;
#KEYSOUNDS:;
#ATTACKS:
;

//---------------dance-single - ----------------
#NOTEDATA:;
#CHARTNAME:;
#STEPSTYPE:dance-single;
#DESCRIPTION:;
#CHARTSTYLE:;
#DIFFICULTY:Hard;
#METER:14;
#RADARVALUES:0.649180,0.764601,0.302951,0.366730,0.637791,570.000000,532.000000,38.000000,46.000000,0.000000,0.000000,0.000000,0.000000,0.000000,0.649180,0.764601,0.302951,0.366730,0.637791,570.000000,532.000000,38.000000,46.000000,0.000000,0.000000,0.000000,0.000000,0.000000;
#CREDIT:Pandemonium X;
#NOTES:
0000
0000
0000
0000
,
2000
0000
3100
0010
0002
0000
0013
0100
,
2000
0000
3100
0010
0001
0010
0100
0010
,
0002
0000
1003
0001
0200
0000
0301
1000
,
0010
0001
0010
0100
0001
0010
0100
1000
,
0002
0000
1003
0100
0020
0000
0130
1000
,
0020
0000
0130
1000
0100
0001
0010
0001
,
0200
0000
0301
0010
0200
0000
0310
0001
,
1000
0001
0010
0100
0010
0001
1000
0000
,
1001
0000
0001
0000
0010
0100
0000
0010
0000
0001
0000
0100
0000
0010
1000
0100
,
0010
0100
1000
0000
0100
0000
1000
0010
0000
0100
0000
0001
0000
0010
0001
1000
,
0010
0000
1000
0000
0100
0000
0010
0100
0000
1000
0000
0001
0000
0100
0001
0010
,
0100
0000
0100
0000
0010
0001
0100
0001
1000
0000
0001
0000
0100
0001
0010
0001
,
1000
0000
0100
0000
0010
0100
0000
1000
0000
0010
0000
0100
0000
0001
1000
0000
,
0000
0000
0100
0000
1000
0000
0010
0100
0000
0001
0000
0010
0000
0100
0010
0000
,
0000
0000
0100
0000
0010
0000
0001
1000
0000
0001
0100
0000
0100
0000
0100
0000
,
0110
0110
1001
1001
0020
0000
0130
0001
,
2200
3000
1300
0100
0001
0100
0010
0001
,
1000
0001
1000
0000
0001
1000
0001
0000
0100
0000
0100
0000
0101
0000
0011
0000
,
0100
1000
0001
0000
1001
0000
1000
0000
0100
0000
0100
0000
0010
0000
0100
0000
,
2000
0000
3001
0100
0020
2030
3200
0320
,
0031
0100
1000
0100
0010
1000
0100
0001
,
0100
0000
0010
0000
0001
0000
1000
0000
0010
1000
0100
0000
0010
0000
0100
0000
,
1000
0001
0100
0000
0012
0000
0000
0000
0103
0000
0010
0000
0100
0000
1000
0000
,
0002
0000
0000
0000
2003
0000
0000
0000
3010
0100
0001
0010
0100
1000
0100
0010
,
0002
0000
0000
0203
0000
0320
0000
2030
,
0000
0000
0000
0000
3010
0100
0001
1000
,
0200
0000
0000
0310
0000
0000
0100
0000
2000
0000
0000
3001
0000
0000
0100
0000
,
0020
0000
0000
0000
0000
0000
0000
0000
1030
0001
1000
0001
1000
0001
1000
0001
,
2000
0000
0000
3200
0000
0302
0000
0203
,
0000
0000
0000
0000
0000
0000
0000
0000
0000
0310
0100
1000
0100
1000
0100
1000
,
0200
0000
0000
2300
0000
3002
0000
0000
,
0103
0010
0001
0100
1000
0100
0010
1000
0001
0010
1000
0010
0001
0100
0010
1000
,
0100
0000
1000
0000
0010
1000
0000
1002
0000
0000
0013
0000
0100
0000
0010
0000
,
0000
0000
0100
0000
1000
0100
1000
0001
0100
0000
0000
2002
0000
0000
0000
0000
,
3003
0000
0010
0000
1000
0001
0010
0001
1000
0000
0100
0000
0010
0100
1000
0001
,
0100
0000
0001
0000
1000
0010
0000
0001
0020
0000
0000
0000
0000
0000
0000
0000
,
0130
0000
1000
0000
0001
1000
0000
0010
0000
0000
0001
0000
0010
0000
0100
0000
,
1000
0000
0100
0000
0010
0100
1000
0001
0000
0000
0200
0000
0000
0000
0000
0000
,
0301
0000
0010
0000
0100
0010
0001
1000
0000
0000
0001
0000
1000
0000
0100
0000
,
0010
0001
0100
0010
0000
0100
0010
1000
0000
0001
0010
0100
0000
0010
0001
0000
,
1000
0100
1000
0010
0100
0001
0010
0100
0010
0001
0100
0010
1000
0000
0001
0000
,
0010
0100
0010
0001
0100
0010
1000
0001
0010
0100
1000
0100
0010
0001
0010
0001
,
0010
0001
0100
0010
0100
0010
1000
0001
0010
0100
0010
0001
1000
0000
0100
0000
,
0010
0100
1000
0000
0100
0010
0001
0000
0100
1000
0010
0100
0001
0010
0100
1000
,
0001
0000
0001
0000
0100
0001
0000
0011
0000
0110
0000
1100
0000
0100
1000
0000
,
0000
0000
1100
0000
0110
0000
0010
0001
0000
0110
0000
1100
0000
1000
0001
0000
,
0000
0000
0101
0000
0110
0000
0100
0001
0000
0001
0010
0000
0110
0000
0110
0000
,
0100
1000
0100
1000
0001
0010
0001
0010
0001
0100
0001
0100
0020
0000
0000
0000
,
2030
0000
3100
0010
0011
1010
0001
1100
,
0001
0000
1000
0000
0110
0000
0100
0001
0010
0000
0100
0000
0110
0000
1001
0000
,
1000
0010
1000
0000
0001
0020
0000
0000
0130
0010
0001
0010
0100
0010
0001
1000
,
0010
0100
0010
0100
0010
1000
0001
1000
0001
0010
0001
0010
0100
1000
0100
1000
,
0002
0000
0103
0001
0011
1100
0001
1010
,
0100
0000
0101
0000
0011
0000
0010
0000
0100
1000
0010
0000
0110
0000
0101
0000
,
0001
0010
0001
0000
0010
0100
0010
0000
0100
1000
0100
0000
1000
0001
1000
0000
,
0010
1000
0010
0001
0010
1000
1100
0000
,
1000
0000
0001
0000
0000
0000
0010
0000
0000
0000
0100
1000
0010
0000
0100
0000
,
0001
0000
0000
1000
0000
1000
0000
1000
0010
0100
0010
0000
0100
0000
0001
0000
,
1000
0000
1000
0000
0000
0100
0010
0001
0010
0000
0001
0000
0100
0000
0001
0000
,
1000
0000
0000
0100
0000
0100
0000
0010
0100
1000
0010
0100
0001
0010
0100
1000
,
0001
0000
0000
2020
0000
0000
3000
0030
;

//---------------dance-single - ----------------
#NOTEDATA:;
#CHARTNAME:;
#STEPSTYPE:dance-single;
#DESCRIPTION:;
#CHARTSTYLE:;
#DIFFICULTY:Medium;
#METER:10;
#RADARVALUES:0.460120,0.517956,0.175392,0.398619,0.143503,404.000000,382.000000,22.000000,50.000000,0.000000,0.000000,0.000000,0.000000,0.000000,0.460120,0.517956,0.175392,0.398619,0.143503,404.000000,382.000000,22.000000,50.000000,0.000000,0.000000,0.000000,0.000000,0.000000;
#CREDIT:Pandemonium X;
#NOTES:
0000
0000
0000
0000
,
2000
0000
3100
1000
0020
0000
0130
0001
,
2000
0000
3001
0010
0100
0010
0001
1000
,
0020
0000
0130
0001
2000
0000
3001
0010
,
0100
0010
0001
0100
0020
0000
2030
0000
,
3200
0000
0310
0100
2000
0000
3100
0010
,
0002
0000
0103
0001
0010
1000
0010
0100
,
0020
0000
0031
0100
0020
0000
0130
0001
,
1000
0100
0001
0100
0010
0001
2000
0000
,
3001
0000
1100
0000
0010
1000
0010
0001
,
0010
0000
0101
0000
1000
0100
0001
0010
,
0100
0000
0110
0000
0001
0100
0001
1000
,
0100
0100
0010
0010
0100
0010
0001
1000
,
0001
0000
1000
0000
0010
1000
0000
0001
0000
0010
0000
0100
0000
0010
0001
0000
,
0000
0000
1000
0000
0100
0000
1000
0010
0000
0100
0000
0001
0000
1000
0001
0000
,
0000
0000
1000
0000
0010
0000
0100
0001
0000
0010
0100
0000
0010
0000
0010
0000
,
0001
0001
0100
1000
0100
0001
0100
0010
,
1020
0000
0130
0001
0010
0010
0100
0010
,
0001
0001
1000
1000
0001
1000
0110
0110
,
2000
0000
3100
0010
0100
0100
0010
0001
,
2000
0000
3001
0010
1000
0100
0001
0100
,
2100
0000
3001
0100
0010
0010
0100
0001
,
1000
1000
0001
0001
0010
0010
0110
0110
,
1000
0100
0020
0000
0130
1000
0002
0000
,
0203
0000
0302
0000
0023
0000
0130
0010
,
0002
0000
0000
2003
0000
3020
0000
0230
,
0000
0000
0000
0000
0310
0100
0010
1000
,
0001
0000
0000
0001
0000
0000
0001
0000
1000
0000
0000
1000
0000
0000
1000
0000
,
0020
0000
0000
0000
0200
0000
0000
0330
,
0020
0000
0000
2030
0000
3020
0000
0230
,
0000
0000
0020
0300
,
0230
0000
0000
0302
0000
2003
0000
0000
,
3001
0010
0100
1000
0100
0010
0100
1000
,
1001
0000
0001
0000
1000
0010
0000
1000
0000
0000
0100
0000
0010
0000
0100
0000
,
0000
0000
0010
0000
0001
0000
0100
0010
0000
0000
2000
0000
0000
0000
0000
0000
,
3000
0000
0001
0000
1000
0010
0000
1000
0000
0000
0001
0000
0010
0000
0100
0000
,
0000
0000
0010
0000
0001
0100
0000
0100
0020
0000
0000
0000
0030
0000
0000
0000
,
1000
0000
0100
0000
0001
0100
0000
0010
0000
0000
0001
0000
1000
0000
0100
0000
,
0000
0000
1000
0000
0010
0000
0000
0100
0000
0000
0002
0000
0000
0000
0000
0000
,
0003
0000
0100
0000
1000
0010
0000
0100
0000
0000
0001
0000
1000
0000
0002
0000
,
0000
0010
0000
0100
0000
1000
0003
0000
,
1001
0001
0010
0001
0010
0100
0010
0100
,
0010
0001
0100
0010
0100
0100
0100
0100
,
0010
1000
0010
0001
0010
1000
0010
0100
,
0001
0001
0010
0010
0100
0100
1000
1000
,
0001
0000
1000
0000
0010
0100
0000
0001
0000
0010
0000
0100
0000
0010
0001
0000
,
0000
0000
1000
0000
0001
0000
0100
0001
0000
0010
0000
0100
0000
0010
0100
0000
,
0000
0000
0010
0000
0001
0000
1000
0010
0000
0010
1000
0000
1000
0000
1000
0000
,
0100
0001
0100
1000
0010
0001
0020
0000
,
0230
0000
0301
0010
0100
0100
0010
0001
,
1001
0010
1001
0100
1001
0110
1001
0000
,
0001
0020
0100
0000
0031
0001
2000
0000
,
3100
0000
1000
0010
0200
0000
0302
0000
,
0013
0000
0100
0010
0001
0001
1000
0001
,
1001
0010
1001
0100
1001
0110
1001
1000
,
0002
0000
0013
0000
0100
0010
0001
0000
,
0100
0010
1000
0001
0010
0100
0020
0000
,
0031
0000
1000
0000
0010
1000
0100
0000
,
0010
0000
0100
0000
0010
0001
0100
0000
,
0010
0000
1000
0000
0001
1000
0100
0000
,
1000
0000
0010
0000
0100
0010
1000
0000
,
0001
0000
0000
0220
0000
0000
0000
0330
;

//---------------dance-single - ----------------
#NOTEDATA:;
#CHARTNAME:;
#STEPSTYPE:dance-single;
#DESCRIPTION:;
#CHARTSTYLE:;
#DIFFICULTY:Easy;
#METER:6;
#RADARVALUES:0.315479,0.369968,0.119586,0.127558,0.000000,277.000000,262.000000,15.000000,16.000000,0.000000,0.000000,0.000000,0.000000,0.000000,0.315479,0.369968,0.119586,0.127558,0.000000,277.000000,262.000000,15.000000,16.000000,0.000000,0.000000,0.000000,0.000000,0.000000;
#CREDIT:Pandemonium X;
#NOTES:
0000
0000
0000
0000
,
1000
0000
0010
0000
,
0100
0000
0001
1000
,
0010
0000
1000
0000
,
0100
1000
0010
1000
,
0100
0000
0010
0000
,
0001
0100
0001
1000
,
0100
0000
1000
0000
,
0010
0100
0001
1000
,
1001
0000
0001
0000
0010
0000
0001
0100
,
0001
0000
0100
0000
0010
0000
1000
0100
,
1000
0000
0100
0000
1000
0000
0010
0100
,
0010
0000
0100
0000
0001
1000
0001
1000
,
0001
0100
0010
1000
,
1010
0000
0010
0000
0100
0000
0001
0001
,
1000
0000
0001
0000
0010
0000
0100
0100
,
0010
0000
0100
0000
1000
0010
0100
0000
,
1002
0000
0013
0000
0100
1000
0010
0000
,
0100
0000
0101
0000
0001
1000
0010
1000
,
0001
0000
1001
0000
1000
0100
1000
0000
,
0100
0000
1010
0000
0100
0010
0010
1000
,
0001
0000
1001
0000
1000
0001
0100
0000
,
0001
0000
1010
0000
1000
0010
0100
0000
,
0010
0000
1001
0000
0001
0010
0100
0000
,
0010
0000
0011
0000
0001
0100
0010
0000
,
2000
0000
0000
3000
,
0002
0000
0000
0003
,
0200
0000
0000
0300
,
0020
0000
0000
0000
0200
0000
0000
0330
,
0020
0000
0000
0030
,
2000
0000
0000
0000
0002
0000
0000
3003
,
0002
0000
2003
0000
,
3010
1000
0100
0010
,
0100
1000
0010
0100
,
0001
0010
0100
0010
0001
2000
0000
0000
,
3001
0000
1000
0000
0010
0000
1000
0010
,
0100
0000
0010
1000
0002
0000
0000
0000
,
0013
0000
0001
0000
0100
0001
0100
0000
,
0001
0000
1000
0000
0100
1000
0100
0000
,
1000
0000
0010
0000
0100
0010
0100
0000
,
0010
1000
0010
0100
,
1001
0000
0001
0000
1000
0010
1000
0000
,
0010
0000
0100
0000
0010
0100
0001
1000
,
0100
0000
1000
0000
0100
1000
0010
0000
,
0100
0100
0010
0010
1000
1000
0001
0001
,
1000
0000
0001
0000
0010
0000
0100
0010
,
0001
0000
0010
0000
1000
0000
0010
0100
,
1000
0000
0100
0000
1000
0010
0100
0001
,
1000
0000
0001
0000
0010
0100
1000
0000
,
1002
0000
0103
0000
0001
0001
0010
0000
,
0100
0000
0010
0000
0100
0100
1000
0000
,
0100
0000
1000
0000
0010
0010
1000
0000
,
0001
1000
0010
0000
1000
0001
0100
0000
,
1001
0000
0110
0000
0010
0010
1000
0000
,
0010
0000
0100
0000
0001
0001
0010
0100
,
0010
0000
0100
0000
1000
1000
0100
0000
,
1000
0000
0001
0000
0100
0001
0010
0000
,
0100
1000
0010
0100
,
0001
1000
0100
1000
,
0010
0100
0001
0010
,
0100
0010
0001
1000
,
0010
0000
0000
2002
0000
0000
0000
3003
;

//---------------dance-single - ----------------
#NOTEDATA:;
#CHARTNAME:;
#STEPSTYPE:dance-single;
#DESCRIPTION:;
#CHARTSTYLE:;
#DIFFICULTY:Beginner;
#METER:3;
#RADARVALUES:0.116169,0.195722,0.047834,0.000000,0.000000,102.000000,96.000000,6.000000,0.000000,0.000000,0.000000,0.000000,0.000000,0.000000,0.116169,0.195722,0.047834,0.000000,0.000000,102.000000,96.000000,6.000000,0.000000,0.000000,0.000000,0.000000,0.000000,0.000000;
#CREDIT:Pandemonium X;
#NOTES:
0000
0000
0000
0000
,
0000
0000
0000
0000
,
0000
0000
0000
0000
,
0000
0000
0000
0000
,
0000
0000
0000
0000
,
1000
0000
0001
0000
,
1000
0000
0000
0000
,
0010
0000
0100
0000
,
0010
0000
0000
0000
,
1001
0000
0000
0000
,
1000
0000
0000
0000
,
0100
0000
0000
0000
,
1000
0000
0000
0000
,
0001
0000
0000
0000
,
0100
0000
0000
0000
,
0010
0000
0000
0000
,
1000
0000
0001
0000
,
0110
0000
0100
0000
,
0010
0000
1000
0000
,
0001
0000
1000
0000
,
0100
0000
1000
0001
,
1000
0000
0010
0000
,
1000
0000
0100
0000
,
1000
0000
0001
0000
,
0100
0000
0001
0000
,
1000
0000
0000
0000
,
1000
0000
0000
0000
,
0001
0000
0000
0000
,
0001
0000
0100
0000
,
0010
0000
0000
0000
,
1000
0000
0100
0000
,
0010
0000
0000
0000
,
0100
0000
0000
1000
,
1001
0000
0000
0000
,
0010
0000
0000
0000
,
0001
0000
0000
0000
,
1000
0000
0000
0000
,
0100
0000
0000
0000
,
1000
0000
0000
0000
,
0001
0000
0000
0000
,
0100
0000
0010
0000
,
1001
0000
0001
0000
,
1000
0000
0010
1000
,
0100
0000
0010
0000
,
0001
0100
0001
1000
,
0100
0000
0000
0000
,
1000
0000
0000
0000
,
0010
0000
0000
0000
,
0100
0000
0001
0000
,
1001
0000
0001
0000
,
1000
1000
0001
0000
,
0100
0000
0010
0000
,
1000
1000
0001
0001
,
1000
0000
0001
0000
,
0010
0000
0100
0100
,
0010
0000
0100
0000
,
1000
0001
0100
0010
,
1001
0000
0000
0000
,
1000
0000
0000
0000
,
0001
0000
0000
0000
,
0100
0000
0000
0000
,
0010
0000
0000
0100
0000
0000
0000
0000
;

//---------------dance-single - ----------------
#NOTEDATA:;
#CHARTNAME:;
#STEPSTYPE:dance-single;
#DESCRIPTION:;
#CHARTSTYLE:;
#DIFFICULTY:Challenge;
#METER:16;
#RADARVALUES:0.797238,0.839866,0.446453,0.757376,1.052355,700.000000,644.000000,56.000000,95.000000,60.000000,0.000000,3.000000,0.000000,0.000000,0.797238,0.839866,0.446453,0.757376,1.052355,700.000000,644.000000,56.000000,95.000000,60.000000,0.000000,3.000000,0.000000,0.000000;
#CREDIT:Pandemonium X;
#NOTES:
// measure 0
0000
0000
0000
0000
,  // measure 1
2000
0000
0000
0000
3100
1000
0100
0010
0200
0000
0000
0000
0310
0001
0010
0100
,  // measure 2
2000
0000
0000
0000
3001
0100
0001
0100
0010
1000
0001
0010
0100
0010
0001
1000
,  // measure 3
0020
0000
0000
0000
0130
0001
0100
0010
2000
0000
0000
0000
3001
0010
0001
1000
,  // measure 4
0100
0010
0100
1000
0010
0100
0001
0010
0100
0010
0001
0100
0010
1000
0001
1000
,  // measure 5
0020
0000
0000
0000
1030
0100
0001
0100
0020
0032
0023
0032
0013
0100
0010
0001
,  // measure 6
2000
0000
0010
0000
3001
0010
0100
0010
0001
0100
0010
1000
0100
0001
0100
0010
,  // measure 7
0002
0000
1000
0000
0013
0001
1000
0010
0200
0000
0001
0000
0310
1000
0001
0010
,  // measure 8
0100
0010
0001
0100
1000
0100
0010
1000
0001
0010
0100
0010
0001
0000
0110
0000
,  // measure 9
1001
0000
1000
0010
0000
0010
0100
0001
0000
0010
0100
1000
0000
0100
1000
0010
,  // measure 10
0100
0001
0100
0000
0001
0010
0001
1000
0000
0001
1000
0100
0000
0100
0010
0001
,  // measure 11
1001
0000
0110
0000
0000
1000
0001
0010
0000
0010
0001
0100
0000
0010
1000
0001
,  // measure 12
0020
0030
0020
0030
0010
1000
0010
0001
0200
0000
0302
0000
0013
0100
0010
0001
,  // measure 13
0010
0001
M100
0010
010M
00M1
1000
0M10
0100
M001
0010
010M
1000
010M
M010
0100
,  // measure 14
1000
0010
M100
0001
M010
0100
10M0
001M
0100
00M1
1000
0M01
0010
010M
100M
0100
,  // measure 15
0010
1000
001M
0100
M001
0010
010M
M010
0001
M100
001M
1000
0M01
0010
010M
0000
,  // measure 16
1200
0310
0021
0130
0002
0000
2003
3020
,  // measure 17
0130
0001
1100
0001
0011
1010
1001
0110
,  // measure 18
1000
0000
0010
0000
0100
0000
0001
0000
0000
0000
0000
0000
0010
0000
0000
0100
0000
0000
0010
0000
0000
0001
0000
0000
1000
0000
0000
0000
0000
0000
0001
0000
0000
0000
0000
0000
0110
0000
0000
0000
0000
0000
1001
0000
0000
0000
0000
0000
,  // measure 19
1100
0000
0000
1000
0000
0000
0100
0000
0000
0000
0000
0000
0011
0000
0000
0000
0000
0000
0100
0000
0000
0000
0000
0000
1001
0000
0000
0000
0001
0000
1000
0000
0000
0000
1000
0000
0001
0000
0000
0000
0001
0000
0100
0000
0000
0000
0100
0000
,  // measure 20
0020
0000
0130
0000
1020
0230
0302
0023
,  // measure 21
0130
1000
0011
0001
0101
1010
1001
0010
,  // measure 22
0100
0000
0000
0001
0000
0000
1100
0000
0000
0100
0000
0000
0010
0001
0100
0001
0000
0000
1001
0000
0000
1001
0000
0000
,  // measure 23
0001
1000
0100
0010
0200
0000
0000
0000
0310
0000
0001
0000
1010
0000
0100
0000
,  // measure 24
0002
0000
0100
0000
0010
0000
1003
0100
,  // measure 25
0020
0000
0000
0230
0000
2300
0000
3020
,  // measure 26
0000
0000
0000
0000
0400
0000
0000
0300
,  // measure 27
0230
0000
0000
0302
0000
0000
0023
0000
0032
0000
0000
2003
0000
0000
3002
0000
,  // measure 28
0203
0000
0000
0000
0000
0000
0000
0000
0000
0000
0000
0000
0000
0000
0000
0000
0000
0000
0000
0000
0000
0000
0000
0000
0000
0000
0000
0040
0000
0000
0000
0000
0000
0000
0000
0000
0000
0000
0000
0000
0000
0000
0000
0000
0000
0000
0030
0000
,  // measure 29
0302
0000
0000
2003
0000
3200
0000
0320
,  // measure 30
0000
0000
0000
0000
0000
0000
0000
0000
0000
0004
0000
0000
0000
0000
0030
0000
,  // measure 31
2003
0000
0000
3002
0000
0203
0000
0000
,  // measure 32
0310
100M
01M0
M001
0100
100M
0M10
M001
0010
100M
01M0
M001
0100
M010
0M01
10M0
,  // measure 33
0001
0000
0100
0000
0010
1000
0000
0202
0000
0300
0023
0000
0230
0000
2300
0000
,  // measure 34
3000
0000
0200
0000
0310
0100
1000
0002
0000
0000
0000
2000
0000
0000
0000
0000
,  // measure 35
3003
0000
0001
0000
0001
0100
0000
2020
0000
0030
3200
0000
0320
0000
0032
0000
,  // measure 36
0000
0000
1003
0000
0010
0200
0000
0301
2000
0000
0000
0000
0000
0000
0000
0000
,  // measure 37
3100
0000
0010
0000
0100
1000
0000
0021
0000
0000
0230
0000
0320
0000
0032
0000
,  // measure 38
0000
0000
1003
0000
0100
0010
0100
2000
0000
0000
0000
0020
0000
0000
0000
0000
,  // measure 39
3030
0000
0100
0000
0010
1000
0000
2002
0000
3000
0013
0000
0100
0000
1000
0000
,  // measure 40
0001
0010
1000
0010
0000
0100
1000
0010
0000
0100
1000
0001
0000
0010
0100
1000
,  // measure 41
0001
0100
0010
1000
0001
0010
0100
0010
0001
0001
1000
0001
0001
0010
0100
1000
,  // measure 42
0100
0010
0100
1000
0010
0100
0001
0010
0100
0100
0010
0010
0001
0001
0100
0100
,  // measure 43
0010
1000
0010
0100
0001
0010
0100
0010
0001
0001
1000
0010
0100
0100
0010
1000
,  // measure 44
0001
0001
0020
0100
0130
1000
0200
0010
0310
0001
0200
0010
0310
0100
0002
1000
,  // measure 45
1003
0001
10M0
0100
001M
0100
10M0
001M
0100
01M0
0001
M100
0010
001M
1M00
0001
,  // measure 46
0010
0100
100M
0100
M010
0100
10M0
0M01
1000
10M0
0001
M001
0100
010M
M010
0010
,  // measure 47
1000
0100
001M
0100
100M
0010
M100
00M1
1000
1M00
010M
0010
M100
0100
10M0
0001
,  // measure 48
0010
0100
2000
0010
3010
0100
0002
1000
1003
0010
0200
0310
2002
0000
0000
3003
,  // measure 49
0201
0000
0310
1000
1100
0011
1001
0101
,  // measure 50
0100
0000
0000
0001
0000
0000
0010
0000
0000
0001
0000
0000
2000
0000
0000
0000
0000
0000
3100
0000
0010
0000
0100
0000
1000
0000
0000
0000
0000
0000
1100
0000
0000
0000
0000
0000
0011
0000
0000
0000
0000
0000
1100
0000
0000
0000
0000
0000
,  // measure 51
0001
0000
0000
0100
0000
0000
1000
0000
0000
0010
0000
0000
0100
0000
0000
0002
0000
0000
0000
0000
0000
0000
0000
0000
1003
0000
0000
0000
0010
0000
1000
0000
0000
0000
0001
0000
0100
0000
0000
0020
0000
0000
0000
0000
0000
0000
0000
0000
,  // measure 52
0130
0001
0010
0100
0010
0001
1000
0100
1000
0010
0100
0001
0010
0100
1000
0002
,  // measure 53
2000
0000
0000
3003
0000
0000
0110
0000
0000
0100
0000
0000
0101
0000
0001
0010
0000
0010
0100
0000
0000
1000
0000
0000
,  // measure 54
0001
0000
0000
1010
0000
0000
0011
0000
0000
0010
0000
0000
0100
0010
0001
1000
0000
0000
1100
0000
0000
0101
0000
0000
,  // measure 55
0001
0010
0100
1000
0001
0100
0010
1000
0001
0010
0100
0010
0001
1000
0100
0010
,  // measure 56
0100
0010
0001
0100
0010
1000
0001
0010
0001
1000
0010
1000
2001
0000
0000
0000
,  // measure 57
3010
0000
0100
0001
0000
0010
0100
1000
0000
0100
1000
0010
0100
0001
0010
0100
,  // measure 58
0010
0001
0000
0011
0000
1010
0000
1000
0002
2003
3200
0310
0100
0000
1000
0000
,  // measure 59
0110
0000
0110
0000
0000
0100
0010
1000
1001
0000
0101
0000
0001
0100
0010
1000
,  // measure 60
0100
0000
0000
0110
0000
0011
0000
0110
0100
0010
0001
1000
0010
0000
1010
0000
,  // measure 61
1001
0000
0000
0000
0000
0000
0000
0000
0000
0000
0000
0000
0000
0000
0000
0000
0000
0000
0000
0000
0000
0000
0000
0000
0000
0000
0000
0000
0000
0000
0000
0000
0000
0000
0000
0000
0000
0000
0000
0000
0000
0000
0000
0000
0000
0000
0000
0000
0000
0000
0000
0000
0000
0000
0000
0000
0000
0000
0000
0000
0000
0000
0000
0000
0000
0000
0000
0000
0000
0000
0000
0000
0200
0000
0000
0000
0000
0000
0000
0000
0000
0000
0000
0000
0000
0000
0000
0000
0000
0000
0000
0000
0000
0000
0000
0000
0000
0000
0000
0000
0000
0000
0000
0000
0000
0000
0000
0000
0300
0000
0000
0000
0000
0000
0000
0000
0000
0000
0000
0000
0020
0000
0000
0000
0000
0000
0000
0000
2000
0000
0000
0000
0030
0000
0000
0000
0002
0000
0000
0000
0000
0000
0000
0000
3000
0000
0000
0000
0000
0000
0200
0000
0003
0000
0000
0000
0000
0000
0000
0000
0000
0000
0000
0000
0000
0000
0000
0000
0000
0000
0000
0000
0000
0000
0320
0000
0000
0000
0000
0000
0000
0000
0000
0000
0000
0000
0030
0000
0000
0000
0000
0000
;
