#VERSION:0.83;
#TITLE:Timberwolves;
#SUBTITLE:;
#ARTIST:S-C-U;
#TITLETRANSLIT:;
#SUBTITLETRANSLIT:;
#ARTISTTRANSLIT:;
#GENRE:TEK-TRANCE;
#ORIGIN:;
#CREDIT:;
#BANNER:banner.png;
#BACKGROUND:background.png;
#PREVIEWVID:;
#JACKET:jacket.png;
#CDIMAGE:;
#DISCIMAGE:;
#LYRICSPATH:;
#CDTITLE:cdtitle.png;
#MUSIC:Timberwolves.ogg;
#OFFSET:-0.609000;
#SAMPLESTART:61.237686;
#SAMPLELENGTH:10.263157;
#SELECTABLE:YES;
#BPMS:0.000=190.000;
#STOPS:311.500=0.316;
#DELAYS:;
#WARPS:;
#TIMESIGNATURES:0.000=4=4;
#TICKCOUNTS:0.000=4;
#COMBOS:0.000=1;
#SPEEDS:0.000=1.000=0.000=0;
#SCROLLS:0.000=1.000;
#FAKES:;
#LABELS:0.000=Song Start;
#BGCHANGES:;
#KEYSOUNDS:;
#ATTACKS:
;

//---------------dance-single - ----------------
#NOTEDATA:;
#CHARTNAME:;
#STEPSTYPE:dance-single;
#DESCRIPTION:;
#CHARTSTYLE:;
#DIFFICULTY:Hard;
#METER:13;
#RADARVALUES:0.645560,0.806317,0.482412,0.147677,0.093529,459.000000,410.000000,49.000000,15.000000,0.000000,0.000000,0.000000,0.000000,0.000000,0.645560,0.806317,0.482412,0.147677,0.093529,459.000000,410.000000,49.000000,15.000000,0.000000,0.000000,0.000000,0.000000,0.000000;
#CREDIT:Pandemonium X;
#NOTES:
// measure 0
0000
0000
0000
0000
,  // measure 1
0000
0000
0000
0000
,  // measure 2
0000
0000
0000
0000
,  // measure 3
0000
0000
0000
0000
,  // measure 4
1001
0000
0000
0000
0000
0000
0000
0110
,  // measure 5
0000
0110
0000
0000
0000
0000
0000
1001
,  // measure 6
0000
0000
0000
0000
0000
0110
0000
0110
,  // measure 7
0000
0100
0002
0000
0013
0100
2000
0000
,  // measure 8
3010
0000
0000
0000
0001
0100
1000
1100
,  // measure 9
0000
0110
0000
0000
1000
0010
0001
0011
,  // measure 10
0000
0000
0100
0001
0010
0110
0000
0110
,  // measure 11
0000
0100
2000
0000
3001
0100
0020
0000
,  // measure 12
0130
0000
0000
0000
1000
0100
0001
0101
,  // measure 13
0000
1100
0000
0000
1000
0010
0001
0011
,  // measure 14
0000
0000
0010
1000
0001
1001
0000
0110
,  // measure 15
0000
0000
0010
1000
0010
0100
0001
1000
,  // measure 16
0100
0001
0100
0010
0000
0100
1000
0000
,  // measure 17
0000
0000
0000
0001
0010
1000
0010
0100
,  // measure 18
0000
0010
0100
1000
0000
0000
0000
0000
,  // measure 19
0000
0100
2000
0000
3010
0100
0002
0000
,  // measure 20
1003
0010
0001
0010
0000
0100
0010
0000
,  // measure 21
0000
0000
0000
0000
0000
0010
0001
1000
,  // measure 22
0000
0010
1000
0100
0000
1100
0000
0101
,  // measure 23
0000
0000
0000
0001
0000
0001
0000
1000
,  // measure 24
0010
0001
0010
0100
0000
0010
1000
0001
,  // measure 25
0000
1000
0000
0100
0001
0100
0010
0001
,  // measure 26
0000
0010
0100
1000
0000
0001
0000
1000
,  // measure 27
0000
0010
2000
0000
3010
0100
0002
0010
,  // measure 28
0013
0100
0010
0001
0000
0010
0100
0010
,  // measure 29
0000
0100
0000
0000
0000
0010
0100
1000
,  // measure 30
0000
0100
1000
0010
0000
0110
0000
0101
,  // measure 31
0000
0000
0000
0000
1000
0100
0010
0001
,  // measure 32
1000
0000
0000
0000
,  // measure 33
0010
0000
0000
0100
0000
0000
0001
0000
,  // measure 34
0010
0000
0100
0010
0000
0010
0001
0000
,  // measure 35
0020
0000
0000
0230
0000
0000
2300
0001
,  // measure 36
3001
0000
0000
0000
,  // measure 37
0100
0010
1000
0001
,  // measure 38
0010
0100
1000
0100
0001
0100
1000
0010
,  // measure 39
0001
0010
1000
0010
0000
0000
0000
0100
,  // measure 40
0001
0000
0000
1000
0000
0000
1000
0000
,  // measure 41
0100
0000
1000
0010
0000
0100
0001
0000
,  // measure 42
1001
0000
0001
0010
0000
0010
0100
0000
,  // measure 43
0020
0000
0000
0032
0000
0000
2003
0010
,  // measure 44
3010
0100
0001
0100
0000
0010
1000
0100
,  // measure 45
0010
0010
0100
1000
0000
0001
1000
0100
,  // measure 46
0010
0000
0001
0000
1000
0000
0010
0000
0100
0001
0100
0001
0100
0001
0100
0001
,  // measure 47
0100
0000
0000
0000
0000
0000
0000
0010
,  // measure 48
1000
0100
1000
0001
0100
0001
1000
0100
,  // measure 49
1000
0001
0100
0001
0010
0100
1000
0001
,  // measure 50
1000
0001
0100
0001
0100
1000
0010
0001
,  // measure 51
0010
0100
0001
0010
0100
0010
0001
1000
,  // measure 52
0100
0010
0100
0010
0100
0000
0110
0000
0000
0000
0001
1000
0001
1000
0001
0000
,  // measure 53
1000
0000
0110
0000
0100
1000
0100
0001
,  // measure 54
1000
0100
0010
0001
0010
1000
0010
0001
,  // measure 55
0100
0000
0000
0010
0000
0000
1000
0000
0100
0000
0100
0000
1000
0000
0001
0000
,  // measure 56
1000
0001
0010
0001
1000
0010
1000
0001
,  // measure 57
0010
0001
1000
0010
1000
0100
0010
0001
,  // measure 58
1000
0100
0010
0001
1000
0100
0010
0100
,  // measure 59
1000
0000
0000
0100
0000
0000
1000
0000
0001
0000
0100
0000
0001
0000
0010
0000
,  // measure 60
0100
1000
0100
1000
0100
0000
1001
0000
0000
0000
0010
0100
0010
0100
0010
0000
,  // measure 61
0100
0000
1001
0000
0001
0010
0001
1000
,  // measure 62
0100
0001
0100
1000
0010
0001
0010
0100
,  // measure 63
0001
0000
0000
1000
0000
0000
0001
0000
1000
0000
0100
0000
0010
0000
0001
0000
,  // measure 64
2000
0000
0000
0001
0000
0000
0001
0000
,  // measure 65
0000
0001
0000
0000
3001
0000
0110
0000
,  // measure 66
1001
0000
0000
1001
0000
0000
1001
0000
0000
1001
0000
0000
1001
0000
0000
0000
,  // measure 67
0000
1000
0100
0010
0001
0010
0100
1000
,  // measure 68
0110
0000
0000
0000
1000
0100
0001
0101
,  // measure 69
0000
1100
0000
0000
0100
0010
0001
1001
,  // measure 70
0000
0000
0010
0100
0001
0101
0000
0011
,  // measure 71
0000
0010
0100
1000
0000
0100
1000
0010
,  // measure 72
0110
0000
0100
0000
1000
0100
0001
0101
,  // measure 73
0000
1010
0000
0000
1000
0010
0001
0011
,  // measure 74
0000
0000
0001
0100
0010
1010
0000
0101
,  // measure 75
0000
0000
1000
0100
0001
0100
1000
0010
,  // measure 76
1001
0000
0010
1001
0000
0100
1001
0000
,  // measure 77
0010
0000
1001
0000
0000
0000
0100
0000
1001
0000
0000
0010
0100
0010
0100
0000
,  // measure 78
1001
0000
0000
0000
;

//---------------dance-single - ----------------
#NOTEDATA:;
#CHARTNAME:;
#STEPSTYPE:dance-single;
#DESCRIPTION:;
#CHARTSTYLE:;
#DIFFICULTY:Medium;
#METER:10;
#RADARVALUES:0.485225,0.652732,0.433186,0.039381,0.034458,345.000000,301.000000,44.000000,4.000000,0.000000,0.000000,0.000000,0.000000,0.000000,0.485225,0.652732,0.433186,0.039381,0.034458,345.000000,301.000000,44.000000,4.000000,0.000000,0.000000,0.000000,0.000000,0.000000;
#CREDIT:Pandemonium X;
#NOTES:
// measure 0
0000
0000
0000
0000
,  // measure 1
0000
0000
0000
0000
,  // measure 2
0000
0000
0000
0000
,  // measure 3
0000
0000
0000
0000
,  // measure 4
1001
0000
0000
0000
0000
0000
0000
0010
,  // measure 5
0000
1001
0000
0000
0000
0000
0000
1001
,  // measure 6
0000
0000
0000
0000
0000
0100
0000
1001
,  // measure 7
0000
0000
0000
0000
,  // measure 8
0101
0000
0000
0000
1000
0100
0010
0110
,  // measure 9
0000
0110
0000
0000
0001
0010
0100
1100
,  // measure 10
0000
0000
1000
0010
0100
0101
0000
0101
,  // measure 11
0000
0000
0000
0000
,  // measure 12
1001
0000
0000
0000
0001
0100
0010
1010
,  // measure 13
0000
1010
0000
0000
1000
0100
0010
0011
,  // measure 14
0000
0000
0001
0010
1000
1010
0000
0011
,  // measure 15
0000
0000
0000
0000
0000
0000
0000
0001
,  // measure 16
0100
0010
1000
0001
0000
1000
0100
0000
,  // measure 17
0000
0000
0000
0100
1000
0001
0100
0001
,  // measure 18
0000
1000
0001
0010
0000
0000
0000
0000
,  // measure 19
0000
0100
2000
0000
0010
0000
3001
1000
,  // measure 20
0100
1000
0001
0100
0000
0001
0010
0000
,  // measure 21
0000
0000
0000
0000
0000
0100
0010
0001
,  // measure 22
0000
0010
0100
1000
0000
0100
0000
1001
,  // measure 23
0000
0000
0000
0000
0000
0010
0000
0010
,  // measure 24
0100
0001
1000
0100
0000
1000
0001
0100
,  // measure 25
0000
0100
0000
0010
1000
0010
0100
0001
,  // measure 26
0000
0010
0100
1000
0000
0100
0000
0100
,  // measure 27
0000
0010
0200
0000
1000
0000
0310
0100
,  // measure 28
0010
0001
1000
0001
0000
1000
0001
0100
,  // measure 29
0000
0100
0000
0000
0000
0001
0010
0100
,  // measure 30
0000
0100
0010
0001
0000
0011
0000
1100
,  // measure 31
0000
0000
0000
0000
0100
0010
0001
1000
,  // measure 32
0100
0000
0000
0000
,  // measure 33
1000
0000
0000
0010
0000
0000
0001
0000
,  // measure 34
0010
0000
0100
0001
0000
0001
0100
0000
,  // measure 35
0000
0000
0000
0000
0000
0000
0000
0000
0000
0000
0000
0000
0000
0000
0000
0100
,  // measure 36
0001
0000
0000
0000
,  // measure 37
0001
0010
0100
0010
,  // measure 38
0001
1000
0010
1000
0001
0010
0001
1000
,  // measure 39
0001
0010
0100
1000
0000
0000
0000
0100
,  // measure 40
0010
0000
0000
0000
,  // measure 41
0100
0000
0000
1000
0000
0000
0010
0000
,  // measure 42
0100
0000
0001
0010
0000
0100
0010
0000
,  // measure 43
0000
0000
0000
0000
0000
0000
0000
0100
,  // measure 44
1000
0001
0100
0001
0000
0000
0000
0001
,  // measure 45
1000
0001
0010
0100
0000
0000
0000
0100
,  // measure 46
0010
0001
1000
0010
0200
0000
0000
0000
,  // measure 47
0300
0000
0000
0000
0000
0000
0000
0010
,  // measure 48
1000
0000
0001
0000
0010
0000
0100
0010
,  // measure 49
0001
0000
0010
0000
1000
0000
0010
0100
,  // measure 50
1000
0001
0100
1000
,  // measure 51
0100
0000
0000
0001
0000
0000
0010
0000
0100
0000
0010
0000
0001
0000
0000
0000
,  // measure 52
1000
0001
1000
1001
0000
0010
0100
0010
,  // measure 53
0100
0000
1001
0000
1000
0100
0010
0001
,  // measure 54
0010
0000
0001
0000
0100
0000
0010
1000
,  // measure 55
0001
0000
0000
0001
0000
0000
0001
0000
1000
0000
0100
0000
1000
0000
0100
0000
,  // measure 56
1000
0000
0010
0000
0100
0000
0010
1000
,  // measure 57
0100
0000
1000
0000
0001
0000
0010
0001
,  // measure 58
0100
0000
0010
1000
0001
0000
0010
0000
,  // measure 59
0100
0000
0000
0010
0000
0000
0001
0000
1000
0000
0100
0000
0010
0000
0000
0000
,  // measure 60
0100
1000
0010
0110
0000
0100
0010
1000
,  // measure 61
0001
0000
1001
0000
0001
0010
0100
1000
,  // measure 62
1001
0001
0101
0100
,  // measure 63
0110
0000
0000
0100
0000
0000
0100
0000
0010
0000
1000
0000
0001
0000
0010
0000
,  // measure 64
0200
0000
0000
0000
,  // measure 65
0000
0000
0000
0000
,  // measure 66
0310
0000
0000
0001
0000
0000
0100
0000
0000
0010
0000
0000
1000
0000
0000
0000
,  // measure 67
0000
0000
0000
0000
,  // measure 68
1001
0000
0000
0000
0001
0100
0001
0011
,  // measure 69
0000
0011
0000
0000
0010
0100
1000
1100
,  // measure 70
0000
0000
0100
1000
0010
0110
0000
0110
,  // measure 71
0000
0000
0000
0000
,  // measure 72
0101
0000
0000
0000
0001
0010
0001
1001
,  // measure 73
0000
1001
0000
0000
1000
0100
0010
0011
,  // measure 74
0000
0000
0001
0010
1000
1010
0000
0011
,  // measure 75
0000
0000
0000
0000
,  // measure 76
0101
0000
0000
1010
0000
0000
1100
0000
,  // measure 77
0000
0011
0000
0000
1001
0000
0000
0000
,  // measure 78
1001
0000
0000
0000
;

//---------------dance-single - ----------------
#NOTEDATA:;
#CHARTNAME:;
#STEPSTYPE:dance-single;
#DESCRIPTION:;
#CHARTSTYLE:;
#DIFFICULTY:Easy;
#METER:6;
#RADARVALUES:0.272851,0.460752,0.137832,0.127987,0.000000,194.000000,180.000000,14.000000,13.000000,0.000000,0.000000,0.000000,0.000000,0.000000,0.272851,0.460752,0.137832,0.127987,0.000000,194.000000,180.000000,14.000000,13.000000,0.000000,0.000000,0.000000,0.000000,0.000000;
#CREDIT:Pandemonium X;
#NOTES:
// measure 0
0000
0000
0000
0000
,  // measure 1
0000
0000
0000
0000
,  // measure 2
0000
0000
0000
0000
,  // measure 3
0000
0000
0000
0000
,  // measure 4
1000
0000
0000
0000
0000
0000
0000
0001
,  // measure 5
0000
0001
0000
0000
0000
0000
0000
1000
,  // measure 6
0000
0000
0000
0000
0000
0010
0000
0010
,  // measure 7
0000
0000
0000
0000
,  // measure 8
0110
0000
0000
0000
0020
0000
0030
1000
,  // measure 9
0000
1000
0000
0000
0002
0000
0003
0010
,  // measure 10
0000
0000
0002
0000
0003
1000
0000
1000
,  // measure 11
0000
0000
0000
0000
,  // measure 12
1001
0000
0000
0000
0002
0000
0003
1000
,  // measure 13
0000
1000
0000
0000
0020
0000
0030
0100
,  // measure 14
0000
0000
0020
0000
0030
0100
0000
0100
,  // measure 15
0000
0000
0000
0000
,  // measure 16
0001
0000
0000
0010
0000
0000
0001
0000
,  // measure 17
0000
0000
0000
0000
0100
0000
0000
0010
,  // measure 18
0000
1000
0000
0000
,  // measure 19
0000
0000
0000
0000
,  // measure 20
1000
0000
0000
0100
0000
0000
0010
0000
,  // measure 21
0000
0000
0000
0000
0000
0000
0000
0100
,  // measure 22
0000
0000
0000
0010
0000
0001
0000
1000
,  // measure 23
0000
0000
0000
0000
,  // measure 24
0001
0100
0010
1000
,  // measure 25
0000
0000
0010
1000
,  // measure 26
0100
0001
0000
0000
,  // measure 27
0000
0100
0010
0001
,  // measure 28
1000
0010
0100
0001
,  // measure 29
0000
0000
0000
1000
,  // measure 30
0001
0010
0001
0100
,  // measure 31
0001
0000
0000
0000
,  // measure 32
1001
0000
0000
0000
,  // measure 33
1000
0000
0000
0010
0000
0000
0100
0000
,  // measure 34
0001
0000
0000
0010
0000
0000
0100
0000
,  // measure 35
0000
0000
0000
0000
,  // measure 36
0010
0000
0000
0000
,  // measure 37
0100
1000
0010
0100
,  // measure 38
0001
0000
0000
1000
0000
0000
0010
0000
,  // measure 39
0000
1000
0000
0000
0000
0000
0000
0000
,  // measure 40
1001
0000
0000
0000
,  // measure 41
0001
0000
0000
1000
0000
0000
0100
0000
,  // measure 42
1000
0000
0000
0010
0000
0000
0100
0000
,  // measure 43
0000
0000
0000
0000
,  // measure 44
0010
0000
0000
1000
0000
0000
0000
0000
,  // measure 45
0001
0000
0000
0010
0000
0000
0000
0000
,  // measure 46
0100
0010
0002
0000
,  // measure 47
0003
0000
0000
0000
,  // measure 48
0001
1000
0010
1000
,  // measure 49
0100
0010
0100
1000
,  // measure 50
0010
0100
0001
0010
,  // measure 51
0100
0010
0001
1000
,  // measure 52
0010
0001
0010
1000
,  // measure 53
0010
0001
0010
1000
,  // measure 54
0100
0010
0001
0010
,  // measure 55
0100
0010
0001
0100
,  // measure 56
0001
0010
0001
1000
,  // measure 57
0100
1000
0010
0100
,  // measure 58
0001
0010
0001
0100
,  // measure 59
0010
1000
0001
1000
,  // measure 60
0001
0100
1000
0100
,  // measure 61
0001
0100
1000
0100
,  // measure 62
0001
0010
0100
0010
,  // measure 63
0001
1000
0100
0010
,  // measure 64
0200
0000
0000
0000
,  // measure 65
0000
0000
0000
0300
,  // measure 66
1001
0000
0000
0110
0000
0000
1001
0000
,  // measure 67
0000
0000
0000
0000
,  // measure 68
1001
0000
0000
0000
2000
0000
3000
0010
,  // measure 69
0000
0010
0000
0000
0200
0000
0300
0001
,  // measure 70
0000
0000
0020
0000
0030
0100
0000
0100
,  // measure 71
0000
0000
0000
0000
,  // measure 72
0010
0000
0000
0000
0002
0000
0003
1000
,  // measure 73
0000
1000
0000
0000
0002
0000
0003
0100
,  // measure 74
0000
0000
0010
0000
0000
1000
0000
1000
,  // measure 75
0000
0000
0000
0000
,  // measure 76
1001
0000
0000
0110
0000
0000
1001
0000
,  // measure 77
0000
0110
0000
0000
1001
0000
0000
0000
,  // measure 78
1001
0000
0000
0000
;

//---------------dance-single - ----------------
#NOTEDATA:;
#CHARTNAME:;
#STEPSTYPE:dance-single;
#DESCRIPTION:;
#CHARTSTYLE:;
#DIFFICULTY:Beginner;
#METER:3;
#RADARVALUES:0.102671,0.191980,0.019690,0.000000,0.000000,73.000000,71.000000,2.000000,0.000000,0.000000,0.000000,0.000000,0.000000,0.000000,0.102671,0.191980,0.019690,0.000000,0.000000,73.000000,71.000000,2.000000,0.000000,0.000000,0.000000,0.000000,0.000000,0.000000;
#CREDIT:Pandemonium X;
#NOTES:
// measure 0
0000
0000
0000
0000
,  // measure 1
0000
0000
0000
0000
,  // measure 2
0000
0000
0000
0000
,  // measure 3
0000
0000
0000
0000
,  // measure 4
1000
0000
0000
0000
,  // measure 5
0000
0000
0000
0000
,  // measure 6
0001
0000
0000
0000
,  // measure 7
0000
0000
0000
0000
,  // measure 8
0100
0000
0000
0000
,  // measure 9
0000
0000
0010
0000
,  // measure 10
0000
1000
0000
0000
,  // measure 11
0000
0000
0000
0000
,  // measure 12
0001
0000
0000
0000
,  // measure 13
0000
0000
1000
0000
,  // measure 14
0000
0010
0000
0000
,  // measure 15
0000
0000
0000
0000
,  // measure 16
0010
0000
0000
0000
,  // measure 17
0000
0000
1000
0000
,  // measure 18
0000
0000
0000
0000
,  // measure 19
0001
0000
1000
0000
,  // measure 20
0001
0000
0000
0000
,  // measure 21
0000
0000
0000
0100
,  // measure 22
0000
0000
0000
0000
,  // measure 23
0010
0000
0000
0000
,  // measure 24
1000
0000
0000
0000
,  // measure 25
0001
0000
0000
0000
,  // measure 26
0100
0000
0000
0000
,  // measure 27
0001
0000
1000
0000
,  // measure 28
0100
0000
0000
0000
,  // measure 29
1000
0000
0000
0000
,  // measure 30
0010
0000
0000
0000
,  // measure 31
0100
0000
0010
0000
,  // measure 32
1001
0000
0000
0000
,  // measure 33
1000
0000
0000
0000
,  // measure 34
1000
0000
0000
0000
,  // measure 35
0000
0000
0000
0000
,  // measure 36
0001
0000
0000
0000
,  // measure 37
0010
0000
0100
0000
,  // measure 38
1000
0000
0001
0000
,  // measure 39
0100
0000
0000
0000
,  // measure 40
0010
0000
0000
0000
,  // measure 41
0100
0000
0000
0000
,  // measure 42
0001
0000
0000
0000
,  // measure 43
1000
0000
0000
0000
,  // measure 44
0100
0000
0000
0000
,  // measure 45
1000
0000
0000
0000
,  // measure 46
0010
0000
0000
0000
,  // measure 47
0000
0000
0000
0000
,  // measure 48
0100
0000
0000
0000
,  // measure 49
0001
0000
0000
0000
,  // measure 50
1000
0000
0000
0000
,  // measure 51
0100
0000
0000
0000
,  // measure 52
1000
0000
0000
0000
,  // measure 53
1000
0000
0000
0000
,  // measure 54
0001
0000
0000
0000
,  // measure 55
1000
0000
0000
0000
,  // measure 56
0010
0000
0000
0000
,  // measure 57
1000
0000
0000
0000
,  // measure 58
0100
0000
0000
0000
,  // measure 59
1000
0000
0000
0000
,  // measure 60
0001
0000
0000
0000
,  // measure 61
1000
0000
0000
0000
,  // measure 62
0010
0000
0000
0000
,  // measure 63
0100
0000
0000
0000
,  // measure 64
0001
0000
0000
0000
,  // measure 65
0000
0000
0000
0000
,  // measure 66
1001
0000
0000
0000
,  // measure 67
0000
0000
0000
0000
,  // measure 68
0010
0000
0000
0000
,  // measure 69
0100
0000
0000
0000
,  // measure 70
0010
0000
0000
0000
,  // measure 71
0000
0100
0000
0000
,  // measure 72
0010
0000
0000
0000
,  // measure 73
1000
0000
0000
0000
,  // measure 74
0001
0000
0000
1000
,  // measure 75
0000
0000
0000
0000
,  // measure 76
0001
0000
0000
1000
,  // measure 77
0000
0000
0010
0000
,  // measure 78
0100
0000
0000
0000
;

//---------------dance-single - ----------------
#NOTEDATA:;
#CHARTNAME:;
#STEPSTYPE:dance-single;
#DESCRIPTION:;
#CHARTSTYLE:;
#DIFFICULTY:Challenge;
#METER:16;
#RADARVALUES:0.832617,1.113485,0.600553,0.187058,0.689160,592.000000,531.000000,61.000000,19.000000,0.000000,0.000000,0.000000,0.000000,0.000000,0.832617,1.113485,0.600553,0.187058,0.689160,592.000000,531.000000,61.000000,19.000000,0.000000,0.000000,0.000000,0.000000,0.000000;
#CREDIT:Pandemonium X;
#NOTES:
// measure 0
0000
0000
0000
0000
,  // measure 1
0000
0000
0000
0000
,  // measure 2
0000
0000
0000
0000
,  // measure 3
0000
0000
0000
0000
,  // measure 4
1001
0000
0000
0000
0000
0000
0000
0110
,  // measure 5
0000
0110
0000
0000
0000
0000
0000
1001
,  // measure 6
0000
0000
0000
0000
0000
0110
0000
0110
,  // measure 7
0000
0000
0010
1000
0200
0000
0000
0000
0310
0000
0001
0000
2002
0000
0000
3003
,  // measure 8
0110
0000
0000
0000
0000
0000
0000
0000
1000
0010
0100
0001
0010
0000
0011
0000
,  // measure 9
0000
0000
0110
0000
0000
0000
0000
0000
0010
0100
1000
0001
1000
0000
1100
0000
,  // measure 10
0000
0000
0000
0000
0010
0001
1000
0010
0100
0000
0110
0000
0000
0000
0110
0000
,  // measure 11
0000
0010
0200
0000
0301
0010
0100
0000
,  // measure 12
1001
0000
0000
0000
0000
0000
0000
0000
0001
0010
0001
1000
0001
0000
1010
0000
,  // measure 13
0000
0000
0011
0000
0000
0000
0000
0000
0001
0010
0100
1000
0100
0000
1100
0000
,  // measure 14
0000
0000
0000
0000
0100
0010
0001
0100
0010
0000
1001
0000
0000
0000
0110
0000
,  // measure 15
0000
0000
0000
0000
1000
0100
0010
0001
0010
0100
0010
0001
1000
0100
0010
0100
,  // measure 16
0010
0100
1000
0000
0010
0000
0100
0000
0000
0000
0001
0000
0010
0000
0000
0000
,  // measure 17
0000
0000
0000
0000
0000
0000
0100
1000
0010
0000
0100
0000
0001
0000
1000
0000
,  // measure 18
0000
0001
1000
0100
0000
0000
0000
0000
,  // measure 19
0000
0000
1000
0010
0200
0000
0000
0300
0020
0000
1030
0001
2000
0000
3100
0010
,  // measure 20
0001
0100
0001
1000
0000
0100
0010
0000
,  // measure 21
0000
0000
0000
0000
0000
0100
1000
0010
,  // measure 22
0000
0100
0001
0010
0000
0011
0000
1100
,  // measure 23
0000
0000
0000
0000
0000
0000
0000
0000
0000
0000
0000
0000
0000
0000
1000
0001
,  // measure 24
0010
0001
0100
0010
0000
1000
0100
1100
,  // measure 25
0000
0000
1100
0000
0000
0000
0100
1000
0001
0000
0100
0000
0001
0000
0011
0000
,  // measure 26
0000
0010
0100
1000
0000
1001
0000
1001
,  // measure 27
0000
0000
0001
0100
0020
0000
0030
0000
0200
0000
0310
1000
0002
0000
1003
0100
,  // measure 28
0010
0100
1000
0001
0000
1000
0010
0101
,  // measure 29
0000
0011
0000
0000
0000
0010
0001
0100
,  // measure 30
0000
0010
1000
0100
0000
0110
0000
1001
,  // measure 31
0000
0000
0000
0000
0000
0000
0001
1000
0001
1000
0100
0010
0001
1000
0100
0010
,  // measure 32
0001
0000
0000
0000
,  // measure 33
1000
0000
0000
0010
0000
0000
1000
0000
,  // measure 34
0001
0000
1000
0001
0000
0001
0100
0000
,  // measure 35
0000
0000
0000
0000
0000
0000
0000
0000
0000
0000
0000
0000
0000
0000
0100
0010
,  // measure 36
0100
0000
0000
0000
,  // measure 37
0010
1000
0100
0010
,  // measure 38
0100
1000
0010
0100
0001
0010
0100
0010
,  // measure 39
0001
0000
0100
0000
0010
0000
1000
0000
0000
0000
0000
0000
0000
0000
0001
1000
,  // measure 40
0001
0000
0000
1000
0000
0000
0100
0000
,  // measure 41
0110
0000
0100
1100
0000
1000
1010
0000
,  // measure 42
0110
0000
0100
0002
0000
0013
0200
0000
,  // measure 43
0320
0000
0000
0000
0000
0000
0032
0000
0000
0000
0000
0000
1003
0000
0001
1000
,  // measure 44
0010
1000
0001
0011
0000
0001
1000
0100
,  // measure 45
0010
0100
1000
1010
0000
1000
0010
0100
,  // measure 46
0001
0000
1000
0000
0001
0000
1000
0000
0010
0100
0010
0100
0010
0100
0010
0100
,  // measure 47
0010
0000
0000
0000
0000
0000
0000
0000
0000
0000
0000
0000
0000
0000
1000
0100
,  // measure 48
0001
0000
0100
0000
1000
0000
0001
0000
1000
0000
0100
1000
0010
0100
0001
1000
,  // measure 49
0100
0000
0001
0000
0100
0000
1000
0000
0010
0000
0100
0001
0010
0001
1000
0100
,  // measure 50
0010
0000
0100
0010
0001
1000
0010
0100
0001
1000
0001
0010
0001
1000
0100
0010
,  // measure 51
0100
0000
0010
0001
0000
0010
0100
0000
0010
0001
0100
0010
0100
0000
0010
0000
,  // measure 52
0100
1000
0010
0100
0001
0000
1001
0000
0000
0000
1000
0100
0010
0100
1000
0001
,  // measure 53
1000
0000
0000
0000
0110
0000
0100
0010
1000
0001
0010
0100
0010
0001
1000
0100
,  // measure 54
0010
0001
0010
1000
0010
0100
0010
0001
,  // measure 55
1000
0000
0001
0100
0000
0100
1000
0000
1000
0100
0010
0100
0010
1000
0001
0000
,  // measure 56
1000
0000
0100
0000
0010
0000
0100
0000
1000
0000
0001
1000
0010
1000
0100
0010
,  // measure 57
0001
0000
0010
0000
1000
0000
0010
0000
0100
0000
0010
0100
1000
0010
0100
0001
,  // measure 58
1000
0000
0100
1000
0010
0100
0001
0010
0100
0010
0001
0100
0010
0100
0010
1000
,  // measure 59
0001
0000
1000
0100
0000
0001
0100
0000
1000
0000
0010
0000
0100
0000
1000
0000
,  // measure 60
0010
0100
1000
0010
0100
0000
1001
0000
0000
0000
0001
0010
0001
0100
0010
1000
,  // measure 61
0001
0000
0000
0000
0110
0000
0010
1000
0001
0010
0100
0010
0001
1000
0100
0010
,  // measure 62
0001
0010
0001
0010
0100
1000
0100
1000
,  // measure 63
0010
0000
0100
0010
0000
1000
0001
0000
0100
0010
0100
0010
1000
0001
0100
0010
,  // measure 64
2000
0000
0000
0000
,  // measure 65
0000
0000
0000
0000
0000
0000
0000
0000
0000
0000
0000
0000
0000
0000
3001
0010
,  // measure 66
0110
0000
0000
0011
0000
0000
0110
0000
0000
1100
0000
0000
1010
0000
0000
0000
,  // measure 67
0000
0000
1000
0100
0010
0001
0010
0100
0010
0001
1000
0100
0010
0001
0010
0100
,  // measure 68
1000
0000
0000
0000
0000
0000
0000
0000
0001
0100
0010
0100
0001
0000
1001
0000
,  // measure 69
0000
0000
1010
0000
0000
0000
0000
0000
1000
0100
0010
0001
1000
0000
1001
0000
,  // measure 70
0000
0000
0000
0000
0001
1000
0010
1000
0001
0000
1001
0000
0000
0000
1001
0000
,  // measure 71
0000
0000
0001
0100
0020
0000
0030
0000
0200
0000
0310
1000
0002
0000
0003
0000
,  // measure 72
1100
0000
0000
0000
0000
0000
0000
0000
0100
1000
0010
0100
0010
0000
0110
0000
,  // measure 73
0000
0000
0101
0000
0000
0000
0000
0000
0001
0010
0100
1000
0001
0000
1001
0000
,  // measure 74
0000
0000
0000
0000
0001
0100
0010
1000
0100
0000
0110
0000
0000
0000
0110
0000
,  // measure 75
0000
0000
0000
0000
1000
0100
0010
0001
1000
0100
0010
0001
0010
0100
1000
0000
,  // measure 76
1001
0000
0010
0100
0010
0000
1001
0000
0100
0010
0100
0000
1001
0000
0010
0100
,  // measure 77
0010
0000
1001
0000
0100
0010
0100
0000
1001
0000
0001
0100
0010
1000
0200
0000
,  // measure 78
0301
0000
0000
0000
;
