#VERSION:0.83;
#TITLE:TURBO;
#SUBTITLE:;
#ARTIST:Tokyo Machine;
#TITLETRANSLIT:;
#SUBTITLETRANSLIT:;
#ARTISTTRANSLIT:;
#GENRE:ELECTRO;
#ORIGIN:;
#CREDIT:;
#BANNER:banner.png;
#BACKGROUND:backgorund.png;
#PREVIEWVID:;
#JACKET:jacket.png;
#CDIMAGE:;
#DISCIMAGE:;
#LYRICSPATH:;
#CDTITLE:cdtitle.png;
#MUSIC:TURBO.ogg;
#OFFSET:1.564001;
#SAMPLESTART:75.290993;
#SAMPLELENGTH:15.000000;
#SELECTABLE:YES;
#BPMS:0.000=128.000;
#STOPS:;
#DELAYS:;
#WARPS:;
#TIMESIGNATURES:0.000=4=4;
#TICKCOUNTS:0.000=4;
#COMBOS:0.000=1;
#SPEEDS:0.000=1.000=0.000=0;
#SCROLLS:0.000=1.000;
#FAKES:;
#LABELS:0.000=Song Start;
#BGCHANGES:;
#KEYSOUNDS:;
#ATTACKS:
;

//---------------dance-single - ----------------
#NOTEDATA:;
#CHARTNAME:;
#STEPSTYPE:dance-single;
#DESCRIPTION:;
#CHARTSTYLE:;
#DIFFICULTY:Hard;
#METER:12;
#RADARVALUES:0.430371,0.593190,0.245740,0.300350,0.218436,331.000000,304.000000,27.000000,33.000000,0.000000,0.000000,0.000000,0.000000,0.000000,0.430371,0.593190,0.245740,0.300350,0.218436,331.000000,304.000000,27.000000,33.000000,0.000000,0.000000,0.000000,0.000000,0.000000;
#CREDIT:Pandemonium X;
#NOTES:
// measure 0
0000
0000
0000
0000
,  // measure 1
0000
0000
0000
0000
,  // measure 2
0000
0000
0000
0000
,  // measure 3
0000
0000
0000
0000
,  // measure 4
0000
0000
0000
0000
,  // measure 5
1000
0000
0000
0000
0001
0000
0000
0000
0100
0000
0000
0010
0000
0000
0100
0000
,  // measure 6
0000
0000
0000
0000
0001
0000
1000
0000
0010
0000
0000
0100
0000
0000
0010
0000
,  // measure 7
0000
0000
0000
0000
1000
0000
0100
0000
1000
0000
0000
0001
0000
0000
0100
0000
,  // measure 8
0020
0000
0000
0000
0130
0010
1001
0000
,  // measure 9
0101
0001
0000
0000
0000
0000
0000
0000
,  // measure 10
1100
0000
0000
0000
,  // measure 11
1010
0000
0000
0000
,  // measure 12
0011
0000
1001
0110
,  // measure 13
1001
1000
0100
0000
1000
0000
0010
0000
,  // measure 14
0110
0100
0001
0010
,  // measure 15
1100
0100
1000
0010
,  // measure 16
0101
0000
0001
0000
1000
0100
0010
0000
,  // measure 17
0100
0000
1000
0000
0010
0000
0100
0001
,  // measure 18
0010
0000
0100
0000
0010
0000
0001
1000
,  // measure 19
0100
0000
1000
0000
0010
0000
0100
0001
,  // measure 20
1000
0010
1000
0011
,  // measure 21
1100
0000
1000
0100
0010
0001
1000
0100
,  // measure 22
0010
0001
1000
0100
0010
0001
1000
0100
,  // measure 23
1000
0010
0100
0001
1000
0010
0100
0001
,  // measure 24
1000
0001
1000
0001
1000
0001
1000
0001
1000
0000
0010
0000
0001
0000
0010
0000
,  // measure 25
1010
0000
1000
2000
0100
3200
0010
0320
,  // measure 26
0001
0032
0100
0203
0010
0320
1030
0000
,  // measure 27
1001
0000
0000
0000
0001
0100
0000
0010
0000
1000
0010
0000
1000
0000
0001
0000
,  // measure 28
0000
0000
0000
0000
1000
0100
0000
0010
0000
0100
1000
0000
0001
0000
0000
0000
,  // measure 29
1001
0000
0001
0002
0010
0023
0100
0230
,  // measure 30
1000
2300
0001
3002
0100
0203
0310
0000
,  // measure 31
1001
0000
0000
0000
1000
0010
0000
0100
0000
0010
1000
0000
0001
0000
0010
0000
,  // measure 32
0000
0000
0000
0000
0100
0010
0000
0001
0000
0010
0100
0000
1000
0000
0000
0000
,  // measure 33
1001
0000
0000
0000
0001
0000
0002
0000
0000
1003
0200
0000
0010
0000
0320
0000
,  // measure 34
0000
0031
0020
0000
0100
0000
0230
0000
0000
0310
0002
0000
1003
0000
0000
0000
,  // measure 35
1001
0000
0000
0000
1000
0010
0000
0001
0000
0010
1000
0000
0100
0000
0010
0000
,  // measure 36
0000
0000
0000
0000
0100
0001
0000
0100
0000
0010
0100
0000
1000
0000
0000
0000
,  // measure 37
0110
0000
0000
0000
1000
0000
2000
0000
3000
0001
2000
0000
0100
0000
3200
0000
,  // measure 38
0000
0310
0200
0000
1000
0000
2300
0000
0000
3100
0020
0000
0031
0000
0000
0000
,  // measure 39
1100
0000
0000
0000
1000
0001
0000
0100
0000
0001
1000
0000
0001
0000
1000
0000
,  // measure 40
0000
0000
0000
0000
0000
0000
0001
0010
,  // measure 41
1100
0000
1000
0000
0100
0000
1000
0000
0001
0000
0000
0100
0000
0000
0002
0000
,  // measure 42
0000
0000
0000
0000
0013
0000
0001
0000
1000
0000
0000
0100
0000
0000
2000
0000
,  // measure 43
3000
0000
0000
0000
0010
0000
1000
0000
0100
0000
0000
0010
0000
0000
0200
0000
,  // measure 44
0000
0310
0100
1000
0001
0100
1000
0100
,  // measure 45
0001
0000
1000
0000
0001
0000
0010
0000
0100
0000
0000
0010
0000
0100
0020
0000
,  // measure 46
0000
0000
0000
0000
0031
0000
0100
0000
0010
0000
0000
0100
0000
0010
0200
0000
,  // measure 47
0300
0000
0000
0000
0010
0000
1000
0000
0011
0000
0000
0110
0000
0000
1100
0000
,  // measure 48
0000
0100
1000
0001
0010
0001
1000
0000
,  // measure 49
0001
0000
0000
0000
1000
0000
0000
0000
0010
0000
0000
0100
0000
0000
0010
0000
,  // measure 50
0000
0000
0000
0000
1000
0000
0001
0000
1000
0000
0000
0010
0000
0000
1000
0000
,  // measure 51
0000
0000
0000
0000
0010
0000
1000
0000
0010
0000
0000
0100
0000
0000
0001
0000
,  // measure 52
0000
1000
0001
0010
0001
0010
1000
0010
,  // measure 53
0001
0000
0000
0000
1000
0000
0000
0000
0010
0000
0000
0100
0000
0000
0010
0000
,  // measure 54
0000
0000
0000
0000
1000
0000
0100
0000
0010
0000
0000
0100
0000
0000
1000
0000
,  // measure 55
0000
0000
0000
0000
0001
0000
0010
0000
0100
0000
0000
0010
0000
0000
0001
0000
,  // measure 56
0000
1000
0001
1000
0100
0001
0100
1000
,  // measure 57
0020
0000
0000
0000
,  // measure 58
0000
0000
0000
0000
0130
0010
1001
0000
,  // measure 59
0220
0330
0000
0000
;

//---------------dance-single - ----------------
#NOTEDATA:;
#CHARTNAME:;
#STEPSTYPE:dance-single;
#DESCRIPTION:;
#CHARTSTYLE:;
#DIFFICULTY:Medium;
#METER:7;
#RADARVALUES:0.322453,0.402741,0.263943,0.318552,0.031855,248.000000,219.000000,29.000000,35.000000,0.000000,0.000000,0.000000,0.000000,0.000000,0.322453,0.402741,0.263943,0.318552,0.031855,248.000000,219.000000,29.000000,35.000000,0.000000,0.000000,0.000000,0.000000,0.000000;
#CREDIT:Pandemonium X;
#NOTES:
0000
0000
0000
0000
,
0000
0000
0000
0000
,
0000
0000
0000
0000
,
0000
0000
0000
0000
,
0000
0000
0000
0000
,
1000
0001
0010
0010
,
0001
1000
0100
0100
,
1000
0001
0100
0010
,
1001
0000
0000
0000
0001
1000
0110
0000
,
0001
1000
0000
0000
0000
0000
0000
0000
,
0110
0000
0000
0000
,
0101
0000
0000
0000
,
0011
0000
1100
0011
,
1001
1000
0001
0100
,
0110
0010
1000
0100
,
0110
0010
0001
1000
,
1001
1000
0101
1010
,
0101
0001
0100
0000
0001
0000
0010
0000
,
0100
1000
0100
0000
1000
0000
0010
0000
,
0100
0010
1000
0000
0001
0000
0010
0000
,
0100
0010
0001
0000
1000
0000
0001
0100
,
0001
0000
1000
0100
0010
0000
0100
1000
,
0010
0000
0100
0001
0010
0000
0100
0010
,
0001
1000
0001
1000
0001
1000
0001
1000
,
0020
0000
0000
0030
,
1001
2000
3200
0320
,
0032
0023
0032
1003
,
1001
1000
0001
0010
,
0001
1000
0100
1000
,
0010
1002
2003
3020
,
2030
3200
0320
0130
,
1000
0010
1000
0001
,
0010
0100
0010
0001
,
1001
0120
2030
3020
,
0230
0302
0023
0230
,
0310
0001
1000
0100
,
1000
0001
0010
0100
,
0110
1002
0203
0320
,
2030
3002
0023
0230
,
1300
0001
0100
0001
,
0020
0000
0000
0000
,
0031
0010
2100
3010
,
1000
0001
0201
0310
,
0100
0001
2001
3100
,
1000
0000
0010
0100
0001
0010
0100
1000
,
0001
1000
1200
0310
,
0100
0010
0012
0103
,
0010
0000
0000
0000
0100
0000
0010
0000
0100
0000
0000
0100
0000
0000
0100
0000
,
0000
0001
0010
0100
1000
0001
1000
0000
,
0001
0000
0000
0000
1000
0000
0000
0000
0001
0000
0000
0001
0000
0000
0001
0000
,
0000
0000
0000
0000
1000
0000
0010
0000
1000
0000
0000
1000
0000
0000
1000
0000
,
0000
0000
0000
0000
0010
0000
0100
0000
0010
0000
0000
0010
0000
0000
0010
0000
,
0000
0000
0000
0000
,
0100
0000
0000
0000
0001
0000
0000
0000
0010
0000
0000
0010
0000
0000
0010
0000
,
0000
0000
0000
0000
0100
0000
0010
0000
0001
0000
0000
1000
0000
0000
0001
0000
,
0000
0000
0000
0000
1000
0000
0010
0000
0100
0000
0000
0010
0000
0000
0100
0000
,
0000
0010
1000
0001
,
0220
0000
0000
0000
,
0000
0000
0330
0000
1000
0001
0110
0000
,
1001
0000
0000
0000
;

//---------------dance-single - ----------------
#NOTEDATA:;
#CHARTNAME:;
#STEPSTYPE:dance-single;
#DESCRIPTION:;
#CHARTSTYLE:;
#DIFFICULTY:Easy;
#METER:5;
#RADARVALUES:0.253542,0.375892,0.273045,0.145624,0.004551,195.000000,165.000000,30.000000,16.000000,0.000000,0.000000,0.000000,0.000000,0.000000,0.253542,0.375892,0.273045,0.145624,0.004551,195.000000,165.000000,30.000000,16.000000,0.000000,0.000000,0.000000,0.000000,0.000000;
#CREDIT:Pandemonium X;
#NOTES:
0000
0000
0000
0000
,
0000
0000
0000
0000
,
0000
0000
0000
0000
,
0000
0000
0000
0000
,
0000
0000
0000
0000
,
1000
0000
1000
0000
0020
0000
0000
0030
,
0000
0000
0100
0000
0200
0000
0000
0300
,
0000
0001
0002
0000
,
0003
0000
0000
0000
1000
0001
1000
0000
,
0110
0000
0000
0000
,
1001
0000
0000
0000
,
0110
0000
0000
0000
,
1001
0000
0110
1001
,
0110
0000
0000
0000
,
1001
0000
0000
0000
,
0110
0000
0000
0000
,
1001
0000
0110
1001
,
0110
0010
0001
0100
,
0001
1000
0100
1000
,
0001
0100
0001
0010
,
0100
0010
0001
1000
,
0001
0001
0010
0010
,
0100
0100
1000
1000
,
0100
0010
0001
1000
,
0020
0000
0000
0030
,
0110
1002
1000
1000
,
1000
1000
1000
0103
,
0001
1000
0100
1000
,
0100
0010
0001
0010
,
0110
2001
0001
0001
,
0001
0001
0001
3010
,
1000
0100
0010
0001
,
0010
0000
0100
0000
1000
0000
0001
1000
,
0002
0100
0100
0100
,
0100
0100
0100
0013
,
0100
0010
0100
1000
,
0100
0010
0001
0010
,
0110
2001
0100
0100
,
0100
0100
0100
3010
,
1000
0001
0010
0100
,
0000
0000
0000
0000
,
0010
1001
0001
1000
,
0010
0110
0010
1000
,
0001
1001
1000
0100
,
0110
0110
1001
1001
,
0001
1000
0010
0101
,
0001
0010
0100
1100
,
0100
0000
0000
0000
1000
0000
0010
0000
0100
0000
0000
0100
0000
0000
0100
0000
,
0000
0000
0010
0000
1000
0001
0100
0000
,
0001
0000
1000
0000
0200
0000
0000
0300
,
0000
0000
1000
0000
0020
0000
0000
0030
,
0000
0000
0100
0000
0002
0000
0000
0003
,
0000
0000
0000
0000
,
1000
0000
0001
0000
0020
0000
0000
0030
,
0000
0000
0100
0000
2000
0000
0000
3000
,
0000
0000
0100
0000
0020
0000
0000
0030
,
0000
0000
0000
0000
,
2002
0000
0000
0000
,
0000
0000
3003
0000
0010
0100
0010
0000
,
1001
0000
0000
0000
;

//---------------dance-single - ----------------
#NOTEDATA:;
#CHARTNAME:;
#STEPSTYPE:dance-single;
#DESCRIPTION:;
#CHARTSTYLE:;
#DIFFICULTY:Beginner;
#METER:2;
#RADARVALUES:0.089715,0.161097,0.045507,0.045507,0.000000,69.000000,64.000000,5.000000,5.000000,0.000000,0.000000,0.000000,0.000000,0.000000,0.089715,0.161097,0.045507,0.045507,0.000000,69.000000,64.000000,5.000000,5.000000,0.000000,0.000000,0.000000,0.000000,0.000000;
#CREDIT:Pandemonium X;
#NOTES:
0000
0000
0000
0000
,
0000
0000
0000
0000
,
0000
0000
0000
0000
,
0000
0000
0000
0000
,
0000
0000
0000
0000
,
1000
0000
0000
0000
,
0000
0001
0000
0000
,
0000
0100
0000
0000
,
0000
0000
0110
1001
,
1000
0000
0000
0000
,
0001
0000
0000
0000
,
0010
0000
0000
0000
,
0100
0000
1000
1000
,
0001
0000
0000
0000
,
0100
0000
0000
0000
,
0010
0000
0000
0000
,
1000
0000
0001
0000
,
1000
0000
0000
0000
,
0010
0000
0000
0000
,
1000
0000
0000
0000
,
0001
0000
0000
0000
,
0010
0000
0010
0000
,
0001
0000
0001
0000
,
1000
0000
1000
0000
,
0020
0000
0030
0000
,
0110
0200
0000
0000
,
0000
0000
0000
0300
,
0010
0000
0000
0000
,
1000
0000
0000
0000
,
0000
0002
0000
0000
,
0000
0000
0000
0003
,
1000
0000
0000
0000
,
0010
0000
0000
0100
,
0001
0020
0000
0000
,
0000
0000
0000
0030
,
0100
0000
0000
0000
,
0010
0000
0000
0000
,
0001
2000
0000
0000
,
0000
0000
0000
3000
,
0001
0000
0000
0000
,
0000
0000
0000
0000
,
0100
0000
0010
0000
,
1000
0000
0000
0000
,
0001
0000
1000
0000
,
0100
0000
0000
0000
,
0010
0000
0100
0000
,
1000
0000
0000
0000
,
0001
0000
1001
0000
,
0010
0000
0000
0000
,
0100
0000
0000
0000
,
0000
0010
0000
0000
,
0000
1000
0000
0000
,
0000
0000
0000
0000
,
0001
0000
0000
0000
,
0000
0010
0000
0000
,
0000
0001
0000
0000
,
0000
0000
0000
0000
,
1000
0000
0000
0000
,
0000
0000
0010
0100
,
1001
0000
0000
0000
;

//---------------dance-single - ----------------
#NOTEDATA:;
#CHARTNAME:;
#STEPSTYPE:dance-single;
#DESCRIPTION:;
#CHARTSTYLE:;
#DIFFICULTY:Challenge;
#METER:13;
#RADARVALUES:0.486280,0.889785,0.427770,0.145624,0.382263,374.000000,327.000000,47.000000,16.000000,0.000000,0.000000,8.000000,0.000000,0.000000,0.486280,0.889785,0.427770,0.145624,0.382263,374.000000,327.000000,47.000000,16.000000,0.000000,0.000000,8.000000,0.000000,0.000000;
#CREDIT:Pandemonium X;
#NOTES:
// measure 0
0000
0000
0000
0000
,  // measure 1
0000
0000
0000
0000
,  // measure 2
0000
0000
0000
0000
,  // measure 3
0000
0000
0000
0000
,  // measure 4
0000
0000
0000
0000
,  // measure 5
1100
0000
0000
0000
0101
0000
0000
0000
0011
0000
0000
1010
0000
0000
1001
0000
,  // measure 6
0000
0000
0000
0000
0001
0000
0100
0000
0101
0000
0000
0011
0000
0000
1100
0000
,  // measure 7
0000
0000
0000
0000
1000
0000
0010
0000
1010
0000
0000
1001
0000
0000
2200
0000
,  // measure 8
0000
0000
0000
3300
0011
0100
1001
0000
,  // measure 9
0110
0000
0110
0000
0100
0000
0001
0000
1000
0000
0000
1000
0000
0000
1000
0000
,  // measure 10
1001
0000
0000
0000
1000
0000
0001
0000
0010
0000
0000
0010
0000
0000
0001
0000
,  // measure 11
1100
0000
0000
0000
0100
0000
1000
0000
0001
0000
0000
0001
0000
0000
0001
0000
,  // measure 12
1010
0010
1000
0010
0110
0100
0101
0001
,  // measure 13
1001
0000
1000
0000
0100
0000
0001
0000
0100
0000
0000
0100
0000
0000
0100
0000
,  // measure 14
0110
0000
0000
0000
0010
0000
0001
0000
0100
0000
0000
1000
0000
0000
0100
0000
,  // measure 15
0110
0000
0000
0000
0100
0000
0010
0000
1000
0000
0000
1000
0000
0000
1000
0000
,  // measure 16
1001
0001
0010
0100
0010
0001
1000
0000
,  // measure 17
0001
0000
0100
0000
0010
1000
0000
0100
0000
0010
0100
0000
1000
0000
0001
0000
,  // measure 18
0100
0000
0001
0000
0010
0001
0000
1000
0000
0100
1000
0000
0010
0000
0100
0000
,  // measure 19
0001
0000
1000
0000
0010
1000
0000
0010
0000
0100
0001
0000
0010
0000
0100
0000
,  // measure 20
0010
0000
0001
0000
0100
0001
0000
0010
0000
0001
1000
0000
0010
0000
0100
0000
,  // measure 21
2001
0000
0000
0000
3100
1000
0100
0000
1000
0010
1000
0000
0010
0100
0010
0000
,  // measure 22
0100
0001
0100
0000
0001
0010
0001
0000
0010
0100
0010
0000
0100
1000
0100
0000
,  // measure 23
1000
0001
1000
0001
1000
0001
1000
0001
1000
0001
1000
0001
1000
0001
1000
0001
,  // measure 24
0100
1000
0100
0001
0100
1000
0100
0001
1000
0100
0001
0000
0101
0000
1100
0000
,  // measure 25
1001
0000
0000
0000
4000
0040
0000
0000
0000
0000
0000
0000
0000
0000
0000
0000
,  // measure 26
0000
0000
0000
3030
,  // measure 27
1001
0000
0000
0000
0001
0010
0000
0100
0000
0010
0001
0000
0010
0000
0001
0000
,  // measure 28
0000
0000
0000
0000
1000
0010
0000
0100
0000
0010
0100
0000
0010
0000
0000
0000
,  // measure 29
1001
0000
0000
0000
0004
0400
0000
0000
0000
0000
0000
0000
0000
0000
0000
0000
,  // measure 30
0000
0000
0000
0303
,  // measure 31
1001
0000
0001
0000
0010
0001
0000
0100
0000
0001
0010
0000
0100
0000
0010
0000
,  // measure 32
0110
0000
0000
0000
0100
1000
0000
0010
0000
0100
0010
0000
2000
0000
3002
0000
,  // measure 33
0013
0000
0000
0000
0400
4000
0000
0000
0000
0000
0000
0000
0000
0000
0000
0000
,  // measure 34
0000
0000
0000
3300
,  // measure 35
0011
0000
0000
0000
0001
0100
0000
0001
0000
0010
0100
0000
0010
0000
0001
0000
,  // measure 36
0000
0000
0000
0000
1000
0010
0000
0100
0000
0010
1000
0000
0010
0000
0000
0000
,  // measure 37
1001
0000
0000
0000
0040
0400
0000
0000
0000
0000
0000
0000
0000
0000
0000
0000
,  // measure 38
0000
0000
0000
0330
,  // measure 39
1001
0000
0000
0000
0001
0100
0000
0010
0000
1000
0010
0000
0100
0000
0001
0000
,  // measure 40
0000
0000
0000
0000
0000
0000
1000
0100
,  // measure 41
0011
0000
0001
0000
0100
0000
0010
0000
1000
0000
0000
1000
0000
0001
2000
0000
,  // measure 42
0000
0000
0000
0000
3100
0000
0010
0000
0001
0000
0000
0001
0000
0010
0200
0000
,  // measure 43
0300
0000
0000
0000
0010
0000
0001
0000
0100
0000
0000
0100
0000
0010
0200
0000
,  // measure 44
0000
0310
1000
0001
0010
1000
0010
0001
,  // measure 45
1000
0000
0001
0000
0100
0000
0010
0000
1000
0000
0000
0010
0000
0200
0002
0000
,  // measure 46
0000
0000
0300
0000
0013
0000
0100
0000
0010
0000
0000
0100
0000
1000
0002
0000
,  // measure 47
0003
0000
0000
0000
0101
0000
1010
0000
0101
0000
0000
1001
0000
0010
0200
0000
,  // measure 48
0000
0310
1000
0001
0011
0100
1001
0000
,  // measure 49
1000
0000
0000
0000
0100
0000
0000
0000
0001
0000
0000
0010
0000
0000
1000
0000
,  // measure 50
0000
0000
0000
0000
1000
0000
0001
0000
1000
0000
0000
1000
0000
0000
1000
0000
,  // measure 51
0000
0000
0000
0000
0100
0000
0010
0000
0001
0000
0000
0001
0000
0000
0001
0000
,  // measure 52
0000
0001
0100
0010
1000
0100
0010
0001
,  // measure 53
0001
0000
0000
0000
0100
0000
0000
0000
1000
0000
0000
0010
0000
0000
0001
0000
,  // measure 54
0000
0000
0000
0000
1000
0000
0001
0000
1000
0000
0000
1000
0000
0000
1000
0000
,  // measure 55
0000
0000
0000
0000
0001
0000
1000
0000
0001
0000
0000
0001
0000
0000
0001
0000
,  // measure 56
0000
1000
0010
0100
0001
0010
0100
1000
,  // measure 57
2002
0000
0000
0000
,  // measure 58
0000
0000
0000
0000
0000
0000
0000
3003
0110
0000
1001
0000
0110
0000
0000
0000
,  // measure 59
2002
3003
0000
0000
;
