#VERSION:0.83;
#TITLE:Sunshine;
#SUBTITLE:;
#ARTIST:Playmaker;
#TITLETRANSLIT:;
#SUBTITLETRANSLIT:;
#ARTISTTRANSLIT:;
#GENRE:NU-FUNK;
#ORIGIN:;
#CREDIT:;
#BANNER:Sunshine-banner.png;
#BACKGROUND:Sunshine-background.png;
#PREVIEWVID:;
#JACKET:Sunshine-jacket.png;
#CDIMAGE:;
#DISCIMAGE:;
#LYRICSPATH:;
#CDTITLE:cdtitle.png;
#MUSIC:Sunshine.ogg;
#OFFSET:-0.200000;
#SAMPLESTART:30.777851;
#SAMPLELENGTH:19.502407;
#SELECTABLE:YES;
#BPMS:0.000=124.600;
#STOPS:;
#DELAYS:;
#WARPS:;
#TIMESIGNATURES:0.000=4=4;
#TICKCOUNTS:0.000=4;
#COMBOS:0.000=1;
#SPEEDS:0.000=1.000=0.000=0;
#SCROLLS:0.000=1.000;
#FAKES:;
#LABELS:0.000=Song Start;
#BGCHANGES:;
#KEYSOUNDS:;
#ATTACKS:
;

//---------------dance-single - ----------------
#NOTEDATA:;
#CHARTNAME:;
#STEPSTYPE:dance-single;
#DESCRIPTION:;
#CHARTSTYLE:;
#DIFFICULTY:Hard;
#METER:10;
#RADARVALUES:0.365982,0.404815,0.019556,0.117338,0.234675,262.000000,260.000000,2.000000,12.000000,0.000000,0.000000,0.000000,0.000000,0.000000,0.365982,0.404815,0.019556,0.117338,0.234675,262.000000,260.000000,2.000000,12.000000,0.000000,0.000000,0.000000,0.000000,0.000000;
#CREDIT:Pandemonium X;
#NOTES:
0000
0000
0000
0000
,
0000
0000
0000
0000
,
0000
0000
0000
0000
,
0000
0000
0000
0000
,
1000
0000
1000
0000
0001
0010
0100
1000
,
0010
0010
0100
0001
,
1000
0000
1000
0000
0001
0010
0100
0010
,
0001
0001
1000
0010
,
0100
0000
0100
0000
0010
1000
0001
0100
,
0010
0010
1000
0100
,
0010
0000
0010
0000
0100
0010
0001
1000
,
0100
0100
1000
0001
,
0200
0300
0020
0030
,
1000
0001
1000
0000
,
0200
0300
0020
0030
,
0010
0000
0010
0000
,
0100
0010
0001
0000
0010
0001
0100
0000
,
0010
0000
1000
0000
0001
0000
0000
1000
0000
0001
0000
0001
0000
0000
0000
0000
,
1000
0001
0100
0000
0010
1000
0100
0000
,
0010
0000
0100
0000
1000
0000
0000
0001
0000
0100
0000
0100
0000
0000
0000
0000
,
0100
1000
0010
0000
0100
0001
1000
0000
,
0001
0000
1000
0000
0010
0000
0000
1000
0000
0001
0000
0001
0000
0000
0000
0000
,
0100
0001
0100
0000
0010
1000
0100
0000
,
0010
0000
0100
0000
0010
0000
0000
0001
0000
0000
0000
0000
1001
0000
0000
0000
,
1000
0001
0010
0000
0100
0010
0001
0000
,
0010
0000
0100
0000
1000
0000
0000
0010
0000
1000
0000
1000
0000
0000
0000
0000
,
0100
1000
0001
0000
0100
0001
0010
0000
,
0100
0000
0010
0000
0001
0000
0000
0010
0000
0100
0000
0100
0000
0000
0000
0000
,
0010
0001
0100
0000
0010
0100
0001
0000
,
1000
0000
0001
0000
0100
0000
0000
0010
0000
0100
0000
0100
0000
0000
0000
0000
,
0001
0010
0100
0000
0010
0001
0100
0000
,
0010
1000
0010
1000
0010
1000
0010
1000
,
0001
1000
0000
1000
0001
0000
0000
0100
0000
0100
0000
0000
0010
0000
0000
0000
,
0100
0000
0000
0000
0010
0000
0000
1000
0000
1000
0000
0000
0100
0000
0000
0000
,
0010
0000
0000
0000
0001
0000
0000
0100
0000
0100
0000
0000
0001
0000
0000
0000
,
0010
0000
0000
0000
0001
0000
0000
1000
0000
1000
0000
0000
0100
0000
0000
0000
,
0020
0130
0002
1003
,
0200
0301
2000
3100
,
2000
3100
0020
0031
,
0020
0031
0020
0031
,
1000
0001
0100
0000
0010
1000
0100
0000
,
0010
0000
0100
0000
1000
0000
0010
0100
0000
0001
0000
0001
0000
0000
0000
0000
,
1000
0001
0010
0000
0100
0010
0001
0000
,
0010
0000
0100
0000
1000
0000
0010
0100
0000
0010
0000
0010
0000
0000
0000
0000
,
0100
0001
0010
0000
0001
1000
0100
0000
,
0010
0000
0100
0000
1000
0000
0001
0100
0000
0001
0000
0001
0000
0000
0000
0000
,
1000
0001
0010
0000
0100
0010
0001
0000
,
0100
0010
0100
0010
0100
0010
0100
0010
,
1000
0001
0000
0001
1000
0000
0000
0100
0000
0100
0000
0000
0010
0000
0000
0000
,
0001
0000
0000
0000
0100
0000
0000
0010
0000
0010
0000
0000
1000
0000
0001
0000
,
0100
0000
0000
0000
0001
0000
0000
0010
0000
0010
0000
0000
0100
0000
0000
0000
,
1000
0000
0000
0000
0001
0000
0000
0100
0000
0100
0000
0000
1001
0000
0000
0000
;

//---------------dance-single - ----------------
#NOTEDATA:;
#CHARTNAME:;
#STEPSTYPE:dance-single;
#DESCRIPTION:;
#CHARTSTYLE:;
#DIFFICULTY:Medium;
#METER:7;
#RADARVALUES:0.326869,0.404815,0.400904,0.224897,0.000000,234.000000,193.000000,41.000000,23.000000,0.000000,0.000000,0.000000,0.000000,0.000000,0.326869,0.404815,0.400904,0.224897,0.000000,234.000000,193.000000,41.000000,23.000000,0.000000,0.000000,0.000000,0.000000,0.000000;
#CREDIT:Pandemonium X;
#NOTES:
0000
0000
0000
0000
,
0000
0000
0000
0000
,
0000
0000
0000
0000
,
0000
0000
0000
0000
,
1010
0000
1010
0000
0100
0001
0100
0000
,
0011
0000
0011
0000
0010
0100
0010
0000
,
1100
0000
1100
0000
0001
0010
0001
0000
,
1001
1001
0010
0100
,
0101
0000
0101
0000
0001
1000
0001
0000
,
1100
0000
1100
0000
0100
0010
0100
0000
,
0011
0000
0011
0000
0001
0100
0001
0000
,
0101
1100
1001
0000
,
0001
0000
1000
0000
,
0010
0100
0010
0000
,
1000
0000
0001
0000
,
0001
0000
0001
0000
,
1020
0130
0021
0130
,
0001
0000
0100
0000
0010
1000
0010
0000
,
1200
0310
0021
0130
,
0010
0000
0001
0000
0100
0010
1000
0000
,
1002
0103
2001
3100
,
0001
0000
1000
0000
0010
1000
0100
0000
,
0012
0013
2010
3010
,
0001
0000
1000
0000
0010
0100
0001
0000
,
2100
0010
0100
0010
,
3100
0000
0010
0000
0001
0010
0100
0000
,
0012
0100
0010
0100
,
0013
0000
0100
0000
0010
0001
0100
0000
,
0201
0010
0001
0010
,
0301
0000
1000
0000
0001
0100
0010
0000
,
1020
0100
1000
0100
,
1030
1000
1000
1000
,
0001
1000
0001
0000
0100
0000
0010
0000
,
1000
0010
0100
0001
,
0010
0100
0010
0000
0100
0000
1000
0000
,
0001
0100
0010
1000
,
0001
0000
1000
0000
,
0010
0000
0100
0000
,
0010
0000
1000
0000
,
1000
0000
1000
0000
,
1020
0130
0021
0130
,
0021
0001
0100
0031
,
0102
0013
2100
3010
,
0120
1000
0100
1030
,
2010
3100
0021
0130
,
2001
0010
0001
3010
,
1002
0103
0021
0130
,
1000
1000
1000
1000
,
0100
0010
0100
0000
1000
0000
0010
0000
,
0100
0001
1000
0001
,
0010
0100
0010
0000
0100
0000
1000
0000
,
0010
0100
0001
1001
;

//---------------dance-single - ----------------
#NOTEDATA:;
#CHARTNAME:;
#STEPSTYPE:dance-single;
#DESCRIPTION:;
#CHARTSTYLE:;
#DIFFICULTY:Easy;
#METER:3;
#RADARVALUES:0.141085,0.228808,0.146672,0.048891,0.000000,101.000000,86.000000,15.000000,5.000000,0.000000,0.000000,0.000000,0.000000,0.000000,0.141085,0.228808,0.146672,0.048891,0.000000,101.000000,86.000000,15.000000,5.000000,0.000000,0.000000,0.000000,0.000000,0.000000;
#CREDIT:Pandemonium X;
#NOTES:
0000
0000
0000
0000
,
0000
0000
0000
0000
,
0000
0000
0000
0000
,
0000
0000
0000
0000
,
1000
0000
0001
0000
,
0100
0000
0000
0000
,
0010
0000
1000
0000
,
0100
0000
0000
0000
,
0010
0000
0001
0000
,
1000
0000
0000
0000
,
0010
0000
0100
0000
,
0001
0000
0000
0000
,
2000
0000
0000
0000
,
0000
0000
0000
3000
,
0002
0000
0000
0000
,
0000
0000
0000
0003
,
1001
0000
0010
0000
,
0100
0001
0100
0000
,
1001
0000
1000
0000
,
0010
0100
0010
0000
,
0110
0000
0100
0000
,
0001
0010
0001
0000
,
1001
0000
0010
0000
,
0100
0100
0100
0000
,
1010
0000
0001
0000
,
1100
0000
0000
0000
,
0011
0000
1000
0000
,
0101
0000
0000
0000
,
0110
0000
0001
0000
,
1010
0000
0000
0000
,
1100
0000
0010
0000
,
0011
0001
0001
0001
,
1000
0000
0000
0000
,
0010
0000
0000
0000
,
0100
0000
0000
0000
,
0001
0000
0000
0000
,
0020
0000
0000
0000
,
0000
0000
0000
0030
,
0200
0000
0000
0000
,
0000
0000
0000
0300
,
0010
0000
0001
0000
,
1000
0001
1001
0000
,
0100
0000
0010
0000
,
1000
0001
0101
0000
,
0001
0000
1000
0000
,
0001
0100
0110
0000
,
0010
0000
1000
0000
,
0100
0100
0100
0100
,
1000
0001
0100
0000
,
0010
0000
1000
0000
,
0001
0000
1000
0000
,
0100
0000
0010
0200
,
0300
0000
0000
0000
;

//---------------dance-single - ----------------
#NOTEDATA:;
#CHARTNAME:;
#STEPSTYPE:dance-single;
#DESCRIPTION:;
#CHARTSTYLE:;
#DIFFICULTY:Beginner;
#METER:1;
#RADARVALUES:0.089400,0.126505,0.019556,0.019556,0.000000,64.000000,62.000000,2.000000,2.000000,0.000000,0.000000,0.000000,0.000000,0.000000,0.089400,0.126505,0.019556,0.019556,0.000000,64.000000,62.000000,2.000000,2.000000,0.000000,0.000000,0.000000,0.000000,0.000000;
#CREDIT:Pandemonium X;
#NOTES:
0000
0000
0000
0000
,
0000
0000
0000
0000
,
0000
0000
0000
0000
,
0000
0000
0000
0000
,
1000
0000
0000
0000
,
0001
0000
0000
0000
,
1000
0000
0000
0000
,
0001
0000
0000
0000
,
0100
0000
0000
0000
,
0010
0000
0000
0000
,
0100
0000
0000
0000
,
0010
0000
0000
0000
,
2000
0000
0000
0000
,
0000
0000
0000
3000
,
0002
0000
0000
0000
,
0000
0000
0000
0003
,
1000
0000
0001
0000
,
1000
0000
0000
0000
,
0010
0000
0100
0000
,
0010
0000
0000
0000
,
1000
0000
0100
0000
,
1000
0000
0000
0000
,
0001
0000
0010
0000
,
0001
0000
0000
0000
,
1001
0000
0001
0000
,
0010
0000
0000
0000
,
0100
0000
0010
0000
,
0100
0000
0000
0000
,
1000
0000
0001
0000
,
1000
0000
0000
0000
,
0010
0000
1000
0000
,
0001
0000
0001
0000
,
1000
0000
0000
0000
,
0010
0000
0000
0000
,
1000
0000
0000
0000
,
0001
0000
0000
0000
,
0110
0000
0000
0000
,
0100
0000
0000
0000
,
0010
0000
0000
0000
,
0001
0000
0001
0000
,
1000
0000
0001
0000
,
0100
0000
0000
0000
,
0010
0000
1000
0000
,
0100
0000
0000
0000
,
0010
0000
0100
0000
,
1000
0000
0000
0000
,
0001
0000
1000
0000
,
0010
0000
0010
0000
,
0100
0000
0000
0000
,
0010
0000
0000
0000
,
1000
0000
0000
0000
,
0001
0000
0000
0010
;

//---------------dance-single - ----------------
#NOTEDATA:;
#CHARTNAME:;
#STEPSTYPE:dance-single;
#DESCRIPTION:;
#CHARTSTYLE:;
#DIFFICULTY:Challenge;
#METER:13;
#RADARVALUES:0.554560,0.632523,0.459572,0.352013,0.718693,397.000000,350.000000,47.000000,36.000000,0.000000,0.000000,0.000000,0.000000,0.000000,0.554560,0.632523,0.459572,0.352013,0.718693,397.000000,350.000000,47.000000,36.000000,0.000000,0.000000,0.000000,0.000000,0.000000;
#CREDIT:;
#NOTES:
// measure 0
0000
0000
0000
0000
,  // measure 1
0000
0000
0000
0000
,  // measure 2
0000
0000
0000
0000
,  // measure 3
0000
0000
0000
0000
,  // measure 4
1020
0000
0230
0000
0301
0010
1000
0010
,  // measure 5
0001
0000
0000
0000
1000
0000
0000
0100
0000
0100
0000
0000
0010
0000
0001
0000
,  // measure 6
2100
0000
3020
0000
0130
1000
0100
0001
,  // measure 7
1000
0000
0000
0000
0001
0000
0000
0010
0000
0010
0000
0000
0100
0000
1000
0000
,  // measure 8
0012
0000
0203
0000
0310
0001
0010
1000
,  // measure 9
0100
0000
0000
0000
0010
0000
0000
0100
0000
0100
0000
0000
0010
0000
0001
0000
,  // measure 10
1020
0000
0230
0000
1300
0100
0001
0010
,  // measure 11
0100
0000
0000
0000
0010
0000
0000
0100
0000
0100
0000
0000
1000
0000
0001
0000
,  // measure 12
0201
0310
1200
0310
,  // measure 13
1002
1003
2001
3001
,  // measure 14
0201
0310
1200
0310
,  // measure 15
1200
0000
0000
0000
0310
0000
0000
0000
1200
0000
0000
0000
0310
0001
0000
0001
,  // measure 16
1000
0010
0100
0000
0000
0000
0010
1000
0001
0010
0000
0100
0000
0000
0010
0100
,  // measure 17
1000
0000
0100
0000
1000
0010
0000
0100
0000
1001
0000
1001
0000
1000
0001
0100
,  // measure 18
0010
1000
0100
0000
0000
0010
0100
1000
0001
1000
0000
0001
0000
0000
0100
0010
,  // measure 19
1000
0000
0001
0000
0010
0100
0000
0010
0000
0011
0000
0011
0000
0010
0001
0010
,  // measure 20
0100
1000
0001
0000
0000
0000
1000
0010
1000
0001
0000
1000
0000
0000
0100
0010
,  // measure 21
0001
0000
0010
0000
0100
1000
0000
0010
0000
1001
0000
1001
0000
1000
0001
1000
,  // measure 22
0001
0010
0100
0000
0000
0010
0100
0010
0001
1000
0000
0001
0000
0000
0100
0010
,  // measure 23
1000
0000
0001
0000
0010
0100
0000
0000
0100
0010
0000
0000
0010
0001
0010
0001
,  // measure 24
0010
0100
1000
0000
0000
0000
0001
1000
0010
1000
0000
0100
0000
0000
0010
0100
,  // measure 25
1000
0000
0001
0000
0100
0010
0000
1000
0000
1001
0000
1001
0000
0000
0000
0000
,  // measure 26
0002
0000
0000
0023
0000
0000
2030
0000
0000
3020
0000
0000
0032
0000
0000
0000
,  // measure 27
0203
0000
0010
0000
0310
1000
0000
0001
0000
0011
0000
0011
0000
0010
0001
1000
,  // measure 28
0010
1000
0001
0000
0000
0001
1000
0100
0010
0100
0000
0100
0000
0000
0010
0001
,  // measure 29
1000
0000
0010
0000
1000
0001
0000
0010
0000
0110
0000
0110
0000
0100
0010
0001
,  // measure 30
1000
0010
1000
0000
0000
0010
1000
0001
0010
0100
0000
0010
0000
0000
0010
0001
,  // measure 31
0100
0101
0100
0101
0100
0101
0100
0101
,  // measure 32
0001
1000
0000
0001
1000
0000
0000
0010
0000
0010
0000
0000
0000
0000
0000
0000
,  // measure 33
0100
0000
0000
0000
0001
0000
0000
0010
0000
0010
0000
0000
0000
0000
0000
0000
,  // measure 34
0100
0000
0000
0000
1000
0000
0000
0001
0000
0001
0000
0000
0000
0000
0000
0000
,  // measure 35
1000
0000
0000
0000
0001
0000
0000
0100
0000
0100
0000
0000
0010
0000
1000
0000
,  // measure 36
1002
0013
2001
3010
,  // measure 37
0201
0310
0102
0013
,  // measure 38
0210
1300
1002
0013
,  // measure 39
1002
0000
0000
0000
0013
0000
0000
0000
1002
0000
0000
0000
0013
0001
0000
0001
,  // measure 40
0100
0010
1000
0000
0000
0100
0010
0001
1000
0001
0000
1000
0000
0000
0100
0010
,  // measure 41
0001
0000
0010
0000
0001
0100
0000
0010
0000
1001
0000
1001
0000
0000
0000
0000
,  // measure 42
2000
0000
0000
3200
0000
0000
0302
0000
0000
0203
0000
0000
0320
0000
0000
0000
,  // measure 43
0032
0000
0103
0000
0001
0100
0000
0010
0000
1010
0000
1010
0000
1000
0010
1000
,  // measure 44
0001
0010
0100
0000
0000
0010
0001
1000
0010
1000
0000
0001
0000
0000
1000
0100
,  // measure 45
0010
0000
0100
0000
1000
0010
0000
0100
0000
0101
0000
0101
0000
0001
0010
0001
,  // measure 46
1000
0100
0010
0000
0000
0100
0010
0001
1000
0010
0000
1000
0000
0000
0001
1000
,  // measure 47
0010
1010
0010
1010
0010
1010
0010
1010
,  // measure 48
0001
1000
0000
0001
1000
0000
0000
0010
0000
0010
0000
0000
0000
0000
0000
0000
,  // measure 49
0100
0000
0000
0000
0001
0000
0000
0010
0000
0010
0000
0000
0000
0000
0000
0000
,  // measure 50
0100
0000
0000
0000
1000
0000
0000
0001
0000
0001
0000
0000
0000
0000
0000
0000
,  // measure 51
1000
0000
0000
0000
0001
0000
0000
0100
0000
0100
0000
0000
1001
0000
0000
0000
;
