#TITLE:Summer;
#SUBTITLE:(Speedy Mix);
#ARTIST:☺;
#TITLETRANSLIT:;
#SUBTITLETRANSLIT:;
#ARTISTTRANSLIT:;
#GENRE:HAPPY HARDCORE;
#CREDIT:;
#BANNER:banner.png;
#BACKGROUND:background.png;
#LYRICSPATH:;
#CDTITLE:cdtitle.png;
#MUSIC:Summer (Speedy Mix).ogg;
#OFFSET:-0.480000;
#SAMPLESTART:43.270809;
#SAMPLELENGTH:15.567566;
#SELECTABLE:YES;
#BPMS:0.000000=185.000000
;
#STOPS:32.000000=0.973000,
109.000000=0.486000,
109.500000=0.486000,
122.000000=0.486000,
122.500000=0.162000
;
#BGCHANGES:;
#KEYSOUNDS:;
#ATTACKS:;

//---------------dance-single - ----------------
#NOTES:
     dance-single:
     :
     Hard:
     14:
     0.701991,0.765808,0.282620,0.164102,0.305412,539.000000,508.000000,31.000000,18.000000,0.000000,0.000000,0.701991,0.765808,0.282620,0.164102,0.305412,539.000000,508.000000,31.000000,18.000000,0.000000,0.000000:
0000
0000
0000
0000
,
0000
0000
0000
0000
,
0000
0000
0000
0000
,
0000
0000
0000
0000
,
0000
0000
0000
0000
,
1000
0000
0100
0000
0010
0010
0000
0100
,
0000
0000
1000
0000
0010
0000
0000
0000
0100
0000
0100
0000
0100
0000
0000
0010
,
0100
0000
0001
0000
0010
0010
0000
0001
,
1001
0000
0000
0000
1000
0000
0001
0000
0010
0000
0100
0010
0000
0001
0000
0100
,
0010
0000
1000
0000
0010
0000
0100
0000
0010
0000
1000
0001
0000
0010
0000
0100
,
0010
0000
0001
0000
1000
0000
0100
0000
1000
0000
0010
0100
0000
0001
0000
0010
,
0001
0000
1000
0000
0001
0000
0100
0000
0010
0000
1000
0010
0000
0100
0000
0001
,
0010
0000
0100
0000
1000
0000
0100
0000
1000
0000
0010
0100
0000
0010
0000
1000
,
0010
0000
0100
0000
0001
0000
0010
0000
0100
0000
0010
0001
0000
0100
0000
0001
,
0010
0000
0001
0000
1000
0000
0001
0000
0100
0000
0001
0010
0000
0001
0000
1000
,
0100
0000
0010
0000
0100
0000
1000
0000
0010
0000
0100
0001
0000
0010
0000
0100
,
0010
0001
1000
0100
0001
0100
1000
0100
,
0001
0200
0000
0310
0002
0000
1000
0000
,
1003
0000
1000
0010
0001
0010
1000
0010
,
0100
0000
0002
0000
0000
0000
0013
0100
1000
0000
0000
0000
1001
0000
0000
0000
,
0000
0000
0001
0010
1000
0010
0001
0010
,
1000
0020
0000
0130
2000
0000
0001
0000
,
3001
0000
0001
0100
1000
0100
0001
0100
,
0010
0000
2000
0000
0000
0000
3001
0100
0010
0000
0000
0000
1001
0000
0000
0000
,
0000
0000
1000
0010
0000
1000
0001
0010
,
0000
0001
0010
0100
0010
0001
1000
0010
,
0100
0000
0010
1000
0001
0010
0100
0010
,
0001
1000
1010
0011
0010
0001
0100
0010
,
1000
0001
0010
0100
0010
0001
1000
0010
,
1000
0100
0010
0001
0010
0001
0100
0010
,
1000
0000
0001
0000
0010
0000
0100
0000
1100
0000
0101
0000
0001
1000
0001
0000
,
0100
0000
0010
0000
1000
0000
0010
0100
0000
0001
0000
0010
0100
0000
0100
0000
,
0010
0000
0001
0000
0100
0000
0010
1000
0000
0001
0000
0010
0100
0000
0100
0000
,
0010
0000
0001
0000
1000
0000
0010
1000
0000
0010
0000
0100
0001
0000
0001
0000
,
0010
0000
0001
0000
1000
0000
0100
1000
0000
0010
0000
0100
0001
0000
0001
0000
,
0010
0000
0100
0000
1000
0000
0100
1000
0000
0010
0000
0100
0001
0000
0001
0000
,
0010
0000
0100
0000
0010
0000
0001
1000
0000
0001
0000
0100
0010
0000
0010
0000
,
0100
0000
0001
0000
0100
0000
0010
1000
0000
0100
0000
0010
0001
0000
0001
0000
,
0010
0000
0001
0000
0100
0000
0010
0000
1000
0001
1000
0001
1000
0001
1000
0000
,
0001
0010
0000
0100
0010
0001
0100
1000
,
0100
0000
0010
1000
0001
0000
0010
0000
0110
0000
0000
0000
1100
0000
0000
0000
,
0000
0000
0100
0000
1000
0000
0000
0001
0000
0000
0100
0000
0001
0000
0010
0000
,
0100
0000
0010
0001
0100
0000
0001
0000
1000
0000
0000
0000
0000
0000
0000
0000
,
1000
0010
0000
0100
1000
0100
0010
1000
,
0001
0000
0010
0100
1000
0000
0010
0000
0100
0000
0000
0000
1001
0000
0000
0000
,
0000
0000
0001
0000
0010
0000
0000
0100
0000
0000
0010
0000
0001
0000
0100
0000
,
0010
0000
1000
0001
0010
0000
0001
0000
1000
0000
0000
0000
0000
0000
0000
0000
,
0001
0100
1000
0100
0010
1000
0001
0020
,
0000
0031
0200
0000
0010
0000
0310
0000
,
0100
0010
1000
0001
0010
1000
0010
0200
,
0000
0000
0310
0100
1000
0000
0000
0000
2002
0000
0000
0000
3003
0000
0000
0000
,
0001
1000
0100
1000
0010
0100
0001
0020
,
0000
0130
2000
0000
0010
0000
3010
0000
,
0100
1000
0100
0001
0010
0100
0010
0002
,
0000
0000
1003
0100
0010
0000
0000
0000
1001
0000
0000
0000
0000
0000
0000
0000
,
0101
0000
0000
0000
0000
1001
0000
0000
,
0110
0000
0000
0000
0000
0000
0000
0000
0000
0000
1010
0000
0000
1100
0000
0000
,
1001
0000
0110
0000
,
1000
0000
0100
0010
0001
0000
0010
0000
0001
0000
0010
0000
0001
0000
0010
0000
,
1100
0000
1000
0000
0010
0110
0000
0100
,
0101
0000
0000
0000
0001
0000
0000
0000
1000
0000
1001
0000
0000
0110
0000
0000
,
1001
0000
0001
0100
1010
0000
1000
0100
,
0011
1010
1001
0101
,
0001
0010
0000
0100
0010
0001
0000
0010
,
0001
1000
0100
0001
0100
0010
0001
0000
,
1000
0001
0100
0001
0010
0100
1000
0100
,
2000
3020
0230
0302
,
0013
1000
0010
0001
0100
1000
0100
0010
,
1000
0010
0001
0010
0100
1000
0100
0001
,
0100
0010
1000
0010
0001
0010
1000
0010
,
0100
0001
0100
1000
0010
0100
0001
0000
,
1000
1000
0100
0100
1000
1000
1001
0000
,
0010
0000
0001
0000
0100
0001
0000
0010
,
0000
0100
0100
0000
1000
1000
1000
0000
,
0001
0000
1000
0000
0010
0100
0000
0001
,
0000
0100
0100
0000
0010
0010
0010
0000
,
0100
0000
0001
0000
1000
0100
0000
0010
,
0000
0001
0001
0000
0010
0010
0010
0000
,
0100
0000
0010
0000
0100
0100
0000
1000
,
0000
0000
0001
0000
0100
0000
0000
0000
0010
0100
0010
0100
0010
0100
0010
0100
,
0001
0000
0000
0000
;

//---------------dance-single - ----------------
#NOTES:
     dance-single:
     :
     Easy:
     6:
     0.339925,0.401138,0.118518,0.018234,0.000000,261.000000,248.000000,13.000000,2.000000,0.000000,0.000000,0.339925,0.401138,0.118518,0.018234,0.000000,261.000000,248.000000,13.000000,2.000000,0.000000,0.000000:
0000
0000
0000
0000
,
0000
0000
0000
0000
,
0000
0000
0000
0000
,
0000
0000
0000
0000
,
0000
0000
0000
0000
,
1000
0000
0001
0000
,
0010
0000
0001
0000
,
0100
0000
0010
0000
,
1001
0001
1000
0010
,
0000
0100
0001
0010
,
0000
0100
0010
0001
,
0000
0010
0100
1000
,
0100
0001
0100
0010
,
0000
0100
1000
0010
,
0000
0100
0010
1000
,
0000
0001
1000
0010
,
0000
1000
1000
0100
,
0100
0010
0010
0001
,
0001
1000
1000
0001
,
0001
0100
0010
0110
,
0000
0010
0010
0100
,
0100
0001
0001
1000
,
0001
1000
1000
0001
,
0001
0100
0010
0110
,
0000
0001
0000
1000
,
0000
0100
1000
0010
,
0000
0100
0001
0010
,
0100
0000
1000
0001
1000
0000
0001
0000
,
0010
0001
1000
0010
,
1000
0001
0010
0100
,
0010
0000
0001
0000
1000
0100
0000
0000
,
0010
0100
1000
0010
,
0100
0001
0010
0100
,
0010
0001
0100
0010
,
1000
0001
0010
0100
,
0010
0001
0010
0100
,
1000
0100
1000
0010
,
0100
0001
1000
0010
,
0100
0001
1000
1000
,
0000
0001
1000
0100
,
0001
0100
0010
0110
,
0000
0100
0010
0001
,
0100
0100
0101
0000
,
0000
0001
1000
0010
,
1000
0100
0010
0011
,
0000
0010
0001
1000
,
0100
0010
0110
0000
,
0100
0000
1000
0000
,
0010
0000
0100
0100
,
0001
0000
1000
0000
,
0010
0100
2002
3003
,
0001
1000
0010
1000
,
0001
0010
0100
0100
,
0010
0001
0010
0100
,
1000
0100
1000
0000
,
1001
0000
0000
0000
0000
0010
0000
0000
,
0100
0000
0000
0000
0000
0001
0000
0000
,
1000
0000
0100
0000
,
1000
0100
0010
0001
,
1000
0000
0000
0000
0000
0010
0000
0000
,
0100
0000
0000
0000
0000
0010
0000
0000
,
1000
0000
0001
0000
,
1001
0110
1001
0000
,
0010
0000
0100
0000
,
0001
0010
0001
0000
,
0100
0000
0001
0000
,
1000
0100
0010
0001
,
1000
0001
0100
0001
,
0010
0100
0010
0001
,
1000
0100
0010
0100
,
1000
0001
0100
0000
,
0001
1000
0001
1000
0001
1000
0001
0000
,
1000
0001
1000
0000
,
0010
0100
0010
0000
,
1000
0010
1000
0000
,
0001
0100
0001
0000
,
0001
0010
0001
0000
,
1000
0100
1000
0000
,
0100
0010
0100
0000
,
0010
0001
0010
0010
,
1001
0000
0000
0000
;

//---------------dance-single - ----------------
#NOTES:
     dance-single:
     :
     Medium:
     13:
     0.609521,0.656407,0.282620,0.091168,0.000000,468.000000,437.000000,31.000000,10.000000,0.000000,0.000000,0.609521,0.656407,0.282620,0.091168,0.000000,468.000000,437.000000,31.000000,10.000000,0.000000,0.000000:
0000
0000
0000
0000
,
0000
0000
0000
0000
,
0000
0000
0000
0000
,
0000
0000
0000
0000
,
0000
0000
0000
0000
,
1000
0000
0100
0000
0010
0100
0000
1000
,
0000
0010
0100
0000
0001
0010
0100
0000
,
0010
0000
0001
0000
0100
0010
0000
1000
,
0001
0000
1000
0100
0010
0100
1000
0010
,
0100
0000
0001
0010
0100
0010
0001
1000
,
0010
0000
0100
0010
1000
0001
0010
0100
,
0010
0000
0100
0010
0001
0010
0100
0001
,
0100
1000
0001
0100
0010
0100
0001
1000
,
0010
0000
1000
0001
0100
0010
1000
0100
,
0010
0000
0100
1000
0001
0100
0001
0010
,
0100
0000
0010
0001
0100
0001
1000
0100
,
0010
0000
0100
1000
0010
0100
0001
0010
,
0100
1000
0000
0100
1000
0000
1010
0000
,
1010
0000
1000
0010
0100
0001
0010
0100
,
0010
0100
0000
0010
0001
0000
1100
0000
,
0000
0000
0001
1000
0010
1000
0001
0010
,
0100
1000
0000
0100
1000
0000
1010
0000
,
1010
0000
1000
0010
0001
0010
0100
0010
,
1000
0001
0000
1000
0100
0000
0011
0000
,
0000
0000
0001
0100
0000
0001
1000
0100
,
0000
1000
0010
0100
0001
1000
0010
0100
,
0001
0000
1000
0001
0010
0100
0010
0001
,
0100
0010
1000
1001
0001
0010
0001
0100
,
0010
1000
0001
0010
0100
0010
0001
0100
,
0010
1000
0001
0010
0100
0010
0001
0100
,
0010
1000
0001
0010
0100
2002
3000
0003
,
1000
0010
0100
0001
0010
0100
1000
0000
,
0001
1000
0010
1000
0100
0010
0100
0000
,
0010
0001
0010
0100
0010
0001
1000
0000
,
0001
0100
0001
0010
0100
0010
0001
1000
,
0100
0010
0100
1000
0001
0010
0100
0000
,
0010
0001
1000
0010
0100
0001
1000
0000
,
0100
0010
0001
0100
0001
0010
0100
0000
,
0010
0100
1000
0100
0010
0100
1000
0000
,
0000
0001
0000
1000
0010
0100
0001
0010
,
0100
1000
0100
0010
0100
0000
0110
0000
,
0000
0100
0000
0000
0010
0001
1000
0001
,
0100
0001
1000
0010
0100
0000
0000
0000
,
0000
0010
0000
0001
1000
0100
0010
0001
,
0010
0001
1000
0010
0100
0000
1001
0000
,
0000
0100
0001
0000
1000
0001
0010
0100
,
1000
0001
0100
0010
1000
0000
0000
0000
,
0001
0010
0100
1000
,
0100
0010
0100
0100
,
1000
0100
0010
0001
,
0110
1000
2002
3003
,
1000
0100
1000
0010
1000
0001
1000
0100
,
0000
0010
0100
0000
1100
0000
1100
0000
,
0001
0100
0001
1000
0001
0010
0001
1000
,
0000
0001
0100
0000
0110
0000
0000
0000
,
1001
0000
0000
0000
0000
1010
0000
0000
,
1001
0000
0000
0000
0000
0011
0000
0000
,
1100
0000
1001
0000
,
0101
0100
0010
1000
,
1010
0010
0100
0001
,
0101
0001
0010
0100
,
1100
0100
0011
0100
,
1001
0110
2002
3003
,
0001
0100
0000
0100
0010
1000
0000
0010
,
0100
0001
0010
0100
1000
0000
0001
0000
,
0010
0001
0100
0010
0100
0010
1000
0001
,
2000
3002
0203
0320
,
1030
0010
0100
0001
0010
0100
0010
0001
,
1000
0001
0010
0100
0010
0001
0100
0010
,
1000
0001
0010
0100
0010
0001
1000
0010
,
0100
0001
0010
0100
0010
0001
1000
0000
,
0001
0001
1000
1000
0010
0100
0110
0000
,
0010
0000
1000
0000
0010
0100
0000
0001
,
0000
0010
0100
0000
1000
0100
0010
0000
,
0100
0000
1000
0000
0010
0100
0000
0001
,
0000
1000
0001
0000
1000
0010
1000
0000
,
0010
0000
0100
0000
0001
0010
0000
0100
,
0000
0010
0001
0000
0100
0001
0010
0000
,
0100
0000
0010
0000
0001
1000
0000
0010
,
0000
1000
0001
0000
0001
0010
0100
1000
,
1001
0000
0000
0000
;

//---------------dance-single - ----------------
#NOTES:
     dance-single:
     :
     Beginner:
     4:
     0.158892,0.474072,0.154985,0.000000,0.000000,122.000000,105.000000,17.000000,0.000000,0.000000,0.000000,0.158892,0.474072,0.154985,0.000000,0.000000,122.000000,105.000000,17.000000,0.000000,0.000000,0.000000:
0000
0000
0000
0000
,
0000
0000
0000
0000
,
0000
0000
0000
0000
,
0000
0000
0000
0000
,
0000
0000
0000
0000
,
0010
0000
0000
0000
,
0000
0000
0000
0000
,
0000
0000
0000
0000
,
0000
1000
0000
0000
,
0000
0001
0000
0000
,
0000
0100
0000
0000
,
0000
0010
0000
0010
,
0000
0010
0000
0000
,
0000
1000
0000
0000
,
0000
0100
0000
0000
,
0000
1000
0000
0000
,
0000
0001
0000
0001
,
0000
0001
0000
0000
,
0000
1000
0000
1000
,
0000
1000
0000
0000
,
0000
0010
0000
0010
,
0000
0010
0000
0000
,
0000
0100
0000
0100
,
0000
0100
0000
0000
,
0000
0010
0000
0000
,
0000
1000
0000
0000
,
0000
0001
0000
1000
,
0000
0010
0100
0000
,
0000
0000
0010
0000
,
0000
0000
1000
0000
,
0000
0000
0001
0000
,
1000
0000
0000
0000
,
0001
0000
0000
0000
,
0010
0000
0000
0000
,
0001
0000
0000
0000
,
0100
0000
0000
0000
,
0010
0000
0000
0000
,
1000
0000
0000
0000
,
0100
0000
0000
0000
,
1000
0000
0000
0000
,
0001
0000
0001
0000
,
0100
0000
0000
0000
,
0010
0010
0010
0000
,
1000
0000
0000
0000
,
0001
0000
1000
0000
,
0100
0000
0000
0000
,
1000
1000
1000
0000
,
1001
0000
0000
0000
,
0000
0000
0000
0000
,
0000
0000
0000
0000
,
0010
0000
0000
0100
,
0010
0000
0000
0000
,
1000
0000
0000
0000
,
0001
0000
0000
0000
,
0010
0000
0000
0000
,
0110
0000
0000
0000
,
1001
0000
0000
0000
,
0110
0000
0100
0000
,
1001
0000
0000
0000
,
0110
0000
0000
0000
,
1001
0000
0000
0000
,
0110
0000
0100
0000
,
1001
0110
1001
0000
,
1000
0000
0001
0000
,
1000
0000
0000
0000
,
0010
0000
0100
0000
,
0010
1000
0010
1000
,
0001
0000
0001
0000
,
1000
0000
1000
0000
,
0010
0000
0010
0000
,
0100
0100
0100
0000
,
1001
0110
1001
0110
,
1001
0000
0000
0000
,
0001
0000
0000
0000
,
1000
0000
0000
0000
,
0010
0000
0000
0000
,
0100
0000
0000
0000
,
0001
0000
0000
0000
,
0010
0000
0000
0000
,
0100
0000
0010
0010
,
1001
0000
0000
0000
;

//---------------dance-single - ----------------
#NOTES:
     dance-single:
     :
     Challenge:
     18:
     0.950749,1.203413,0.401138,0.455838,0.966377,730.000000,686.000000,44.000000,50.000000,0.000000,0.000000,0.950749,1.203413,0.401138,0.455838,0.966377,730.000000,686.000000,44.000000,50.000000,0.000000,0.000000:
// measure 0
0000
0000
0000
0000
,  // measure 1
0000
0000
0000
0000
,  // measure 2
0000
0000
0000
0000
,  // measure 3
0000
0000
0000
0000
,  // measure 4
0000
0000
0000
0000
,  // measure 5
1000
0010
1000
0010
1000
0010
1000
0010
0100
0001
0100
0001
0100
0001
0100
0001
,  // measure 6
0010
0001
0010
0001
0010
0001
0010
0001
1000
0100
1000
0100
1000
0100
1000
0100
,  // measure 7
1000
0000
0001
0000
1000
1000
0000
0001
,  // measure 8
0220
0330
0000
0000
0100
0000
0001
0000
0010
0000
0100
0010
0000
0010
0000
0010
,  // measure 9
0001
0000
1000
0000
0010
0000
0100
0000
0001
0000
1000
0100
0000
0100
0000
0100
,  // measure 10
1000
0000
0001
0000
0100
0000
0010
0000
1000
0000
0001
0010
0000
0010
0000
0010
,  // measure 11
0001
0000
0100
0000
0001
0000
1000
0000
0100
0000
0010
0100
1000
0001
0100
0010
,  // measure 12
1000
0000
0001
1000
0010
0000
0100
0000
0001
0000
0010
0100
0000
0100
0000
0100
,  // measure 13
0010
0000
0001
0000
1000
0000
0010
0000
1000
0000
0001
1000
0000
1000
0000
1000
,  // measure 14
0100
0000
0010
0000
0100
0000
1000
0000
0001
0000
0100
0010
0000
0010
0000
0010
,  // measure 15
0100
0000
0001
0000
1000
0000
0100
0000
0010
0000
0001
0100
0001
0100
0001
0000
,  // measure 16
0100
0000
0100
0000
1002
0000
1003
0001
0020
0000
0031
0100
0020
0000
1030
0001
,  // measure 17
0010
0200
0000
0010
0310
0000
1001
0000
,  // measure 18
1001
0000
0000
0000
1000
0000
0001
1000
0200
0000
0310
1000
0200
0000
0310
0001
,  // measure 19
1000
0000
0002
0000
0000
0000
0013
0100
1000
0000
0000
0000
1001
0000
0000
0000
,  // measure 20
0000
0000
0000
0000
0001
0000
0100
0010
2000
0000
3001
0010
0200
0000
0310
0001
,  // measure 21
1000
0002
0000
0100
0103
0000
1010
0000
,  // measure 22
1010
0000
0000
0000
1000
0000
0001
0010
0200
0000
0310
0001
2000
0000
3001
0200
,  // measure 23
0310
0000
0200
0000
0000
0000
0310
1000
0001
0000
0000
0000
1001
0000
0000
0000
,  // measure 24
0000
0000
1000
0100
0000
1000
0001
0100
,  // measure 25
0000
0000
0001
0000
1000
0010
1000
0010
0100
0000
0001
0010
0001
0010
0001
0000
,  // measure 26
1000
0000
0000
0000
0001
0100
0001
0100
0010
0000
1000
0000
0100
0010
0100
0010
,  // measure 27
0100
0000
0010
0000
1002
0000
0010
0000
1003
0100
1000
0100
0010
0001
0010
0001
,  // measure 28
0100
0001
0100
0001
1000
0010
1000
0010
1000
0001
0100
0001
1000
0100
0010
0001
,  // measure 29
1000
0001
0010
0001
1000
0001
0010
0100
1000
0100
1000
0100
0010
0001
0010
0001
,  // measure 30
0100
0001
0100
0001
1000
0010
1000
0010
2000
0000
0100
3000
0020
0032
0023
0030
,  // measure 31
0001
0000
0100
0000
0110
0000
0100
0010
0000
0010
0000
0010
1000
0000
0001
0000
,  // measure 32
0010
0000
0100
0000
1100
0000
0100
1000
0000
1000
0000
1000
0001
0000
0100
0000
,  // measure 33
0001
0000
0010
0000
0110
0000
0100
0010
0000
0010
0000
0010
0001
0000
1000
0000
,  // measure 34
0001
0000
0100
0000
0110
0000
0010
1000
0000
1000
0000
1000
0001
0000
1000
0001
,  // measure 35
1000
0000
0100
0000
0110
0000
0100
1000
0000
1000
0000
1000
0001
0000
0100
0000
,  // measure 36
0010
0000
1000
0000
1010
0000
0010
0100
0000
0100
0000
0100
0001
0000
0010
0000
,  // measure 37
0100
0000
0010
0000
0011
0000
0001
0010
0000
0010
0000
0010
0001
0000
0100
0000
,  // measure 38
0010
0000
1000
0000
1001
0000
1000
0000
0001
0100
0010
0000
0100
0010
1000
0100
,  // measure 39
0010
0000
0100
0000
0000
0000
1000
0100
0000
1000
0010
0000
0100
0000
0001
0000
,  // measure 40
0010
0000
0100
0010
0001
0000
1000
0000
0002
0000
0000
0000
0103
0000
0000
0000
,  // measure 41
0000
0000
0010
0000
0100
0000
0010
1000
0000
1000
0100
0000
0010
0000
0100
0000
,  // measure 42
1000
0000
0001
0010
0100
0000
0020
0000
0002
0000
0000
0000
0033
0000
0000
0000
,  // measure 43
0010
0000
0100
0000
0000
0000
1000
0010
0000
0010
0100
0000
0010
0000
1000
0000
,  // measure 44
0001
0000
1000
0100
0010
0000
0100
0000
2000
0000
0000
0000
0020
0000
0000
0000
,  // measure 45
3030
0000
0100
0000
0001
0000
0010
0001
0000
0010
0100
0000
0010
0000
0001
0000
,  // measure 46
1000
0000
0001
0100
0010
0000
1000
0000
0100
0010
0100
0000
0010
0000
0100
0010
,  // measure 47
0002
0000
1003
0001
0200
0000
0310
1000
0200
0000
0310
0001
1000
0000
0200
0000
,  // measure 48
0000
0010
0310
0000
1001
0000
1001
0000
,  // measure 49
0001
0000
0100
0010
2000
0000
3100
0010
0002
0000
0013
0001
0200
0000
0310
0000
,  // measure 50
0000
0000
0010
0100
0001
0000
0000
0000
2002
0000
0000
0000
3003
0000
0000
0000
,  // measure 51
2000
0000
3100
1000
0002
0000
0103
0010
2000
0000
3001
0010
0200
0000
0320
0000
,  // measure 52
0000
0001
0031
0000
1100
0000
1100
0000
,  // measure 53
0200
0000
0310
1000
0002
0000
0103
0001
0020
0000
0130
1000
0002
0000
1003
0000
,  // measure 54
0000
0000
0100
0010
0001
0000
0000
0000
1100
0100
1000
0100
1000
0100
1000
0100
,  // measure 55
0010
0000
0100
0010
0100
0000
2000
0000
0000
0000
0001
0000
0000
0000
3001
0000
,  // measure 56
1001
0000
0010
0100
2000
0000
0100
0000
0000
0000
3010
0000
0000
0010
0000
0000
,  // measure 57
0110
0000
0010
0100
0001
0000
1002
0000
0000
0000
0100
0000
0103
0000
0000
0000
,  // measure 58
0110
0000
0100
0010
1000
0001
0010
0001
0100
0001
0010
0001
0010
0100
1000
0001
,  // measure 59
1000
0000
0001
0100
0010
0000
2000
0000
0000
0000
3100
0000
1100
0000
0000
0000
,  // measure 60
0010
0000
0001
1000
0010
0000
0200
0000
0000
0000
0310
0000
0000
0110
0000
0000
,  // measure 61
1001
0000
1000
0001
0010
0000
0200
0000
0000
0000
1000
0000
1300
0000
0000
0000
,  // measure 62
1100
0101
0011
1010
,  // measure 63
0001
0100
0000
0010
1000
0100
0000
0010
,  // measure 64
0100
1000
0100
1000
0100
0000
0010
0000
0001
1000
0001
1000
0001
0000
0000
0000
,  // measure 65
0010
0100
1000
0000
0100
0000
1000
0000
0010
0100
0010
0000
0100
0000
0001
0000
,  // measure 66
1000
0001
1000
0010
1000
0001
1000
0100
1000
0001
1000
0010
1000
0001
1000
0100
,  // measure 67
0010
0100
0010
0001
0100
0001
0010
0001
0010
0100
0010
0100
1000
0100
1000
0001
,  // measure 68
1000
0001
0100
0010
0100
0010
1000
0010
0100
0001
0100
0001
0010
0001
0010
0100
,  // measure 69
0010
0100
1000
0100
1000
0001
0100
0001
0100
0010
0100
0010
1000
0010
1000
0001
,  // measure 70
1000
0001
0010
0100
0010
0001
0100
0010
1000
0100
0010
0100
1000
0000
0000
0000
,  // measure 71
1001
0011
1001
1100
1010
0101
1001
0000
,  // measure 72
1000
0000
0000
0000
0010
0000
0000
0100
0010
0000
1000
0000
0000
0000
1001
0000
,  // measure 73
0000
1000
1000
0000
0100
0100
0100
0000
,  // measure 74
0010
0000
0000
0000
0100
0000
0000
0100
1000
0000
0010
0000
0000
0000
0110
0000
,  // measure 75
0000
0001
0010
0000
0001
0001
0001
0000
,  // measure 76
1000
0000
0000
0000
0001
0000
0000
0100
0001
0000
0100
0000
0000
0000
0110
0000
,  // measure 77
0000
0000
0100
0000
0010
0000
0000
0000
1000
0000
1000
0000
1000
0000
0000
0001
,  // measure 78
0100
0000
0000
0000
0010
0000
0000
0100
0001
0000
1000
0000
0000
0000
1000
0000
,  // measure 79
0000
0000
0001
0000
0001
0000
0000
0000
1000
0001
1000
0001
1000
0001
0100
0010
,  // measure 80
1000
0000
0000
0000
;
