#TITLE:Rush-More;
#SUBTITLE:;
#ARTIST:litmus*;
#TITLETRANSLIT:;
#SUBTITLETRANSLIT:;
#ARTISTTRANSLIT:;
#GENRE:;
#CREDIT:;
#BANNER:banner.png;
#BACKGROUND:background.png;
#LYRICSPATH:;
#CDTITLE:cdtitle.png;
#MUSIC:Rush-More.ogg;
#OFFSET:1.400000;
#SAMPLESTART:37.599998;
#SAMPLELENGTH:11.250000;
#LASTBEATHINT:1.066667;
#SELECTABLE:YES;
#BPMS:0.000000=160.000000
;
#STOPS:68.000000=0.094000,
68.250000=0.094000,
68.500000=0.094000,
68.750000=0.094000,
69.000000=0.375000,
130.000000=0.094000,
130.250000=0.094000,
130.500000=0.094000,
130.750000=0.094000
;
#BGCHANGES:4.000=Rush-More bga.mp4=1.000=0=0=1=====,
99999=-nosongbg-=1.000=0=0=0 // don't automatically add -songbackground-
;
#KEYSOUNDS:;
#ATTACKS:;

//---------------dance-single - ----------------
#NOTES:
     dance-single:
     :
     Hard:
     13:
     0.606960,0.678675,0.180980,0.491231,0.344724,493.000000,472.000000,21.000000,57.000000,0.000000,0.000000,0.606960,0.678675,0.180980,0.491231,0.344724,493.000000,472.000000,21.000000,57.000000,0.000000,0.000000:
// measure 0
0000
0000
0000
0000
,  // measure 1
0000
0000
0000
0000
,  // measure 2
0000
0000
0000
0000
,  // measure 3
0000
0000
0000
0000
,  // measure 4
0000
0000
0000
0000
,  // measure 5
0000
0000
0000
0000
,  // measure 6
0000
0000
0000
0000
,  // measure 7
0000
0000
0000
0000
,  // measure 8
0000
0000
0000
0000
,  // measure 9
0001
0100
0010
0000
1000
0000
0001
0010
0100
0000
0010
0000
1001
0000
0000
0000
,  // measure 10
1200
0000
0310
0000
0100
1000
0001
0000
,  // measure 11
0100
1000
0100
0001
0021
0000
0130
0000
,  // measure 12
0010
0001
1000
0010
0120
0000
1030
0000
,  // measure 13
0001
0000
1000
0000
0100
0000
0010
0000
0210
0000
0000
0000
1300
0000
0000
1000
,  // measure 14
0100
0000
0000
0010
0001
0000
0000
1000
0100
0000
0000
0010
0001
0000
0000
0001
,  // measure 15
0100
0000
0000
0010
1000
0000
0000
0001
0100
0000
0000
0010
1000
0000
0000
0001
,  // measure 16
1000
0100
0010
0001
1000
0100
0010
0001
,  // measure 17
0100
0100
0100
0100
0000
0000
0000
0000
0000
0000
0000
0000
0001
0000
0100
0000
,  // measure 18
0010
0000
1000
0100
1000
0000
0100
0000
0010
0000
0001
0010
0001
0000
0010
0000
,  // measure 19
0100
0000
0010
0100
2000
0000
0000
0000
3000
0000
0000
0000
0001
0000
1000
0000
,  // measure 20
0010
0000
1000
0100
1000
0000
0010
0000
1000
0000
0100
0010
0100
0000
0010
0000
,  // measure 21
0001
2000
0020
0000
3030
0000
0010
1000
,  // measure 22
0001
0000
0010
0100
0010
0000
0001
0000
1000
0000
0010
1000
0010
0000
0100
0000
,  // measure 23
0001
0000
0010
0100
2000
0000
0000
0000
3000
0000
0000
0000
0100
0000
0010
0000
,  // measure 24
0001
0000
0100
0010
0100
0000
0010
0000
1000
0000
0010
0000
0010
0000
0100
0010
,  // measure 25
0000
0010
0100
0000
0001
0000
0000
0000
2000
3000
0000
0200
0300
0000
0020
0030
,  // measure 26
0100
0000
0010
0001
0020
0000
0130
0000
1000
0000
0010
0100
0002
0000
1003
0000
,  // measure 27
0100
0000
0010
0100
2000
0000
3001
0000
0000
0000
0000
0000
0200
0000
0310
0000
,  // measure 28
1000
0000
0001
0010
0200
0000
0310
0000
0100
0000
0010
0001
2000
0000
3010
0000
,  // measure 29
0100
0000
0001
1000
0001
0000
0110
0000
1020
0000
0000
0000
0100
0000
0000
0000
,  // measure 30
1000
0000
0000
0100
0000
0000
1030
0000
1002
0000
0000
0000
0010
0000
0000
0000
,  // measure 31
0100
0000
0000
0010
0000
0000
0103
0000
0021
0000
0000
0000
0100
0000
0000
0000
,  // measure 32
0001
0000
0000
0100
0000
0000
0031
0000
1000
1000
1000
1000
0000
0000
0000
0000
,  // measure 33
0000
0000
0102
0000
0013
0001
0100
0001
,  // measure 34
1000
0000
1000
0100
0010
0100
2100
0000
,  // measure 35
3001
0000
0010
0100
1000
0010
0102
0000
,  // measure 36
0013
0000
0010
0100
1000
0001
0102
0000
,  // measure 37
1003
0000
0200
0320
0031
0010
0200
2300
,  // measure 38
3020
0130
0002
0203
0310
1000
0002
2003
,  // measure 39
3200
0310
0200
2300
3010
0100
0020
2030
,  // measure 40
3002
0013
0200
0320
0031
1000
0020
2030
,  // measure 41
0200
0000
3300
0000
1001
0000
0000
0001
0010
0000
0000
0010
0100
0000
0010
0000
,  // measure 42
0001
0000
0000
0000
1001
0000
0000
1000
0100
0000
0000
0100
0020
0000
0000
0000
,  // measure 43
0230
0000
0000
0000
1300
0000
0000
0001
0100
0000
0000
0010
1000
0000
0001
0000
,  // measure 44
0010
0000
0000
0000
0110
0000
0000
0010
0001
0000
0000
0001
0200
0000
0000
0000
,  // measure 45
0320
0000
0000
1030
0001
0000
0000
0001
1000
0000
0000
1000
0001
0000
0000
0001
,  // measure 46
1000
0000
0000
0010
0100
0000
0000
0100
0010
0000
0000
0010
0100
0000
0000
0100
,  // measure 47
0010
0000
0000
0100
0001
0000
0010
0000
0100
0000
1000
0000
0100
0000
0010
0000
,  // measure 48
0100
1000
0001
0010
0100
0010
0001
1000
,  // measure 49
0010
0100
2002
0000
0000
0000
0000
0000
,  // measure 50
0000
0000
3003
0000
0001
0100
1000
0000
0100
0000
0010
1000
0001
0000
0010
0000
,  // measure 51
1001
0000
0000
0000
1200
0000
0000
0310
0001
0000
0100
0000
0010
0000
1000
0010
,  // measure 52
0100
0000
0001
0000
0000
0000
0010
0000
0001
0000
0010
0000
0100
0000
0010
0001
,  // measure 53
1000
0000
0000
0000
0100
0000
0000
0010
0100
0000
0010
0000
0001
0000
0100
0010
,  // measure 54
1000
0000
0001
0000
0000
0000
1000
0000
0100
0000
1000
0000
0001
0000
0100
0010
,  // measure 55
1000
0000
0000
0000
0001
0000
0000
0010
0001
0000
1000
0000
0010
0000
0100
0001
,  // measure 56
0010
0000
0100
0000
0000
0000
0010
0000
0001
0000
1000
0000
0010
0000
0100
0010
,  // measure 57
1000
0000
0000
0000
0001
0000
0000
1000
0010
0000
1000
0000
0100
0000
0010
0100
,  // measure 58
1000
0000
0100
0000
0000
0000
0010
0000
0100
0000
0010
0000
0001
0000
0100
0010
,  // measure 59
1000
0000
0000
0000
1001
0000
0000
0001
0100
0000
0010
0000
1000
0000
0100
0010
,  // measure 60
0001
0000
0020
0000
0000
0000
0130
0000
1000
0000
0001
0000
0100
0000
0010
1000
,  // measure 61
0002
0000
0000
0000
1003
0000
0000
0100
0010
0000
0100
0000
1000
0000
0010
0100
,  // measure 62
0001
0000
2000
0000
0000
0000
3100
0000
0001
0000
0100
0000
0010
0000
0100
1000
,  // measure 63
0020
0000
0000
0000
0130
0000
0000
0001
0010
0000
0001
0000
1000
0000
0001
0010
,  // measure 64
0100
0000
0020
0000
0000
0000
0130
0000
0010
0000
0001
0000
0100
0000
1000
0100
,  // measure 65
0020
0000
0000
0000
0130
0000
0000
0010
1000
0000
0001
0000
0010
0000
0100
0010
,  // measure 66
0001
0000
1000
0000
0010
0000
0000
0000
0010
0000
0000
0000
0010
0000
1000
0001
,  // measure 67
1001
0000
0001
0000
0001
1000
0000
1000
,  // measure 68
0001
0000
1000
0000
0001
1000
0000
0010
,  // measure 69
0010
0000
1000
0000
0010
0100
0000
0001
,  // measure 70
0010
0000
0100
0000
0010
0001
0000
1000
,  // measure 71
1000
0100
0010
0000
0001
0100
0000
0010
,  // measure 72
1000
0000
0100
0000
0010
0100
0000
1000
,  // measure 73
1000
0000
0100
0000
1000
0010
0000
0100
,  // measure 74
0001
0000
0000
0000
1000
0000
0010
0000
0001
0000
0010
0000
0100
0000
0001
1000
,  // measure 75
0010
0000
0000
0000
;

//---------------dance-single - ----------------
#NOTES:
     dance-single:
     :
     Medium:
     9:
     0.457990,0.581721,0.353342,0.129271,0.030163,372.000000,331.000000,41.000000,15.000000,0.000000,0.000000,0.457990,0.581721,0.353342,0.129271,0.030163,372.000000,331.000000,41.000000,15.000000,0.000000,0.000000:
// measure 0
0000
0000
0000
0000
,  // measure 1
0000
0000
0000
0000
,  // measure 2
0000
0000
0000
0000
,  // measure 3
0000
0000
0000
0000
,  // measure 4
0000
0000
0000
0000
,  // measure 5
0000
0000
0000
0000
,  // measure 6
0000
0000
0000
0000
,  // measure 7
0000
0000
0000
0000
,  // measure 8
0000
0000
0000
0000
,  // measure 9
1000
0100
0010
0001
0010
0100
1001
0000
,  // measure 10
0001
0000
0100
0000
0010
1000
0100
0000
,  // measure 11
0010
0000
0100
0010
0002
0000
1003
0000
,  // measure 12
0010
0000
1000
0000
0001
0010
0001
0000
,  // measure 13
0010
0000
0100
0010
0002
0000
0103
0000
,  // measure 14
0010
0010
0100
0100
,  // measure 15
0001
0001
1000
1000
,  // measure 16
0001
0100
0010
1000
0001
0100
0010
1000
,  // measure 17
0001
0010
0001
0010
0000
0000
0000
0000
0000
0000
0000
0000
0100
0000
0000
0000
,  // measure 18
0010
0001
1000
0010
,  // measure 19
0100
0001
0020
0000
0030
0000
0100
0000
,  // measure 20
0010
0001
1000
0010
,  // measure 21
0100
0100
0200
0000
0300
0000
0010
0000
,  // measure 22
1000
0001
0010
0100
,  // measure 23
0010
0100
2000
0000
3000
0000
0100
0000
,  // measure 24
1000
0000
0010
0000
0100
0001
0010
0000
,  // measure 25
0100
0000
0000
0000
1001
0000
0000
0000
0001
0000
0000
1000
0000
0000
0100
0000
,  // measure 26
0010
0000
0100
1000
0001
0000
0100
0010
,  // measure 27
1000
0001
1000
0001
0000
0000
0010
0000
,  // measure 28
0001
0100
0010
0000
0100
0000
0010
1000
,  // measure 29
0001
0000
1100
0100
,  // measure 30
1000
0000
0000
0010
0000
0000
0100
0000
0101
0000
0000
0000
0001
0000
0000
0000
,  // measure 31
0010
0000
0000
0100
0000
0000
0010
0000
0011
0000
0001
0000
0010
0000
0100
0000
,  // measure 32
1000
0000
0001
0000
0010
0000
0100
0000
1000
0010
1000
0010
0000
0000
0000
0000
,  // measure 33
0000
0000
1000
0000
0010
0000
0100
0001
,  // measure 34
0010
0000
0100
0000
0010
0001
0100
0000
,  // measure 35
1001
0000
1000
0000
0001
0100
0010
0000
,  // measure 36
1000
0000
0100
0000
0010
0100
1000
0000
,  // measure 37
1001
0000
1000
0010
0000
0010
1000
0000
,  // measure 38
1001
0000
0001
0010
0000
0010
0001
0000
,  // measure 39
1001
0000
0001
0100
0000
0100
0001
0000
,  // measure 40
1001
0000
1000
0100
0000
0100
1000
0000
,  // measure 41
1001
1010
0101
1010
,  // measure 42
0101
1001
0011
1100
,  // measure 43
1001
0011
1100
0011
,  // measure 44
1001
0011
1010
1100
,  // measure 45
1001
0001
0100
1000
,  // measure 46
0100
0001
0010
1000
,  // measure 47
0010
0000
0001
0010
0001
0010
0100
1000
,  // measure 48
0100
1000
0010
0100
0010
1000
0010
0001
,  // measure 49
0010
0100
2002
0000
0000
0000
0000
0000
,  // measure 50
0000
3003
0001
0100
1000
0100
0001
1000
,  // measure 51
1001
0000
0010
0000
1001
0000
1000
0001
,  // measure 52
0020
0000
0030
0100
1000
0000
0001
1000
,  // measure 53
0200
0000
1300
0000
1001
0000
0001
1000
,  // measure 54
0020
0000
0030
0100
0001
0000
0010
0100
,  // measure 55
0020
0000
0130
0000
0010
0000
0001
0010
,  // measure 56
0200
0000
0310
0000
0001
0000
1000
0001
,  // measure 57
0200
0000
0310
0000
1000
0000
0001
0010
,  // measure 58
0200
0000
0310
0000
0001
0000
0010
0100
,  // measure 59
2000
3001
1100
0001
,  // measure 60
1100
0001
1100
0001
,  // measure 61
1001
1000
0011
1000
,  // measure 62
0011
1000
0011
1000
,  // measure 63
0011
0000
1000
0000
0001
0000
0100
0010
,  // measure 64
1000
0100
0000
0010
0100
1000
0010
0100
,  // measure 65
0001
0000
1000
0000
0001
0100
0010
1000
,  // measure 66
0001
0010
0100
0000
0100
0000
0100
0010
,  // measure 67
1001
0000
0001
0000
1000
0001
0000
1000
,  // measure 68
0001
0000
1000
0000
0001
1000
0000
1000
,  // measure 69
0001
0000
1000
0000
0001
1000
0000
0001
,  // measure 70
1000
0000
0001
0000
1000
0001
0000
1000
,  // measure 71
0001
1000
0001
0000
1000
0001
0000
1000
,  // measure 72
0001
0000
0001
0000
1000
0001
0000
0001
,  // measure 73
1000
0000
0001
0000
1000
0001
0000
0001
,  // measure 74
1000
0000
0010
0000
0010
0000
0010
0100
,  // measure 75
1001
0000
0000
0000
;

//---------------dance-single - ----------------
#NOTES:
     dance-single:
     :
     Easy:
     5:
     0.240075,0.355496,0.060327,0.284397,0.000000,195.000000,188.000000,7.000000,33.000000,0.000000,0.000000,0.240075,0.355496,0.060327,0.284397,0.000000,195.000000,188.000000,7.000000,33.000000,0.000000,0.000000:
// measure 0
0000
0000
0000
0000
,  // measure 1
0000
0000
0000
0000
,  // measure 2
0000
0000
0000
0000
,  // measure 3
0000
0000
0000
0000
,  // measure 4
0000
0000
0000
0000
,  // measure 5
0000
0000
0000
0000
,  // measure 6
0000
0000
0000
0000
,  // measure 7
0000
0000
0000
0000
,  // measure 8
0000
0000
0000
0000
,  // measure 9
1000
0001
0100
1001
,  // measure 10
0001
0000
1000
0000
,  // measure 11
0010
0100
0010
0000
,  // measure 12
1000
0000
0100
0000
,  // measure 13
1000
0001
0100
0000
,  // measure 14
0010
0010
0010
0010
,  // measure 15
0100
0100
0100
0100
,  // measure 16
0001
1000
0001
1000
,  // measure 17
0020
0030
0000
0100
,  // measure 18
0001
0010
0001
1000
,  // measure 19
0100
0020
0030
0100
,  // measure 20
1000
0010
0100
0001
,  // measure 21
2000
0000
3000
0001
,  // measure 22
1000
0010
1000
0001
,  // measure 23
0010
0200
0300
0010
,  // measure 24
0001
1000
0200
0000
,  // measure 25
0000
0300
1001
0000
,  // measure 26
0010
0100
0000
0010
,  // measure 27
0000
1000
0000
0001
,  // measure 28
0000
1000
0000
0100
,  // measure 29
1000
0000
0100
1000
,  // measure 30
0020
0030
0100
0001
,  // measure 31
2000
3000
0001
0100
,  // measure 32
0010
1000
0200
0300
,  // measure 33
0000
0010
0001
0000
,  // measure 34
0100
0010
1000
0000
,  // measure 35
0001
1000
0100
0000
,  // measure 36
1000
0010
0100
0000
,  // measure 37
0010
2000
3000
0002
,  // measure 38
0003
0200
0300
0020
,  // measure 39
0030
2000
3000
0020
,  // measure 40
0030
0200
0300
0002
,  // measure 41
0003
1000
0001
1000
,  // measure 42
0001
1000
0001
1000
,  // measure 43
1001
0010
0100
0010
,  // measure 44
0100
0010
0100
0010
,  // measure 45
0110
1000
1000
1000
,  // measure 46
1000
0001
0001
0001
,  // measure 47
0001
1000
0100
0010
,  // measure 48
0001
1000
0100
0010
,  // measure 49
0001
2002
0000
0000
,  // measure 50
0000
3003
0000
0000
,  // measure 51
0000
0001
0100
0020
,  // measure 52
0030
0000
0100
0002
,  // measure 53
0003
1000
0001
0020
,  // measure 54
0030
0100
1000
0020
,  // measure 55
0030
0100
0001
2000
,  // measure 56
3000
0000
0001
2000
,  // measure 57
3000
0100
1000
0020
,  // measure 58
0030
0100
0001
2000
,  // measure 59
3000
0001
1000
0100
,  // measure 60
0020
0130
0010
0200
,  // measure 61
1300
0001
1000
0010
,  // measure 62
2000
3100
0010
0002
,  // measure 63
0013
0001
0100
0020
,  // measure 64
1030
0100
0010
0200
,  // measure 65
1300
0010
0100
0002
,  // measure 66
1003
0010
0010
0010
,  // measure 67
1001
1000
0000
0000
,  // measure 68
0000
0001
0000
0000
,  // measure 69
0000
0100
0000
0000
,  // measure 70
0000
0010
0000
0000
,  // measure 71
0000
0100
0000
0000
,  // measure 72
0000
0001
0000
0000
,  // measure 73
0000
1000
0000
0000
,  // measure 74
0000
0001
0000
1000
,  // measure 75
0110
0000
0000
0000
;

//---------------dance-single - ----------------
#NOTES:
     dance-single:
     :
     Beginner:
     3:
     0.128040,0.193907,0.025854,0.017236,0.000000,104.000000,101.000000,3.000000,2.000000,0.000000,0.000000,0.128040,0.193907,0.025854,0.017236,0.000000,104.000000,101.000000,3.000000,2.000000,0.000000,0.000000:
// measure 0
0000
0000
0000
0000
,  // measure 1
0000
0000
0000
0000
,  // measure 2
0000
0000
0000
0000
,  // measure 3
0000
0000
0000
0000
,  // measure 4
0000
0000
0000
0000
,  // measure 5
0000
0000
0000
0000
,  // measure 6
0000
0000
0000
0000
,  // measure 7
0000
0000
0000
0000
,  // measure 8
0000
0000
0000
0000
,  // measure 9
0010
0000
0000
0000
,  // measure 10
1000
0000
0000
0000
,  // measure 11
0001
0000
0000
0000
,  // measure 12
0100
0000
0000
0000
,  // measure 13
0010
0000
0000
0000
,  // measure 14
1000
0000
1000
0000
,  // measure 15
0001
0000
0001
0000
,  // measure 16
0100
0000
0100
0000
,  // measure 17
0010
0000
0000
1000
,  // measure 18
0000
0000
0001
0000
,  // measure 19
1000
0000
0000
0010
,  // measure 20
0000
0000
0100
0000
,  // measure 21
0001
0000
0000
1000
,  // measure 22
0000
0000
0010
0000
,  // measure 23
1000
0000
0000
0100
,  // measure 24
0000
0000
0010
0000
,  // measure 25
0000
0000
0100
0000
,  // measure 26
1001
0000
1000
0000
,  // measure 27
0001
0000
0000
1000
,  // measure 28
0001
0000
0100
0000
,  // measure 29
0010
0000
1000
0000
,  // measure 30
0001
0000
0100
0000
,  // measure 31
0010
0000
1000
0000
,  // measure 32
0010
0000
0100
0000
,  // measure 33
0000
0010
0000
0000
,  // measure 34
0000
1000
0000
0000
,  // measure 35
0000
0100
0000
0000
,  // measure 36
0000
0010
0000
0000
,  // measure 37
0000
0100
0000
1000
,  // measure 38
0000
0001
0000
0100
,  // measure 39
0000
0001
0000
1000
,  // measure 40
0000
0100
0000
1000
,  // measure 41
0000
0001
0000
0000
,  // measure 42
0000
0010
0000
0000
,  // measure 43
0000
0001
0000
0000
,  // measure 44
0000
1000
0000
0000
,  // measure 45
0000
0010
0000
0010
,  // measure 46
0000
0100
0000
0100
,  // measure 47
0000
0001
0000
1000
,  // measure 48
0000
0010
0000
0100
,  // measure 49
0000
2002
0000
0000
,  // measure 50
0000
3003
0000
0000
,  // measure 51
0000
1000
0000
1000
,  // measure 52
0000
0000
0000
0001
,  // measure 53
0000
1000
0000
0010
,  // measure 54
0000
0000
0000
0100
,  // measure 55
0000
0010
0000
1000
,  // measure 56
0000
0000
0000
0100
,  // measure 57
0000
0010
0000
0001
,  // measure 58
0000
0000
0000
1000
,  // measure 59
0000
0001
0000
0001
,  // measure 60
0000
0001
0000
0001
,  // measure 61
0000
1000
0000
1000
,  // measure 62
0000
1000
0000
1000
,  // measure 63
0000
0100
0000
0100
,  // measure 64
0000
0100
0000
0100
,  // measure 65
0000
0010
0000
0010
,  // measure 66
0000
0010
0010
0010
,  // measure 67
0000
0001
0000
0000
,  // measure 68
0000
1000
0000
0000
,  // measure 69
0000
0010
0000
0000
,  // measure 70
0000
1000
0000
0000
,  // measure 71
0000
0100
0000
0000
,  // measure 72
0000
1000
0000
0000
,  // measure 73
0000
0001
0000
0000
,  // measure 74
0000
0100
0000
0000
,  // measure 75
1001
0000
0000
0000
;

//---------------dance-single - ----------------
#NOTES:
     dance-single:
     :
     Challenge:
     15:
     0.668517,0.807946,0.249925,0.310251,0.456759,543.000000,514.000000,29.000000,36.000000,0.000000,0.000000,0.668517,0.807946,0.249925,0.310251,0.456759,543.000000,514.000000,29.000000,36.000000,0.000000,0.000000:
// measure 0
0000
0000
0000
0000
,  // measure 1
0000
0000
0000
0000
,  // measure 2
0000
0000
0000
0000
,  // measure 3
0000
0000
0000
0000
,  // measure 4
0000
0000
0000
0000
,  // measure 5
0000
0000
0000
0000
,  // measure 6
0000
0000
0000
0000
,  // measure 7
0000
0000
0000
0000
,  // measure 8
0000
0000
0000
0000
,  // measure 9
1000
0010
0100
0000
0001
0000
0010
0100
1000
0000
0100
0000
1001
0000
0000
0000
,  // measure 10
0101
0000
0000
0001
0010
0000
0000
0100
1000
0000
0001
0000
1000
0000
0000
0000
,  // measure 11
1010
0000
0000
0001
0100
0000
0000
0001
0020
0000
0000
0000
0230
0000
0000
0000
,  // measure 12
1300
0100
0001
0100
0001
0100
0010
0000
,  // measure 13
0100
0010
0001
1000
0020
0000
1030
0000
,  // measure 14
1100
0110
0011
1001
,  // measure 15
0011
0110
1100
1001
,  // measure 16
0001
0010
0100
1000
0001
0010
0100
1000
,  // measure 17
0200
0300
0200
0300
0200
0300
0200
0300
0000
0000
0000
0000
0000
0000
0000
0000
0000
0000
0000
0000
0000
0000
0000
0000
1000
0000
0000
0000
0010
0000
0000
0000
,  // measure 18
0001
0000
0010
1000
0100
0000
0010
0000
0100
0000
1000
0100
0010
0000
0100
0000
,  // measure 19
1000
0000
0000
0001
1000
0001
1000
0000
0000
0000
0000
0000
0000
0000
0000
0000
0000
0000
0001
0000
0000
0010
0000
0000
,  // measure 20
0100
0000
0010
0001
0100
0000
0010
0000
1000
0000
0010
1000
0100
0000
0010
0000
,  // measure 21
0100
0100
0200
0000
0300
0000
0010
0001
,  // measure 22
1000
0000
0100
1000
0010
0000
0100
0000
0001
0000
1000
0010
0100
0000
0001
0000
,  // measure 23
0010
0000
0000
0100
1000
0100
1000
0000
0000
0000
0000
0000
0000
0000
0000
0000
0000
0000
0100
0000
0000
1000
0000
0000
,  // measure 24
0001
0000
0100
0001
0010
0000
0100
0000
0010
0000
0001
0000
0001
0000
1000
0001
,  // measure 25
0000
1000
0001
0000
0100
0000
0000
0000
0020
0000
0030
0200
0000
0300
0020
0000
,  // measure 26
1030
0000
0100
0010
0001
0000
0010
0000
0100
0000
0010
0001
0100
0000
0010
0000
,  // measure 27
1000
0100
0001
0100
0000
0000
0010
0001
,  // measure 28
0100
0000
0010
0000
1000
0000
0010
0000
0100
0000
0010
1000
0010
0000
0100
0000
,  // measure 29
0001
0000
1000
0001
1000
0000
0110
0000
0001
0000
0100
0001
0100
0000
0010
1000
,  // measure 30
0010
0000
1000
0100
0000
0100
0010
0000
0001
0000
1000
0001
1000
0000
0010
0100
,  // measure 31
0010
0000
0100
0001
0000
1000
0010
0000
1000
0000
0100
0000
0010
0000
0001
0000
,  // measure 32
1000
0000
0100
0000
0010
0000
0100
0000
1000
0000
0010
0000
0100
0000
0001
0000
0020
0030
0020
0030
0020
0030
0020
0030
0100
0000
0000
0000
0000
0000
0100
0000
,  // measure 33
0010
0001
1000
0000
0001
0100
0001
0001
,  // measure 34
1000
0000
0100
0100
0010
0100
1100
0000
,  // measure 35
0011
0000
0001
0100
1000
0100
0001
0010
,  // measure 36
0100
0000
0010
0001
0010
1000
0010
0100
,  // measure 37
0010
0000
0001
0002
1000
2003
0010
3020
,  // measure 38
0130
0010
1000
2000
0001
3002
0010
0023
,  // measure 39
0130
0000
0010
0020
0001
0032
1000
2003
,  // measure 40
3001
0100
0001
0002
0010
0023
1000
1030
,  // measure 41
0020
0000
0130
0000
1000
0000
0000
1000
0100
0000
0000
0100
0010
0000
0001
0000
,  // measure 42
1000
0000
0000
0001
0100
0000
0000
0100
0010
0000
0000
0010
1000
0000
0000
0000
,  // measure 43
0101
0000
0000
0001
1000
0000
0000
1000
0100
0000
0000
0100
0010
0000
0100
0000
,  // measure 44
1000
0000
0000
1000
0010
0000
0000
0100
0001
0000
0000
0010
0100
0000
0000
0000
,  // measure 45
1000
1100
0110
0011
,  // measure 46
0110
1100
0110
0011
,  // measure 47
0110
0000
1000
0100
0010
0001
1000
0100
,  // measure 48
0010
0000
0001
0000
1000
0010
0100
0001
0010
0100
0010
0001
0100
0010
1000
0001
,  // measure 49
0010
0100
0010
0000
4004
0000
0000
0000
0000
0000
0000
0000
0000
0000
0000
0000
,  // measure 50
0000
0000
3003
0000
0001
0100
1000
0000
1100
0000
1000
0010
0001
0000
0010
0000
,  // measure 51
1010
0000
0000
0000
0000
0000
0000
0000
0000
0000
0000
0000
1000
0000
0000
0000
0000
0000
0000
0000
0000
0010
0000
0000
1000
0000
0000
0000
0000
0000
0010
0000
0000
0000
0000
0000
0100
0000
0000
0000
0000
0000
0001
0000
1000
0000
0001
0000
,  // measure 52
1000
0000
0000
0100
0000
0000
0000
0000
0000
0010
0000
0000
0001
0000
0000
0100
0000
0000
0010
0000
0000
1000
0010
1000
,  // measure 53
0010
0000
0000
0000
0000
0000
0000
0000
0000
0000
0000
0000
0100
0000
0000
0000
0000
0000
0000
0000
0000
0001
0000
0000
0010
0000
0000
0000
0000
0000
0100
0000
0000
0000
0000
0000
0010
0000
0000
0000
0000
0000
0001
0000
1000
0000
0001
0000
,  // measure 54
1000
0000
0000
0100
0000
0000
0000
0000
0000
0010
0000
0000
0001
0000
0000
0010
0000
0000
0100
0000
0000
1000
0100
1000
,  // measure 55
0100
0000
0000
0000
0000
0000
0000
0000
0000
0000
0000
0000
1000
0000
0000
0000
0000
0000
0000
0000
0000
0010
0000
0000
0100
0000
0000
0000
0000
0000
0001
0000
0000
0000
0000
0000
0010
0000
0000
0000
0000
0000
0100
0000
0010
0000
0100
0000
,  // measure 56
0010
0000
0000
0001
0000
0000
0000
0000
0000
1000
0000
0000
0001
0000
0000
0100
0000
0000
0010
0000
0000
1000
0100
1000
,  // measure 57
0100
0000
0000
0000
0000
0000
0000
0000
0000
0000
0000
0000
0010
0000
0000
0000
0000
0000
0000
0000
0000
0100
0000
0000
1000
0000
0000
0000
0000
0000
0100
0000
0000
0000
0000
0000
0010
0000
0000
0000
0000
0000
0001
0000
0100
0000
0001
0000
,  // measure 58
0100
0000
0000
0001
0000
0000
0000
0000
0000
1000
0000
0000
0001
0000
0000
0010
0000
0000
0100
0000
0000
1000
0010
1000
,  // measure 59
0010
0000
0000
0000
0000
0000
0000
0000
0000
0000
0000
0000
0102
0000
0000
0000
0000
0000
0000
0000
0000
0013
0000
0000
0001
0000
0000
0000
0000
0000
0010
0000
0000
0000
0000
0000
0100
0000
0000
0000
0000
0000
1000
0000
0100
0000
0010
0000
,  // measure 60
0100
0000
0000
0020
0000
0000
0000
0000
0000
0031
0000
0000
0100
0000
0000
0010
0000
0000
1000
0000
0000
0001
1000
0001
,  // measure 61
0200
0000
0000
0000
0000
0000
0000
0000
0000
0000
0000
0000
0320
0000
0000
0000
0000
0000
0000
0000
0000
1030
0000
0000
0010
0000
0000
0000
0000
0000
0100
0000
0000
0000
0000
0000
0001
0000
0000
0000
0000
0000
0010
0000
0100
0000
0010
0000
,  // measure 62
0001
0000
0000
2000
0000
0000
0000
0000
0000
3001
0000
0000
0100
0000
0000
0001
0000
0000
0010
0000
0000
0100
0010
0100
,  // measure 63
2000
0000
0000
0000
0000
0000
0000
0000
0000
0000
0000
0000
3002
0000
0000
0000
0000
0000
0000
0000
0000
0013
0000
0000
0001
0000
0000
0000
0000
0000
1000
0000
0000
0000
0000
0000
0100
0000
0000
0000
0000
0000
0010
0000
0100
0000
0010
0000
,  // measure 64
0001
0000
0000
2000
0000
0000
0000
0000
0000
3010
0000
0000
1000
0000
0000
0100
0000
0000
0010
0000
0000
0001
0010
0001
,  // measure 65
1000
0000
0000
0000
0000
0000
0000
0000
0000
0000
0000
0000
0020
0000
0000
0000
0000
0000
0000
0000
0000
1030
0000
0000
0010
0000
0000
0000
0000
0000
0100
0000
0000
0000
0000
0000
0001
0000
0000
0000
0000
0000
0010
0000
0100
0000
0010
0000
,  // measure 66
0001
0000
1000
0000
0010
0000
0000
0000
0010
0000
0000
0000
0010
0000
0100
0010
,  // measure 67
0110
0000
1000
0000
0001
1000
0000
1000
,  // measure 68
0001
0000
1000
0000
0001
1000
0000
1000
,  // measure 69
0001
0001
1000
0000
0001
1000
0000
1000
,  // measure 70
0001
0000
0001
0000
0001
1000
0000
1000
,  // measure 71
0001
0001
0100
0000
0010
0100
0000
0100
,  // measure 72
0010
0000
0010
0000
0010
0100
0000
0100
,  // measure 73
0010
0010
0100
0000
0010
0100
0000
0100
,  // measure 74
0010
0000
0000
0000
0001
0100
0001
0100
0010
1000
0010
1000
0100
0010
0001
1000
,  // measure 75
1001
0000
0000
0000
;
