#TITLE:ROTTERDAM SHOGUN;
#SUBTITLE:;
#ARTIST:ABDI from ジャカルタファンクブラザーズ;
#TITLETRANSLIT:;
#SUBTITLETRANSLIT:;
#ARTISTTRANSLIT:;
#GENRE:RDM;
#CREDIT:;
#BANNER:banner.png;
#BACKGROUND:background.png;
#LYRICSPATH:;
#CDTITLE:cdtitle.png;
#MUSIC:ROTTERDAM SHOGUN.ogg;
#OFFSET:-1.000000;
#SAMPLESTART:1.000000;
#SAMPLELENGTH:13.266332;
#SELECTABLE:YES;
#BPMS:0.000000=199.000000
;
#STOPS:
;
#BGCHANGES:;
#KEYSOUNDS:;
#ATTACKS:;

//---------------dance-single - ----------------
#NOTES:
     dance-single:
     :
     Hard:
     15:
     0.716430,0.893519,0.000000,0.000000,0.150097,568.000000,568.000000,0.000000,0.000000,0.000000,0.000000,0.716430,0.893519,0.000000,0.000000,0.150097,568.000000,568.000000,0.000000,0.000000,0.000000,0.000000:
// measure 0
0000
0000
0000
0000
,  // measure 1
0000
0000
0000
0000
,  // measure 2
0000
0000
0000
0000
,  // measure 3
0000
0000
0000
0000
,  // measure 4
1000
0000
1000
0000
1000
0010
1000
0000
,  // measure 5
0001
0000
0100
0010
0000
1000
0100
0000
,  // measure 6
0010
0000
0010
0000
0010
0001
0010
0000
,  // measure 7
0001
0100
0001
0100
0001
0100
0010
0000
,  // measure 8
1000
0000
1000
0000
1000
0001
0010
0001
,  // measure 9
0100
0000
0001
0100
0000
0001
0010
0000
,  // measure 10
0100
0000
0100
0000
0100
1000
0100
0010
,  // measure 11
0001
0100
0000
0100
0010
1000
0000
0000
,  // measure 12
0100
0000
0100
0000
0100
0010
0001
1000
,  // measure 13
0001
0000
0100
0001
0000
0001
0010
0000
,  // measure 14
0100
0000
0100
0000
0100
0010
0001
1000
,  // measure 15
0010
0100
0010
0100
0010
1000
0001
0000
,  // measure 16
1000
0000
1000
0000
1000
0001
0010
0000
,  // measure 17
0100
0000
0010
0100
0000
0010
0001
0000
,  // measure 18
0100
0000
0100
0010
0000
1000
0100
0010
,  // measure 19
0001
0100
1000
0100
0001
0010
0100
1000
,  // measure 20
0001
0000
1000
0010
0000
1000
0000
0001
,  // measure 21
0010
1000
0010
0001
0010
1000
0010
0001
,  // measure 22
0100
0000
0001
0010
0000
0100
0000
1000
,  // measure 23
0100
0001
0100
1000
0100
0010
0100
1000
,  // measure 24
0001
0000
0100
0001
0000
0010
0000
0100
,  // measure 25
0010
0001
0100
0001
0010
0001
0100
0001
,  // measure 26
1000
0000
0001
1000
0000
0010
0000
0100
,  // measure 27
0010
1000
0100
0010
0100
0000
0000
0000
,  // measure 28
1000
0000
0000
0100
0000
0000
1000
0000
,  // measure 29
0000
0010
0100
0000
0001
0000
1000
0000
,  // measure 30
0001
0000
0000
1000
0000
0000
0010
0000
,  // measure 31
0000
0100
0001
0000
0000
0010
0000
0000
,  // measure 32
0100
0000
0000
0010
0001
0000
1000
0000
,  // measure 33
0000
0001
0100
0000
0001
0000
1000
0000
,  // measure 34
0100
0000
0000
0010
0100
0000
1000
0000
,  // measure 35
0000
0000
0100
0000
1000
0000
0000
0000
0001
0000
0000
0001
0000
0000
1000
0000
,  // measure 36
0100
0010
0100
1000
0000
0100
0000
1000
,  // measure 37
0000
0010
0000
0100
0010
1000
0001
0010
,  // measure 38
0000
0100
0010
0001
0000
0010
0000
0001
,  // measure 39
0010
0100
1000
0100
0010
0001
1000
0000
,  // measure 40
0001
0100
0001
0010
0000
0100
0000
0010
,  // measure 41
0000
0001
0000
1000
0001
0100
0001
1000
,  // measure 42
0000
0100
1000
0010
0000
0100
0001
1000
,  // measure 43
0000
0001
0001
0000
1000
0000
0001
0000
,  // measure 44
1000
0010
0100
0001
1000
0010
0100
0001
,  // measure 45
1000
0100
1000
0001
0100
0001
1000
0100
,  // measure 46
1000
0010
0100
0001
1000
0010
0100
0001
,  // measure 47
1000
1000
0001
0001
0100
0100
0010
0000
,  // measure 48
0100
0001
1000
0010
0100
0001
1000
0010
,  // measure 49
0100
0001
1000
0010
0100
0001
1000
0001
,  // measure 50
1000
0100
0010
0001
1000
0100
0010
0001
,  // measure 51
1000
1000
0000
0000
0010
0010
0100
0000
,  // measure 52
0001
0100
0010
0100
0001
1000
0001
1000
,  // measure 53
0100
0010
0100
1000
0001
1000
0001
0100
,  // measure 54
0001
0010
0100
1000
0100
1000
0010
1000
,  // measure 55
0001
0001
0100
0100
0010
0010
1000
0000
,  // measure 56
0100
0100
0100
0010
0100
1000
0010
0100
,  // measure 57
0001
0000
0010
0000
0100
0000
0010
0000
0001
1000
0001
1000
0001
0000
0000
0000
,  // measure 58
1000
0010
0100
0001
0010
0100
0010
0001
,  // measure 59
1000
0010
0100
0001
1000
0100
0010
0001
,  // measure 60
1000
0000
0000
1000
0000
0000
1000
0000
0001
0000
0000
0000
0000
0000
0000
0000
,  // measure 61
1000
0000
0000
1000
0000
0000
1000
0000
0001
0000
0000
0000
0000
0000
0000
0000
,  // measure 62
1000
0000
0000
1000
0000
0000
1000
0000
0001
0000
0000
0000
0000
0000
0000
0000
,  // measure 63
1000
0000
0000
1000
0000
0000
1000
0001
1000
0000
0000
0000
1000
0000
0000
0000
,  // measure 64
0100
0000
0000
0100
0000
0000
0100
0000
0010
0000
0000
0010
0000
0000
0010
0000
,  // measure 65
0001
0000
0000
0001
0000
0000
0001
0000
1000
0000
0000
1000
0000
0000
1000
0000
,  // measure 66
0010
0100
0010
0100
0010
0100
0010
0100
,  // measure 67
0001
0100
0010
1000
0001
0010
0100
0010
0001
0100
0010
1000
0100
0000
0000
0000
,  // measure 68
1000
0100
1000
0010
1000
0001
0010
0100
,  // measure 69
0010
0001
0010
0001
0010
0000
0001
0100
0001
0000
0100
0000
0010
0000
0000
0000
,  // measure 70
1000
0001
1000
0001
0100
0010
0100
0010
,  // measure 71
1000
0000
0100
0000
0001
0000
0100
0000
1000
0100
1000
0100
0010
0000
0000
0000
,  // measure 72
0001
0100
0001
0010
0001
0010
0001
1000
,  // measure 73
0100
0010
0100
0010
0100
0000
0010
0001
0010
0000
0001
0000
1000
0000
0000
0000
,  // measure 74
0000
0001
0100
1000
0100
0010
1000
0001
,  // measure 75
1000
0000
1000
0000
1000
0001
0100
0000
,  // measure 76
0001
0010
0100
0010
0001
0100
0010
1000
,  // measure 77
0001
1000
0001
1000
0001
0000
1000
0001
1000
0000
0001
0000
0100
0000
0000
0000
,  // measure 78
0010
1000
0100
1000
0001
0010
0100
0010
,  // measure 79
0001
0000
0100
0000
0001
0000
1000
0000
0010
0100
0010
0100
0010
0000
0000
0000
,  // measure 80
1000
0010
1000
0001
0010
0100
0010
0001
,  // measure 81
1000
0001
1000
0001
1000
0000
0001
0100
0001
0000
0100
0000
0010
0000
0000
0000
,  // measure 82
0000
1000
0100
0001
0100
0010
0001
0100
,  // measure 83
0001
0100
1000
0000
0100
0010
0000
0000
,  // measure 84
1000
0000
1000
0000
1000
0010
1000
0000
,  // measure 85
0001
0000
0100
0010
0000
1000
0100
0000
,  // measure 86
0010
0000
0010
0000
0010
0001
0010
0000
,  // measure 87
0001
0100
0000
0100
0001
0100
0010
0000
,  // measure 88
1000
0000
1000
0000
1000
0001
0010
0001
,  // measure 89
0100
0000
0001
0100
0000
0001
0010
0000
,  // measure 90
0100
0000
0100
0000
0100
1000
0100
0010
,  // measure 91
0001
0001
1000
1000
0010
0010
0100
0000
,  // measure 92
0010
0000
0000
0000
;

//---------------dance-single - ----------------
#NOTES:
     dance-single:
     :
     Medium:
     12:
     0.503267,0.527989,0.000000,0.000000,0.000000,399.000000,399.000000,0.000000,0.000000,0.000000,0.000000,0.503267,0.527989,0.000000,0.000000,0.000000,399.000000,399.000000,0.000000,0.000000,0.000000,0.000000:
0000
0000
0000
0000
,
0000
0000
0000
0000
,
0000
0000
0000
0000
,
0000
0000
0000
0000
,
1000
0000
0001
0000
0100
0010
0100
0000
,
0001
0000
0100
0010
0000
1000
0100
0000
,
0010
0000
0100
0000
1000
0001
1000
0000
,
0010
0010
0010
0100
,
0001
0000
1000
0000
0010
1000
0010
0000
,
1000
0000
0100
1000
0000
0010
0100
0000
,
0010
0000
1000
0000
0001
1000
0001
0000
,
0100
0100
0000
0010
0100
0100
0000
0000
,
0010
0000
1000
0000
0001
0010
0001
0000
,
0010
0000
0100
1000
0000
0100
0010
0000
,
0100
0000
1000
0000
0010
1000
0010
0000
,
0100
0100
0100
0010
,
1000
0000
0001
0000
0010
0100
0010
0000
,
0100
0000
1000
0010
0000
0100
0001
0000
,
1000
0000
0001
0000
0010
0100
1000
0000
,
0010
0100
0001
0000
1000
0001
0010
0000
,
0100
0000
1000
0010
0000
0010
0000
0000
,
0100
0001
0100
0001
1000
0010
1000
0010
,
0100
0000
0010
1000
0000
1000
0000
0000
,
0001
0010
0001
0010
0100
1000
0100
1000
,
0001
0000
1000
0001
0000
0001
0000
0000
,
0100
0010
1000
0001
0100
0010
1000
0001
,
0010
0000
0100
1000
0000
1000
0000
0000
,
0100
0010
0001
0010
0100
0000
0000
0000
,
1000
0000
0000
0010
0000
0000
0100
0000
,
0000
0001
0001
0000
1000
0000
0001
0000
,
1000
0000
0000
0010
0000
0000
0100
0000
,
0000
0010
0010
0000
0000
1000
0000
0000
,
0001
0000
0000
1000
0000
0000
0100
0000
,
0000
1000
1000
0000
0001
0000
1000
0000
,
0010
0000
0000
1000
1000
0000
0100
0000
,
0000
0010
0010
0000
0100
0000
0010
0000
,
0000
0001
1000
0010
0000
1000
0000
0010
,
0000
0100
0000
0100
0010
1000
0001
0010
,
0000
0100
0010
0001
0000
0010
0000
0100
,
0010
0001
0000
1000
0010
0000
0100
0000
,
0000
0001
0010
0100
0000
0010
0000
0001
,
0000
1000
0000
0010
1000
0000
0100
0000
,
0010
0100
1000
0001
0000
1000
0000
0001
,
0000
0100
0010
0000
1000
0000
0001
0000
,
0010
0010
0010
0010
,
0010
0000
0010
0000
0010
0000
0010
0010
,
0100
0100
0100
0100
,
0100
1000
0100
1000
0001
0010
0001
0000
,
1000
1000
1000
1000
,
1000
0000
1000
0000
1000
0000
1000
1000
,
0001
0001
0001
0001
,
0001
1000
0000
0000
0010
0100
0000
0000
,
0010
0010
1000
0010
,
0100
0000
0100
0000
0001
0000
0010
0010
,
0100
0010
0001
1000
,
0001
0100
0001
0100
0010
1000
0010
0000
,
0010
0010
0010
0000
0100
0000
0010
0000
,
1000
0000
0001
0000
0010
0010
0010
0000
,
0100
0010
0000
0010
0001
0000
1000
0000
,
0001
1000
0010
0100
,
0001
0000
0000
0000
,
0001
0000
0000
0000
,
0001
0000
0000
0000
,
0001
0000
0001
0000
,
0001
0001
0001
0001
,
0001
0001
0001
0001
,
0001
0001
0001
0001
,
0100
0100
0100
0100
0100
0100
0100
0000
,
0001
0100
0010
1000
,
0010
0000
0100
0000
0010
1000
0001
0000
,
0010
0100
0010
0001
,
0100
0000
0010
0000
1000
1000
1000
0000
,
0001
0010
0001
1000
,
0100
0000
0010
0000
0100
0100
0100
0000
,
0010
0000
0000
0000
,
0000
0000
0000
0000
,
0100
1000
0010
0100
,
0001
0000
0010
0000
0100
0100
0100
0000
,
0010
0001
0100
1000
,
0100
0000
0010
0000
1000
1000
1000
0000
,
0010
0100
0001
0010
,
0100
0000
0010
0000
0001
0001
0001
0000
,
1000
0000
0000
0001
1000
0000
1000
0001
,
0000
0100
0100
0000
0100
0100
0000
0000
,
0001
0000
1000
0000
0010
1000
0010
0000
,
1000
0000
0010
0100
0000
0100
0001
0000
,
0010
0000
0100
0000
0010
0001
0010
0000
,
0100
0100
0000
0010
0001
0001
0000
0000
,
1000
0000
0001
0000
0010
0001
0010
0000
,
0100
0000
0010
0001
0000
0100
0010
0000
,
1000
0000
0001
0000
0100
0010
0100
0000
,
0010
1000
0010
0100
0001
0010
0100
0000
,
1000
0000
0000
0000
;

//---------------dance-single - ----------------
#NOTES:
     dance-single:
     :
     Easy:
     7:
     0.324159,0.365531,0.000000,0.008829,0.000000,257.000000,257.000000,0.000000,1.000000,0.000000,0.000000,0.324159,0.365531,0.000000,0.008829,0.000000,257.000000,257.000000,0.000000,1.000000,0.000000,0.000000:
0000
0000
0000
0000
,
0000
0000
0000
0000
,
0000
0000
0000
0000
,
0000
0000
0000
0000
,
1000
0001
1000
0001
,
0100
0010
0100
0010
,
1000
0001
1000
0001
,
0100
0100
0100
0100
,
0001
1000
0001
1000
,
0010
1000
0010
1000
,
0010
0100
0001
0001
,
1000
0000
0010
0000
,
1000
0010
1000
0010
,
0100
0001
0010
0100
,
0010
0001
1000
0001
,
0100
0100
0100
0000
,
0010
1000
0010
0100
,
0001
0010
0100
0010
,
0001
0100
0010
1000
,
0001
1000
0010
1000
,
0001
0000
0000
0000
,
1000
0100
0010
0001
,
1000
0000
0000
0000
,
0001
0010
0100
1000
,
0001
0000
0000
0000
,
1000
0100
0010
0001
,
1000
0000
0000
0000
,
0001
0010
0100
0000
,
0010
0000
0000
0000
,
0000
0000
0000
0000
,
0001
0000
0000
0000
,
1000
0000
0000
0000
,
0010
0000
0100
0000
,
0000
0010
0000
0000
0000
0000
1000
0000
,
1000
0000
0001
0001
,
0000
1000
1000
0000
,
0001
0000
0100
0000
,
0010
0000
1000
0010
,
0100
0000
0010
0000
,
1000
0000
0001
0010
,
0100
0000
0010
0000
,
0001
0000
1000
0001
,
0100
0000
0001
0000
,
1000
0000
0001
0000
,
1000
1000
1000
1000
,
1000
1000
1000
1000
,
0001
0001
0001
0001
,
0001
0001
0001
0001
,
0100
0100
0100
0100
,
0100
0100
0100
0100
,
0010
0010
0010
0010
,
0010
0000
0010
0000
,
1000
1000
0001
1000
,
0001
0001
1000
0001
,
0100
0100
0010
0100
,
0010
0010
0010
0010
,
0100
0100
0001
1000
,
0100
0100
1000
1000
,
0010
0010
0100
0100
,
0010
1000
0001
0010
,
0100
0000
0000
0000
,
0100
0000
0000
0000
,
0100
0000
0000
0000
,
0100
0000
0100
0000
,
0100
0000
0100
0000
,
0100
0000
0100
0000
,
0100
0010
0100
0010
,
0002
0000
0000
0003
,
1000
0000
0001
0000
,
0100
0000
0001
1000
,
0100
0000
1000
0000
,
0010
1000
0010
0010
,
0100
0000
0001
0000
,
0010
0100
1000
0001
,
1000
0000
0000
0000
,
0000
0000
0000
0000
,
0010
0100
0001
0010
,
0100
0010
0001
1000
,
0001
1000
0010
1000
,
0100
0010
0100
1000
,
0010
0100
0001
0010
,
0100
0010
0001
1000
,
0010
0000
0000
0000
,
0000
0000
0000
0000
,
0100
0100
0001
0001
,
1000
0000
0001
0000
,
1000
1000
0001
0001
,
1000
0000
1000
0000
,
0001
0001
1000
0001
,
1000
0000
1000
0000
,
0010
0010
0100
0010
,
1000
0010
0100
0001
,
1000
0000
0000
0000
;

//---------------dance-single - ----------------
#NOTES:
     dance-single:
     :
     Beginner:
     5:
     0.209379,0.487374,0.158926,0.000000,0.000000,166.000000,148.000000,18.000000,0.000000,0.000000,0.000000,0.209379,0.487374,0.158926,0.000000,0.000000,166.000000,148.000000,18.000000,0.000000,0.000000,0.000000:
0000
0000
0000
0000
,
0000
0000
0000
0000
,
0000
0000
0000
0000
,
0000
0000
0000
0000
,
0010
0000
0010
0000
,
0010
0000
0000
0000
,
0100
0000
0100
0000
,
0001
0001
0001
0000
,
1000
0000
1000
0000
,
1000
0000
0000
0000
,
0010
0000
0010
0000
,
0110
0000
0110
0000
,
1000
1000
1000
0000
,
0001
0000
0000
0000
,
0010
0010
0010
0000
,
0100
0000
0100
0000
,
0010
0010
0010
0000
,
0001
0000
0001
0000
,
1000
1000
1000
0000
,
0001
0000
1000
0000
,
0010
0000
0000
0000
,
0100
0000
0000
0000
,
0001
0000
0000
0000
,
1000
0000
0000
0000
,
0100
0000
0000
0000
,
1000
0000
0000
0000
,
0010
0000
0000
0000
,
0100
0000
0000
0000
,
0001
0000
0000
0000
,
0000
0000
0000
0000
,
1000
0000
0000
0000
,
0001
0000
0000
0000
,
0100
0000
0010
0000
,
0100
0000
0000
0010
,
0010
0000
0000
0000
,
1000
0000
0000
0000
,
0001
0000
0000
0000
,
1000
0000
0000
0000
,
0010
0000
0000
0000
,
1000
0000
0000
0000
,
0100
0000
1000
0000
,
0001
0000
0000
0100
,
0100
0000
0000
0000
,
0010
0000
0000
0000
,
1000
0000
1000
0000
,
1000
0000
1000
0000
,
1000
0000
1000
0000
,
1000
1000
1000
0000
,
0001
0000
0001
0000
,
0001
0000
0001
0000
,
0001
0000
0001
0000
,
1001
0000
0110
0000
,
0010
0010
0010
0000
,
0010
0000
0010
0000
,
0100
0100
0100
0000
,
0100
0000
0100
0000
,
0001
0001
0001
0000
,
0001
0000
0001
0000
,
1000
0000
0001
0000
,
0100
0000
0010
0000
,
1001
0000
0000
0000
,
1001
0000
0000
0000
,
1001
0000
0000
0000
,
1001
0000
1001
0000
,
1001
0000
1001
0000
,
1001
0000
1001
0000
,
1001
1001
1001
1001
,
0000
0000
0000
0000
,
0010
0000
0000
0000
,
1000
0000
0000
0001
,
0010
0000
0000
0000
,
0100
0000
0000
0010
,
0001
0000
0000
0000
,
1000
0000
0000
0010
,
1000
0000
0000
0000
,
0001
0000
0001
0000
,
1000
0000
0000
0000
,
0010
0000
0000
0100
,
0001
0000
0000
0000
,
0010
0000
0000
0100
,
0010
0000
0000
0000
,
0001
0000
0000
1000
,
0010
0000
0000
0000
,
0000
0000
0000
0000
,
1000
0000
1000
0000
,
1000
0000
0000
0000
,
0001
0000
0001
0000
,
0100
0100
0100
0000
,
0010
0000
0010
0000
,
0010
0000
0000
0000
,
1000
0000
0001
0000
,
1000
0000
0001
0000
,
0110
0000
0000
0000
;
