#TITLE:REDRAVE;
#SUBTITLE:;
#ARTIST:Tatsh & NAOKI feat. Kent Alexander;
#TITLETRANSLIT:;
#SUBTITLETRANSLIT:;
#ARTISTTRANSLIT:;
#GENRE:SPEED RAVE;
#CREDIT:;
#BANNER:banner.png;
#BACKGROUND:background.png;
#LYRICSPATH:;
#CDTITLE:cdtitle.png;
#MUSIC:REDRAVE.ogg;
#OFFSET:-0.200000;
#SAMPLESTART:83.109818;
#SAMPLELENGTH:17.454544;
#SELECTABLE:YES;
#BPMS:0.000000=165.000000
;
#STOPS:115.500000=0.364000,
225.000000=0.364000
;
#BGCHANGES:;
#KEYSOUNDS:;
#ATTACKS:;

//---------------dance-single - ----------------
#NOTES:
     dance-single:
     :
     Challenge:
     16:
     0.730455,1.010767,0.693932,0.182614,0.525927,700.000000,605.000000,95.000000,25.000000,0.000000,0.000000,0.730455,1.010767,0.693932,0.182614,0.525927,700.000000,605.000000,95.000000,25.000000,0.000000,0.000000:
0000
0000
0000
0000
,
0000
0000
0000
0000
,
0000
0000
0000
0000
,
0000
0000
0000
0000
,
0000
0000
0000
0000
,
1000
0000
0001
0000
0010
0000
0000
0100
0000
0000
2000
0000
0000
0000
3010
0000
,
0100
0000
0001
0000
0010
0000
0000
0100
0000
0000
0020
0000
0000
0000
0031
0000
,
1000
0001
1000
0000
0001
0000
0100
0010
0000
1000
0010
0000
0100
0000
0001
0000
,
1000
0100
1000
0000
0100
0000
1000
0010
0000
0100
0001
0010
0100
0000
0010
0000
,
0001
0000
1000
0000
0001
0000
0000
0001
0000
0000
0200
0000
0000
0000
0310
0000
,
1000
0000
0100
0000
1000
0000
0000
0001
0000
0000
0020
0000
0000
0000
0130
0000
,
1000
0100
1000
0000
0001
0100
0001
0000
0100
0010
0100
0000
0010
1000
0010
0000
,
0001
0100
0010
1000
0100
0010
0100
1000
0020
0000
0000
0000
0000
0000
0000
0000
,
0130
0001
0100
0001
0100
0000
0000
0000
0001
0000
0000
1001
0000
0000
0000
0000
,
1000
0100
1000
0100
1000
0000
0000
0000
0010
0000
0000
1001
0000
0000
0000
0000
,
1000
0010
1000
0010
1000
0000
0000
0000
0001
0000
0000
1001
0000
0000
0000
0000
,
0200
0000
0000
0310
0100
0001
1000
0010
,
1000
0001
1000
0001
1000
0000
0000
0000
0010
0000
0000
0101
0000
0000
0000
0000
,
0001
0100
0001
0100
0001
0000
0000
0000
0100
0000
0000
1010
0000
0000
0000
0000
,
0001
0010
0001
0010
0001
0000
0000
0000
1000
0000
0000
1010
0000
0000
0000
0000
,
0200
0000
0000
0310
1000
0100
0001
0100
,
0010
0001
0010
0001
0010
0001
0010
0001
,
0010
0001
0010
0001
0011
0000
1001
0000
,
1000
0000
0000
0100
0000
0000
0001
0000
0000
0000
0100
0000
0010
0001
0010
0000
,
0001
0000
0000
1000
0000
0000
0010
0000
0000
0010
0100
0010
2000
0000
0000
0000
,
3001
1000
0001
1000
0001
1000
0001
1000
,
0001
1000
0001
1000
1001
0000
0110
0000
,
1010
0101
0011
0110
,
2002
0000
0000
0000
0000
0000
0000
0000
0000
0000
0000
0000
0000
0000
0000
3003
,
0110
0000
1000
0000
0010
0000
0100
0001
0000
0000
0000
0000
0010
0000
0100
0000
,
1000
0000
0001
1000
0000
0010
0000
1000
0100
0000
0000
0000
0110
0000
0010
0000
,
0000
0000
0010
0001
0010
0000
0001
0000
0100
0000
0001
0000
1000
0000
0001
0100
,
0000
0010
0000
1000
0100
0000
0010
0100
0000
0000
1100
0000
1001
0000
0000
0000
,
0000
0000
1000
0000
0001
0000
0010
0100
0000
0001
1000
0001
0100
0000
0001
0010
,
0000
0001
0000
1000
0100
0000
0000
0010
0000
0000
0000
0000
0110
0000
0100
0000
,
1000
0000
0001
0100
0010
0000
0100
0001
,
1001
0001
0000
0010
0100
0000
1000
0000
1001
0000
0000
0000
0110
0000
0100
0000
,
0001
0000
0010
0100
0000
0010
0000
0001
1000
0000
0010
0000
1000
0000
0100
0000
,
1000
0010
1000
0000
0010
0000
0000
0100
0000
0000
0000
0000
1010
0000
1000
0000
,
0001
1000
0001
0000
0010
0100
0010
0000
0100
0000
0010
0000
0001
0000
1000
0000
,
0010
0000
0000
0000
0110
0000
0100
0010
0000
1000
0001
0000
1001
0000
0000
0011
,
0000
0000
0010
0100
1000
0000
0001
0000
1000
0000
0001
0000
1001
0000
0000
0011
,
0000
0000
0010
0100
1000
0000
0010
0000
0110
0000
0001
0000
1001
0000
0000
0000
,
0100
0010
1001
0000
0100
0010
1001
0000
,
0110
1001
0110
1001
,
1000
0000
0010
0000
0001
0010
1000
0000
,
0001
1010
0101
0011
,
0010
0000
0001
0000
1000
0001
0010
0000
,
0100
0110
0000
0110
1100
1100
1001
0000
,
1000
0000
0001
0000
0010
0001
0100
0000
,
0010
1010
0101
0011
,
0010
0000
0001
0000
1000
0010
0100
0000
,
0010
0110
0000
0110
0101
0101
0011
0000
,
0010
0000
0100
0000
0010
0001
1000
0000
,
0010
1010
0011
1001
,
1000
0000
0010
0000
0100
0010
0110
0000
,
0000
0000
0000
0000
0000
0000
0000
0000
1001
0000
1000
0000
0100
0000
0000
0010
,
0000
0000
0200
0000
0000
0000
1300
0000
0001
0000
0010
0000
1000
0000
0000
0010
,
0000
0000
0200
0000
0000
0000
1300
0000
0001
0100
0001
0000
0100
0000
0010
1000
,
0000
0001
0010
0000
0100
0010
0100
0000
0010
0001
0010
0000
0001
0000
1000
0010
,
0000
0100
0001
0010
0100
0000
0010
0000
0001
0000
1000
0000
0100
0000
0000
0010
,
0000
0000
0200
0000
0000
0000
1300
0000
0010
0000
0001
0000
0010
0000
0000
0100
,
0000
0000
0020
0000
0000
0000
1030
0000
1000
0001
0100
0001
1000
0100
1000
0001
,
0100
0001
1000
0001
1000
0100
1000
0000
0001
1000
0010
1000
0001
0010
0001
1000
,
0010
1000
0001
1000
0001
0000
1000
0000
0010
0000
0001
0000
0010
0000
0000
0100
,
0000
0000
0002
0000
0000
0000
0013
0000
1000
0000
0010
0000
0100
0000
0000
1000
,
0000
0000
0002
0000
0000
0000
1003
0000
0100
0010
0100
0000
0010
0000
0100
0000
,
1000
0000
0010
0100
0000
0001
1000
0000
0100
0010
0000
0100
1000
0100
0010
0001
,
1000
0000
0001
0100
0000
0010
1000
0000
0001
0000
0010
0000
1000
0000
0000
0010
,
0000
0000
0200
0000
0000
0000
0310
0000
0001
0000
1000
0000
0100
0000
0000
1000
,
0000
0000
0002
0000
0000
0000
0103
0000
0001
0100
0001
0000
0100
0010
0100
0000
,
0010
1000
0010
0000
1000
0001
1000
0000
0001
1000
0010
1000
0001
0010
0100
0010
,
0002
0003
1001
0101
,
0011
0000
0100
0110
0000
1100
0000
0110
,
0000
0000
0010
0001
2000
0000
0000
0000
3010
0000
0000
0010
0000
0000
0010
0000
,
0100
0000
0000
0100
0000
0000
0100
0000
0001
0000
0000
0001
0000
0000
0001
1000
,
0001
1000
1001
0000
1010
0000
0011
0000
,
0110
0000
0100
1100
0000
0101
0000
1001
,
0000
0000
0001
0100
0020
0000
0000
0000
1030
0000
0001
0000
0000
0000
0010
0000
,
0100
1000
0000
0100
0010
0001
0000
0010
,
0100
1000
0000
0000
1100
0000
0101
0000
,
0110
0000
0100
0101
0000
0011
0000
0110
,
0000
0000
0100
1000
0020
0000
0000
0000
0130
0000
0000
0101
0000
0000
0000
0000
,
0001
0000
0010
0100
0000
0000
0000
0000
0010
0000
0100
0000
0000
0000
0000
0000
,
1001
0110
1001
0000
1010
0000
0101
0000
,
0011
0000
0010
0011
0000
1010
0000
0011
,
0000
0000
0010
0100
2000
0000
0000
0000
3001
0000
0100
0000
0001
0000
1000
0000
,
0100
0000
1000
0000
0010
0000
0100
0000
0001
0000
0000
0100
0000
0000
0010
0000
,
1000
0001
1000
0001
1000
0001
1000
0001
1000
0000
0100
0000
0101
0000
0000
0110
,
0000
0000
0011
0000
0000
0000
0010
0000
0001
0000
0010
0000
1010
0000
0000
0110
,
0000
0000
0011
0000
0000
0000
0110
0000
0010
0001
1000
0010
0100
0010
0100
0010
,
1000
0001
0010
0100
0010
0001
0100
0001
2002
0000
0000
0000
0000
0000
0000
0000
,
0000
3003
0000
0000
;

//---------------dance-single - ----------------
#NOTES:
     dance-single:
     :
     Medium:
     10:
     0.438273,0.539076,0.321400,0.226441,0.051132,420.000000,376.000000,44.000000,31.000000,0.000000,0.000000,0.438273,0.539076,0.321400,0.226441,0.051132,420.000000,376.000000,44.000000,31.000000,0.000000,0.000000:
0000
0000
0000
0000
,
0000
0000
0000
0000
,
0000
0000
0000
0000
,
0000
0000
0000
0000
,
0000
0000
0000
0000
,
0001
0000
1000
0000
0100
0000
0000
1000
0000
0000
0020
0000
0000
0000
0130
0000
,
0001
0000
0010
0000
0001
0000
0000
1000
0000
0000
0002
0000
0000
0000
1003
0000
,
0100
0000
1000
0000
0010
0100
0001
0000
,
0010
0000
1000
0000
0010
0100
1000
0000
,
0100
0000
1000
0000
0001
0000
0000
0100
0000
0000
0002
0000
0000
0000
0013
0000
,
0100
0000
0010
0000
0001
0000
0000
1000
0000
0000
0002
0000
0000
0000
0103
0000
,
0010
1000
0100
0010
,
0001
0010
0100
0010
0002
0000
0000
0000
,
0103
0010
1000
0000
0001
0000
1000
0000
,
0100
1000
0010
0000
0100
0000
0001
0000
,
0010
0100
1000
0000
0100
0000
1000
0000
,
0020
0000
0000
0130
0002
0000
2003
0000
,
3100
0100
1000
0000
0010
0000
0100
0000
,
0001
0001
0010
0000
0100
0000
0010
0000
,
0100
0100
1000
0000
0010
0000
0100
0000
,
0002
0000
0000
1003
0020
0000
0230
0000
,
0301
1000
0010
1000
,
0001
0010
0200
2300
,
3010
0000
1000
0000
,
0001
0000
0100
0000
,
0001
1000
0010
1000
,
0010
0100
0002
0023
,
0130
0010
0001
1000
,
2002
0000
0000
3003
,
0001
0000
1000
0010
1000
0000
0010
0000
,
0100
0000
0001
0010
0100
0000
0010
0000
,
0001
0000
1000
0100
1000
0000
0100
0000
,
0010
0000
0100
1000
0010
0100
0001
0000
,
1000
0000
0001
0100
0001
0000
0100
0000
,
0010
0000
1000
0010
0100
0000
0010
0000
,
1000
0000
0001
0010
0001
0000
0010
0000
,
0110
0000
0100
0000
1100
0000
0100
1000
,
0010
0000
0100
0000
0001
0000
0010
0001
,
0100
0000
0010
0000
1000
0000
0001
1000
,
0100
0000
1000
0000
0010
0000
0100
0010
,
1000
0000
0001
0010
0100
0000
0011
0000
,
0010
0000
0001
0100
0010
0000
1010
0000
,
1000
0000
0010
1000
0010
0000
0100
0000
,
0000
0010
0100
0000
0000
0010
0100
0000
,
0100
0100
0100
1001
,
0000
0000
0000
0000
,
0000
1010
0101
1010
,
0000
0000
0000
0000
,
0000
1001
0000
1000
0100
0010
0011
0000
,
0000
0000
0000
0000
,
0000
0011
1100
0011
,
0000
0000
0000
0000
,
0000
1001
0000
0001
0100
0010
1010
0000
,
0000
0000
0000
0000
,
0000
0110
1001
0110
,
0000
0100
0000
0020
,
0000
0000
0000
0000
0030
0000
0000
0000
1000
0000
0001
0000
1000
0000
0000
0100
,
0000
0000
2000
0000
0000
0000
3010
0000
1000
0000
0010
0000
0100
0000
0000
0010
,
0000
2000
0000
3001
1000
0000
0100
0000
,
1000
0010
1000
0000
0010
0000
0100
0000
,
0001
0000
0010
0000
0100
0000
0000
0000
0010
0000
0001
0000
1000
0000
0000
0001
,
0000
0000
2000
0000
0000
0000
3100
0000
1000
0000
0010
0000
0100
0000
0000
0010
,
0000
2000
0000
3010
0100
0000
0010
0000
,
1000
0001
0010
0100
,
0010
0000
0000
0000
0001
0000
0000
0000
1000
0000
0001
0000
0100
0000
0000
0001
,
0000
0000
0020
0000
0000
0000
0130
0000
0010
0000
0001
0000
0010
0000
0000
0100
,
0000
0020
0000
0130
1000
0000
0100
0000
,
1000
0010
0100
0001
,
1000
0000
0000
0000
0100
0000
0000
0000
1000
0000
0010
0000
0100
0000
0000
0010
,
0000
0000
2000
0000
0000
0000
3010
0000
1000
0000
0001
0000
0010
0000
0000
0100
,
0000
0020
0000
0031
0010
0000
0100
0000
,
1000
0000
0100
0000
1000
0100
0010
0001
,
2000
3000
1001
1010
,
0110
0000
0000
1010
0000
0101
0000
1010
,
0000
0010
0100
0000
0001
0000
1000
0000
,
0001
0100
0001
0000
0100
0000
0010
0000
,
1000
0010
1000
0000
1010
0000
0110
0000
,
1001
0000
0000
1010
0000
0101
0000
1010
,
0000
0100
0001
0000
1000
1000
0000
0000
,
0001
0001
0000
0000
0100
0100
0000
0000
,
0100
0100
0000
0000
1001
0000
0110
0000
,
1001
0000
0000
0011
0000
0110
0000
1001
,
0000
0010
1000
0000
0010
0000
1000
0000
,
0010
0100
1000
0000
0100
0000
0001
0000
,
0100
0100
0100
0000
1001
0000
0011
0000
,
1100
0000
0000
0110
0000
1001
0000
0011
,
0000
0010
0100
0000
0010
0000
0001
0000
,
1000
0100
2000
0000
,
0002
0000
0000
0000
3003
0000
0000
0000
0001
0000
1000
0000
0010
0000
0000
1000
,
0000
0000
0001
0000
0000
0000
0010
0000
0100
0000
1000
0000
0100
0000
0000
1000
,
0000
0010
0000
0100
0010
1000
0010
0100
,
0001
0010
0100
1000
2002
0000
0000
0000
,
0000
3003
0000
0000
;

//---------------dance-single - ----------------
#NOTES:
     dance-single:
     :
     Easy:
     7:
     0.327661,0.505383,0.387141,0.116873,0.000000,314.000000,261.000000,53.000000,16.000000,0.000000,0.000000,0.327661,0.505383,0.387141,0.116873,0.000000,314.000000,261.000000,53.000000,16.000000,0.000000,0.000000:
0000
0000
0000
0000
,
0000
0000
0000
0000
,
0000
0000
0000
0000
,
0000
0000
0000
0000
,
0000
0000
0000
0000
,
1000
0100
2000
3000
,
0100
0010
0200
0300
,
0010
0001
0100
0001
,
1000
0100
1000
0010
,
0100
0001
0020
0030
,
0100
0010
0002
0003
,
1000
0100
0010
0001
,
0010
0100
0020
0000
,
0130
0010
0001
0000
,
1000
0100
1000
0000
,
0100
1000
0010
0000
,
0200
0000
0002
0303
,
0001
0010
0100
0000
,
0010
0001
1000
0000
,
0100
1000
0010
0000
,
0200
0000
0002
0303
,
1001
0000
0000
0000
,
0000
0000
0000
0000
,
1000
0001
0100
0010
,
0000
0000
0000
0000
,
0010
0100
0010
0010
,
1000
0001
0010
0100
,
0011
0000
1010
0000
,
2002
0000
0000
3003
,
1001
0001
1000
0010
,
1000
0100
0010
1100
,
1000
0010
0100
0010
,
1000
0001
0011
0110
,
0001
1000
0010
1000
,
0001
0100
0001
0011
,
0010
0001
0100
0010
,
1010
0010
0110
0101
,
0001
1000
0100
1000
,
0010
0100
0001
1001
,
1000
0001
0010
0100
,
1000
0110
0010
0011
,
0001
0100
0001
1000
,
0100
1000
0010
0110
,
0000
0110
0000
0110
,
0110
0110
0110
1001
,
0000
0000
0000
0000
,
0000
1001
0110
1001
,
0000
0000
0000
0000
,
0000
0110
0000
0000
1001
0000
0110
0000
,
0000
0000
0000
0000
,
0000
0110
1001
0110
,
0000
0000
0000
0000
,
0000
1001
0000
0000
0110
0000
1001
0000
,
0000
0000
0000
0000
,
0000
1001
0110
1001
,
0000
0010
0000
0100
,
0000
0000
1000
0010
,
0100
0010
1000
0001
,
0010
0100
0010
0000
,
0001
0000
1000
0000
,
0100
0000
1000
0010
,
0100
0001
0010
0100
,
0010
0001
1000
0000
,
0001
0000
0100
0000
,
0010
0000
0000
0000
0000
0110
0000
0110
,
0000
0110
0000
0110
0000
1001
0000
1001
,
0000
0001
1000
0000
0100
0000
1000
0000
,
0010
0100
0010
1000
,
0001
0000
0010
0000
0000
0110
0000
0110
,
0000
0110
0000
0110
0000
1001
0000
1001
,
0000
0001
1000
0000
0100
0000
1000
0000
,
0010
0100
0001
0010
,
0200
0000
0310
0001
,
1000
0000
0000
0001
0000
1000
0000
0010
,
0000
1000
0100
0000
,
1000
0000
0010
0000
,
0100
0000
0001
0100
,
0001
0000
0000
0100
0000
0010
0000
1000
,
0000
0001
1100
0000
,
0101
0000
1010
0000
,
0011
0000
0001
1000
,
0010
0000
0000
1000
0000
0100
0000
0010
,
0000
0100
0010
0000
,
0001
1000
0001
0000
0100
0000
0000
0000
,
0010
0100
0010
0000
0100
0000
0001
0000
,
1000
0000
0000
0100
0000
1000
0000
0010
,
0000
0100
0001
1000
,
0010
0100
0002
0000
,
2000
0000
3003
0000
0001
0100
0001
0000
,
0100
0000
0010
0000
1000
0010
1000
0000
,
0010
0100
0002
0000
,
0000
0000
0020
0000
,
0000
0033
0000
0000
;

//---------------dance-single - ----------------
#NOTES:
     dance-single:
     :
     Beginner:
     3:
     0.129395,0.267346,0.080350,0.014609,0.000000,124.000000,113.000000,11.000000,2.000000,0.000000,0.000000,0.129395,0.267346,0.080350,0.014609,0.000000,124.000000,113.000000,11.000000,2.000000,0.000000,0.000000:
// measure 0
0000
0000
0000
0000
,  // measure 1
0000
0000
0000
0000
,  // measure 2
0000
0000
0000
0000
,  // measure 3
0000
0000
0000
0000
,  // measure 4
0000
0000
0000
0000
,  // measure 5
0010
0000
0000
0000
,  // measure 6
0010
0000
0000
0000
,  // measure 7
1000
0000
0000
0000
,  // measure 8
0100
0000
0000
0000
,  // measure 9
0010
0000
0000
0000
,  // measure 10
0010
0000
0000
0000
,  // measure 11
0001
0000
1000
0000
,  // measure 12
0010
0000
0100
0000
,  // measure 13
1001
0000
0000
0000
,  // measure 14
0001
0000
0000
0000
,  // measure 15
1000
0000
0000
0000
,  // measure 16
0020
0000
0000
0030
,  // measure 17
0100
0000
0000
0000
,  // measure 18
0001
0000
0000
0000
,  // measure 19
0010
0000
0000
0000
,  // measure 20
0200
0000
0000
0300
,  // measure 21
0010
0000
0000
0000
,  // measure 22
0000
0000
0000
0000
,  // measure 23
1001
0000
0000
0000
,  // measure 24
0000
0000
0000
0000
,  // measure 25
0110
0000
0000
0000
,  // measure 26
0000
0000
0000
0000
,  // measure 27
0010
0000
0100
0000
,  // measure 28
1001
0000
0000
0000
,  // measure 29
1000
0000
0000
0001
,  // measure 30
0000
0000
0000
0100
,  // measure 31
0000
0000
0000
0010
,  // measure 32
0100
0000
0010
0100
,  // measure 33
0000
0000
0000
0010
,  // measure 34
0000
0000
0000
1000
,  // measure 35
0000
0000
0000
0001
,  // measure 36
1000
0000
1000
0010
,  // measure 37
0000
0000
0000
0100
,  // measure 38
0000
0000
0000
0001
,  // measure 39
0000
0000
0000
0010
,  // measure 40
0000
0000
0000
0001
,  // measure 41
0000
0000
0000
1000
,  // measure 42
0000
0000
0000
0010
,  // measure 43
0000
0010
0000
0100
,  // measure 44
0100
0100
0100
1001
,  // measure 45
0000
0000
0000
0000
,  // measure 46
0000
0010
0100
0001
,  // measure 47
0000
0000
0000
0000
,  // measure 48
0000
1000
0001
0100
,  // measure 49
0000
0000
0000
0000
,  // measure 50
0000
0010
1000
0100
,  // measure 51
0000
0000
0000
0000
,  // measure 52
0000
0010
0001
1000
,  // measure 53
0000
0000
0000
0000
,  // measure 54
0000
0100
0010
0001
,  // measure 55
0000
0000
0000
1000
,  // measure 56
0000
0000
0010
0000
,  // measure 57
0000
0000
1000
0000
,  // measure 58
0000
0000
0100
0000
,  // measure 59
0000
0000
1000
0000
,  // measure 60
0000
0000
0001
0000
,  // measure 61
0000
0000
0100
0000
,  // measure 62
0000
0000
0010
0000
,  // measure 63
0000
0000
0010
0000
,  // measure 64
0000
0000
0100
0000
,  // measure 65
0000
0000
0001
0000
,  // measure 66
0000
0000
1000
0000
,  // measure 67
0000
0000
0100
0000
,  // measure 68
0000
0000
1000
0000
,  // measure 69
0000
0000
0010
0000
,  // measure 70
0000
0000
0100
0000
,  // measure 71
0010
0000
1000
0000
,  // measure 72
0001
0000
0110
0000
,  // measure 73
0000
0000
0010
0000
,  // measure 74
0000
0000
1000
0000
,  // measure 75
0001
0000
0100
0000
,  // measure 76
0010
0000
1001
0000
,  // measure 77
0000
0000
0010
0000
,  // measure 78
0000
0000
0100
0000
,  // measure 79
0010
0000
1000
0000
,  // measure 80
0001
0000
1001
0000
,  // measure 81
0000
0000
0010
0000
,  // measure 82
0000
0000
0100
0000
,  // measure 83
0001
0000
0100
0000
,  // measure 84
0010
0010
1000
0000
,  // measure 85
0000
0000
0001
0000
,  // measure 86
0000
0000
0010
0000
,  // measure 87
0001
0000
0100
0000
,  // measure 88
0010
0000
1001
0000
,  // measure 89
0000
0000
0110
0000
,  // measure 90
0000
0000
1000
0000
,  // measure 91
0001
0000
0110
0000
;

//---------------dance-single - ----------------
#NOTES:
     dance-single:
     :
     Hard:
     13:
     0.570798,0.909690,0.452882,0.197223,0.222789,547.000000,485.000000,62.000000,27.000000,0.000000,0.000000,0.570798,0.909690,0.452882,0.197223,0.222789,547.000000,485.000000,62.000000,27.000000,0.000000,0.000000:
0000
0000
0000
0000
,
0000
0000
0000
0000
,
0000
0000
0000
0000
,
0000
0000
0000
0000
,
0000
0000
0000
0000
,
0010
0000
0100
0000
0010
0000
0000
1000
0000
0000
0200
0000
0000
0000
1300
0000
,
0001
0000
0100
0000
0001
0000
0000
0010
0000
0000
0200
0000
0000
0000
0310
0000
,
0001
1000
0001
0000
0010
0000
0001
0000
1000
0000
0010
0000
1000
0000
0001
0000
,
0010
0100
0010
0000
0100
0000
0010
0000
0001
0000
1000
0000
0001
0000
0010
0000
,
0001
0000
0100
0000
0001
0000
0000
1000
0000
0000
0020
0000
0000
0000
0130
0000
,
0001
0000
1000
0000
0010
0000
0000
1000
0000
0000
0200
0000
0000
0000
1300
0000
,
0001
0100
0001
0010
0100
0010
0001
1000
,
0010
0100
0010
0100
0001
1000
0001
1000
0020
0000
0000
0000
0000
0000
0000
0000
,
1030
0000
0100
0000
0010
0000
0000
0000
0100
0000
0000
1000
0000
0000
0001
0000
,
0100
0000
0010
0000
0100
0000
0000
0000
0001
0000
0000
0010
0000
0000
0001
0000
,
1000
0000
0100
0000
1000
0000
0000
0000
0001
0000
0000
0100
0000
0000
0010
0000
,
2000
0000
0000
3100
0001
0100
0010
0001
,
1000
0000
0010
0000
1000
0000
0000
0000
0001
0000
0000
0010
0000
0000
0100
0000
,
0010
0000
0001
0000
0010
0000
0000
0000
0001
0000
0000
0100
0000
0000
0001
0000
,
1000
0000
0100
0000
1000
0000
0000
0000
0100
0000
0000
0010
0000
0000
0100
0000
,
2000
0000
0000
3100
0010
0001
0010
0100
,
1000
1000
1000
1000
,
1000
1000
0002
2003
,
3010
0000
0100
0000
0001
0010
0100
0000
,
0010
0000
0001
0000
1000
0100
0010
0000
,
0001
0001
0001
0001
,
0001
0001
2000
3002
,
0103
0010
1000
0001
,
0220
0000
0000
0330
,
0001
0000
1000
0100
1000
0000
0001
0000
,
0100
0000
0010
1000
0100
0000
1001
0000
,
0001
0000
0010
0100
1000
0100
0010
0000
,
0100
0000
0010
0001
0100
0010
1001
0000
,
0000
1000
0001
0010
0100
0000
0010
0000
,
0001
0000
0100
0010
0100
0000
1001
0000
,
1000
0000
0001
0001
0010
0000
0100
0000
,
0010
0000
0100
0100
1000
0000
1001
0000
,
0010
0000
1000
0001
0010
0000
0100
0000
,
0010
0000
0001
0100
0010
0000
1001
0000
,
0010
0000
0001
0100
0010
0000
1000
0001
,
0010
0000
0100
0010
0001
0000
1001
0000
,
0001
0000
1000
0010
0100
0000
0001
0000
,
0010
0000
0100
0010
0001
0000
1001
0000
,
0000
0010
1001
0000
0000
0100
1001
0000
,
0110
1001
0110
1001
,
0001
0010
0001
0100
,
0010
1010
0011
1010
,
0010
1000
0001
0010
,
0100
0110
0000
0010
0001
0001
1001
0000
,
0001
1000
0010
1000
,
0001
0101
0011
0101
,
0001
1000
0100
0010
,
0100
0110
0000
0100
1000
1000
1001
0000
,
0001
1000
0010
1000
,
0001
1001
0110
1010
,
0000
0101
0000
0022
,
0000
0000
0000
0000
0033
0000
0000
0000
1000
0000
0010
0000
1000
0000
0000
0001
,
0000
0000
0020
0000
0000
0000
0130
0000
0010
0000
0001
0000
1000
0000
0000
0001
,
0000
0000
0200
0000
0000
0000
0301
0000
0010
0001
0010
0000
0001
0000
1000
0000
,
0100
0000
0000
0010
0000
0000
0100
0000
1000
0001
1000
0000
0001
0000
0100
0000
,
0010
0000
1000
0000
0100
0000
0010
0000
0001
0000
1000
0000
0010
0000
0000
0100
,
0000
0000
0002
0000
0000
0000
1003
0000
0100
0000
1000
0000
0001
0000
0000
0100
,
0000
0000
0020
0000
0000
0000
0130
0000
0010
0000
0000
1000
0000
0000
0100
0000
,
0000
0010
0000
0000
0100
0000
1000
0000
0001
0000
0000
0010
0000
0000
0100
0000
,
0000
0010
0000
0000
0001
0000
1000
0000
0100
0000
1000
0000
0010
0000
0000
0100
,
0000
0000
0002
0000
0000
0000
0013
0000
0001
0000
0100
0000
0001
0000
0000
1000
,
0000
0000
0002
0000
0000
0000
0013
0000
0000
0100
1000
0000
0001
0000
1000
0000
,
0010
0000
0000
1000
0000
0000
0100
0000
0000
0010
0100
0000
0010
0000
0001
0010
,
0001
0000
1000
0000
0100
0000
1000
0000
0001
0000
0100
0000
0001
0000
0000
0010
,
0000
0000
0200
0000
0000
0000
0310
0000
0100
0000
1000
0000
0010
0000
0000
0100
,
0000
0002
0000
0013
0100
0010
0001
0100
,
1000
0000
0100
0000
0010
0000
1000
0000
0001
1000
0001
1000
0010
0100
0010
0100
,
0002
0003
1010
0011
,
1010
0000
0000
1010
0000
0101
0000
1001
,
0000
0000
0010
0100
0010
0000
0000
0000
1000
0000
0000
1000
0000
0000
0001
0000
,
0010
0000
0100
0010
0000
0000
0000
0000
0100
0000
0000
0100
0000
0000
0010
0000
,
0001
0000
1000
0010
0000
0000
0000
0000
0101
0000
0000
0000
0101
0000
0000
0000
,
0011
0000
0000
1100
0000
0011
0000
0101
,
0000
0000
1000
0010
1000
0000
0000
0000
0100
0000
1000
0000
0000
0000
0100
0000
,
0001
0010
0000
1000
0010
0001
0000
0001
,
0010
1000
0000
0000
1010
0000
0011
0000
,
1001
0000
0000
0101
0000
1100
0000
1010
,
0000
0000
0001
0010
0001
0000
0000
0000
1000
0000
0000
0010
0000
0000
0100
0000
,
0001
0000
0010
0100
0000
0000
0000
0000
0010
0000
0011
0000
0000
0000
0000
0000
,
0100
1000
1001
0000
1010
0000
1010
0000
,
0101
0000
0000
0011
0000
0101
0000
1001
,
0000
0000
0010
0100
0010
0000
0000
0000
1000
0000
0010
0000
0100
0000
0001
0000
,
0010
0100
0000
0100
0010
0000
0001
0000
2000
0000
0000
0000
0000
0000
0000
0000
,
0002
0000
0000
0000
0000
0000
3003
0000
0100
0000
0010
0000
0110
0000
0000
1010
,
0000
0000
0101
0000
0000
0000
0001
0000
0010
0000
0001
0000
1001
0000
0000
1010
,
0000
0000
1100
0000
0000
0000
1001
0000
1000
0100
1000
0100
0010
0100
0010
0001
,
0010
0001
1000
0001
0100
0010
0100
0001
0020
0000
0000
0000
0000
0000
0000
0000
,
0000
0030
0000
0000
;
