#TITLE:RAIN;
#SUBTITLE:;
#ARTIST:dj TAKA;
#TITLETRANSLIT:;
#SUBTITLETRANSLIT:;
#ARTISTTRANSLIT:;
#GENRE:TRANCE;
#CREDIT:;
#BANNER:RAIN-banner.png;
#BACKGROUND:RAIN-background.png;
#LYRICSPATH:;
#CDTITLE:cdtitle.png;
#MUSIC:RAIN.ogg;
#OFFSET:-0.020000;
#SAMPLESTART:66.435089;
#SAMPLELENGTH:16.603775;
#SELECTABLE:YES;
#BPMS:0.000000=159.000000
;
#STOPS:
;
#BGCHANGES:;
#KEYSOUNDS:;
#ATTACKS:;

//---------------dance-single - ----------------
#NOTES:
     dance-single:
     :
     Hard:
     12:
     0.420069,0.745623,0.159626,0.142824,0.113419,350.000000,331.000000,19.000000,17.000000,0.000000,0.000000,0.420069,0.745623,0.159626,0.142824,0.113419,350.000000,331.000000,19.000000,17.000000,0.000000,0.000000:
0000
0000
0000
0000
,
0000
0000
0000
0000
,
0000
0000
0000
0000
,
0000
0000
0000
0000
,
0000
0000
0000
0000
,
0000
0000
0000
0000
,
0000
0000
0000
0000
,
0000
0000
0000
0000
,
1001
0000
0001
0000
0010
0000
0000
0100
0000
0000
0010
0000
0001
0000
0000
1000
,
0000
0000
0010
0000
0100
0000
0000
0010
0000
0000
1000
0000
0100
0000
0000
0010
,
0000
0000
0001
0000
1000
0000
0000
0010
0000
0000
1000
0000
0100
0000
0000
0010
,
0000
0000
0100
0000
1000
0000
0000
0001
0000
0000
0100
0000
0010
0000
1000
0000
,
1001
0000
0001
0000
0100
0000
0010
1000
,
1001
0000
0001
0000
0010
0000
0100
0010
,
1001
0000
0010
0100
1001
0000
0100
0010
,
1001
0000
0010
0000
1001
0000
0010
0000
1000
0001
1000
0001
1000
0001
1000
0001
,
0200
0000
0000
0000
,
0000
0000
0000
0000
,
0000
0000
0000
0000
,
0000
0000
0000
0300
0000
0000
0000
0000
,
0020
0030
2000
3000
,
0001
1000
0100
1000
,
0010
1000
0010
0000
0100
0000
0001
0000
,
0010
0100
0010
0001
,
1000
0100
0010
0001
0010
0000
0001
0000
,
1000
0100
0010
0100
1000
0000
0001
0000
,
0100
0000
0010
0000
1000
1000
0001
0010
,
0100
0010
0002
0000
,
0203
0300
0020
0030
,
0100
0001
0010
0100
,
0010
0001
1000
0000
0010
0000
0100
0000
,
0001
1000
0100
0000
0010
0100
1000
0000
,
0001
0010
0100
0010
0001
1000
0100
0010
,
0001
1000
0001
0100
,
0001
0000
0100
0000
0010
0010
0100
0001
,
1000
0001
0020
0000
,
0130
2100
3001
0000
,
0001
1020
0130
0000
,
1000
0021
0130
0000
,
0010
1200
0310
0000
,
0001
0201
0310
0000
,
1000
1200
0310
0000
,
0010
2001
3100
0000
,
1001
0000
0000
0000
,
0100
0001
0000
0000
0010
0100
0000
0000
,
0010
0000
0000
0001
0000
0000
0100
0000
0000
0010
0000
0000
1000
0000
0001
0000
,
0010
1000
0010
0001
0010
1000
0010
0100
,
1000
0000
0000
0100
0000
0000
1000
0000
0010
0000
1000
0000
0100
0000
0010
0000
,
0100
0010
0001
1000
0100
1000
0001
0010
,
0100
0010
0001
1000
0010
0100
0001
0010
,
0100
0010
0100
0010
0100
0100
1000
0001
,
0100
0000
0000
0000
0001
0000
0000
0000
1000
0000
1000
0000
0001
0100
0001
0100
,
0001
0010
0000
0000
0001
1000
0000
0000
,
0010
0000
0000
1000
0000
0000
0001
0000
0000
0010
0000
0000
0100
0000
0010
0000
,
0001
0100
1000
0100
0001
0100
1000
0100
,
0010
0000
0000
1000
0000
0000
0001
0000
0010
0000
0100
0000
0010
0000
0001
0000
,
1000
0100
0010
0001
0010
0100
0010
0001
,
1000
0010
0100
0001
0010
0100
0010
0001
,
1000
0000
0001
0000
0100
0100
0010
1000
,
0100
0001
0100
0010
0001
0001
0000
0000
,
1000
0001
0020
0000
0000
0130
1000
0100
,
0010
0100
1000
0010
0100
0001
0010
0100
,
1000
0000
0000
0001
0100
0000
0000
0100
,
0010
0000
1000
0100
0000
0010
0100
1000
,
0002
0000
0000
0000
0000
0103
0001
0010
,
0100
0000
0000
0100
0000
0100
0010
0001
,
1000
0000
0101
0100
0010
0000
1010
0010
,
0100
0000
1001
0001
0010
0000
1100
0100
,
0010
0001
0100
0010
1000
0001
0010
0100
,
1000
0001
1000
0001
1000
0001
1000
0001
1000
0001
1000
0001
1000
0001
1000
0001
,
0020
0000
0000
0000
,
0130
0000
0000
0000
;

//---------------dance-single - ----------------
#NOTES:
     dance-single:
     :
     Medium:
     8:
     0.321653,0.536848,0.159626,0.159626,0.000000,268.000000,249.000000,19.000000,19.000000,0.000000,0.000000,0.321653,0.536848,0.159626,0.159626,0.000000,268.000000,249.000000,19.000000,19.000000,0.000000,0.000000:
0000
0000
0000
0000
,
0000
0000
0000
0000
,
0000
0000
0000
0000
,
0000
0000
0000
0000
,
0000
0000
0000
0000
,
0000
0000
0000
0000
,
0000
0000
0000
0000
,
0000
0000
0000
0000
,
1001
0001
0010
0001
,
0100
0010
1000
0100
,
0010
0100
1000
0010
,
0100
0000
0001
0000
0010
0000
0100
1000
,
1001
0000
0001
0000
0100
0000
0010
1000
,
1100
0000
0010
0000
0001
0000
0100
0001
,
0011
0000
0010
0100
1100
0000
0100
1000
,
0110
0010
0000
0010
0100
0001
0100
0001
,
0020
0000
0000
0000
,
0000
0000
0000
0000
,
0000
0000
0000
0000
,
0000
0000
0000
0030
0000
0000
0000
0000
,
0200
0300
0020
0030
,
0001
0001
1000
1000
,
0001
0100
0010
1000
,
0100
0001
0100
1000
,
0010
0001
0010
1000
,
0100
0001
0100
0010
,
0001
0000
0001
0000
1000
0010
1000
0010
,
0100
0100
0200
0000
,
0302
0003
0020
0030
,
0100
0100
0100
0100
,
0010
0001
0100
1000
,
0100
0100
0010
0010
,
0100
0001
0010
0001
,
1000
0100
0010
0001
,
1000
0000
0001
0000
0100
0010
0100
0010
,
0100
0001
0020
0000
,
0130
2000
3010
0000
,
0100
0002
0013
0000
,
0100
2000
3010
0000
,
0100
0002
0013
0000
,
0100
2000
3010
0000
,
0100
0002
0013
0000
,
0100
2000
3010
0000
,
0000
0000
0000
0000
,
2000
3000
0002
0003
,
0100
0001
0010
0100
,
0010
0001
0100
0000
0100
0010
1000
0000
,
0010
1000
0001
0010
,
0100
0010
0001
0000
0001
0010
0100
0000
,
0100
0010
0001
0000
0001
0010
0100
0000
,
0010
0000
0001
0000
0100
0010
0100
0010
,
1000
0000
0001
0000
0010
0000
0100
0010
,
0002
0103
2000
3100
,
0010
0001
0100
0010
,
0100
0001
0010
0000
0100
0000
0010
0000
,
0001
1000
0100
0000
0010
0000
0100
0000
,
1000
0100
0010
0000
0010
0100
1000
0000
,
1000
0100
0010
0000
0010
0100
1000
0000
,
0100
0000
0100
0000
0010
0001
0010
0001
,
0010
0000
0100
0000
1000
1000
0001
1000
,
0010
0000
0000
0000
0000
0100
0001
0010
,
0100
0000
0000
0000
0000
0010
0001
1000
,
0100
0000
0000
1000
0001
0000
0000
0100
,
0010
0000
1000
1000
0000
0100
0010
0001
,
1000
0000
0000
0000
0000
0001
1000
0100
,
0010
0000
0000
0000
0000
0100
1000
0010
,
0100
1001
0010
1001
,
0100
1001
0010
1001
,
0101
1010
1100
0011
,
0110
1100
0110
0011
,
0201
0000
0000
0000
,
0310
0000
0000
0000
;

//---------------dance-single - ----------------
#NOTES:
     dance-single:
     :
     Easy:
     5:
     0.231638,0.417549,0.126021,0.126021,0.000000,193.000000,178.000000,15.000000,15.000000,0.000000,0.000000,0.231638,0.417549,0.126021,0.126021,0.000000,193.000000,178.000000,15.000000,15.000000,0.000000,0.000000:
0000
0000
0000
0000
,
0000
0000
0000
0000
,
0000
0000
0000
0000
,
0000
0000
0000
0000
,
0000
0000
0000
0000
,
0000
0000
0000
0000
,
0000
0000
0000
0000
,
0000
0000
0000
0000
,
1001
0000
1000
0000
,
0010
0000
0100
0000
,
0001
0000
0010
0000
,
0001
0000
1000
0000
,
0110
0000
0001
0000
,
1100
0000
1000
0000
,
0101
0000
0011
0000
,
1001
0110
1001
0110
,
2002
0000
0000
0000
,
0000
0000
0000
0000
,
0000
0000
0000
0000
,
0000
3003
0000
0000
0000
0000
0000
0000
,
0001
0000
1000
0000
,
0010
0000
1000
0000
,
0100
1000
0010
0100
,
0001
0000
1000
0000
,
0100
0000
0010
0000
,
0100
0000
1000
0000
,
0001
1000
0001
0001
,
0010
0100
0020
0000
,
0031
0000
0100
0000
,
0010
1000
0010
1000
,
0010
0100
0001
0010
,
0100
0000
0010
0000
,
0001
0001
1000
1000
,
0001
1000
0010
0100
,
0001
0000
0100
0000
,
0010
0010
0020
0000
,
1030
0002
1003
0000
,
1000
0002
1003
0000
,
1000
0002
1003
0000
,
1000
0002
1003
0000
,
1000
0002
1003
0000
,
1000
0002
1003
0000
,
1000
0002
1003
0000
,
0000
0000
0000
0000
,
0010
0000
0100
0000
,
0010
0010
0010
0010
,
1000
0010
0100
0001
,
0010
0100
0010
0001
,
1000
0100
0010
0001
,
0010
0100
0010
0001
,
1000
0001
0100
0010
,
1000
0000
1000
0000
0001
0000
1000
0100
,
1000
0000
0010
0000
,
0100
0001
0010
0001
,
1000
0100
0010
0100
,
1000
0010
0100
0001
,
1000
0100
0010
0100
,
1000
0100
0010
0001
,
0010
0001
0010
0010
,
0001
0000
0100
0000
0010
0000
0100
0010
,
0100
0020
0000
0000
,
0030
1000
0100
0010
,
0001
1000
0001
0100
,
0001
1000
0100
0010
,
0100
2000
0000
0000
,
3001
0100
0000
0000
,
0001
0000
0010
0000
,
0100
0000
1000
0000
,
0001
0100
0010
1000
,
1001
0110
1001
0110
,
2002
0000
0000
0000
,
3003
0000
0000
0000
;

//---------------dance-single - ----------------
#NOTES:
     dance-single:
     :
     Beginner:
     2:
     0.103217,0.238599,0.033606,0.000000,0.000000,86.000000,82.000000,4.000000,0.000000,0.000000,0.000000,0.103217,0.238599,0.033606,0.000000,0.000000,86.000000,82.000000,4.000000,0.000000,0.000000,0.000000:
0000
0000
0000
0000
,
0000
0000
0000
0000
,
0000
0000
0000
0000
,
0000
0000
0000
0000
,
0000
0000
0000
0000
,
0000
0000
0000
0000
,
0000
0000
0000
0000
,
0000
0000
0000
0000
,
0010
0000
0000
0000
,
1000
0000
0000
0000
,
0001
0000
0000
0000
,
0010
0000
0000
0000
,
0100
0000
0000
0000
,
0010
0000
0000
0000
,
0100
0000
0010
0000
,
0100
0100
0100
0100
,
1001
0000
0000
0000
,
0000
0000
0000
0000
,
0000
0000
0000
0000
,
0000
0000
0000
0000
,
1000
0000
1000
0000
,
0001
0000
0000
0000
,
0100
0000
0000
0000
,
0010
0000
0000
0000
,
0100
0000
0000
0000
,
0001
0000
0000
0000
,
1000
0000
0000
0000
,
0100
0000
0000
0000
,
1000
0000
1000
0000
,
1000
0000
0000
0000
,
0010
0000
0000
0000
,
1000
0000
0000
0000
,
0100
0000
0000
0000
,
0010
0000
0000
0000
,
0001
0000
0000
0000
,
1000
0000
0000
0000
,
0010
0100
0000
0000
,
0000
0100
0000
0000
,
0000
0100
0000
0000
,
0000
0100
0000
0000
,
0000
0010
0000
0000
,
0000
0010
0000
0000
,
0000
0010
0000
0000
,
0000
0000
0000
0000
,
1000
0000
0001
0000
,
0010
0000
0000
0000
,
0100
0000
0010
0000
,
0100
0000
0000
0000
,
1000
0000
1000
0000
,
0001
0000
0000
0000
,
0100
0000
0100
0000
,
0010
0000
0000
0000
,
1001
0000
1000
0000
,
0010
0000
0000
0000
,
0100
0000
0001
0000
,
0010
0000
0000
0000
,
0100
0000
0100
0000
,
1000
0000
0000
0000
,
0001
0000
1000
0000
,
0010
0000
0000
0000
,
0100
0100
0000
0000
,
0010
0000
0000
0000
,
1000
0000
0001
0000
,
1000
0000
0000
0000
,
0100
0100
0000
0000
,
0010
0000
0000
0000
,
0001
0000
1000
0000
,
0001
0000
1000
0000
,
0010
0000
0100
0000
,
0010
0000
0100
0000
,
1001
0000
0000
0000
,
0110
0000
0000
0000
;

//---------------dance-single - ----------------
#NOTES:
     dance-single:
     :
     Challenge:
     15:
     0.663709,0.984222,0.210035,0.176429,0.693114,553.000000,528.000000,25.000000,21.000000,31.000000,0.000000,0.663709,0.984222,0.210035,0.176429,0.693114,553.000000,528.000000,25.000000,21.000000,31.000000,0.000000:
// measure 0
0000
0000
0000
0000
,  // measure 1
0000
0000
0000
0000
,  // measure 2
0000
0000
0000
0000
,  // measure 3
0000
0000
0000
0000
,  // measure 4
0000
0000
0000
0000
,  // measure 5
0000
0000
0000
0000
,  // measure 6
0000
0000
0000
0000
,  // measure 7
0000
0000
0000
0000
,  // measure 8
1000
0000
0001
0000
0010
0000
0100
0010
0000
0001
0100
0000
0010
0000
1000
0010
,  // measure 9
0000
0100
0001
0000
0010
0000
0100
0010
0000
0001
1000
0000
0010
0000
1000
0100
,  // measure 10
0000
0010
0100
0000
1000
0000
0010
0100
0000
0001
0010
0000
0100
0000
0010
0001
,  // measure 11
0000
0100
0010
0000
1000
0000
0001
0100
0000
0010
1000
0000
0001
0010
0001
1000
,  // measure 12
1001
0000
0001
0000
0100
0000
0000
0000
0010
0000
0000
0000
1000
0010
0100
0001
,  // measure 13
1001
0000
0001
0000
0010
0000
0000
0000
0100
0000
0000
0000
0010
0001
1000
0010
,  // measure 14
1010
0000
0000
0000
1000
0010
0100
0001
0101
0000
0000
0000
0001
0010
0100
1000
,  // measure 15
0001
0000
0400
0000
1300
0000
0400
0000
0301
0010
1000
0100
0010
0001
0010
0100
,  // measure 16
0020
0000
0000
0000
,  // measure 17
0000
0000
0000
0000
,  // measure 18
0000
0000
0000
0000
,  // measure 19
0000
0000
0000
0000
0000
0000
0000
0030
00M0
0000
0000
0000
0000
0000
0000
0000
0000
0000
0000
0000
0000
0000
0000
0000
0000
0000
0000
0000
0000
0000
0000
0000
,  // measure 20
0001
0200
0000
0310
1000
0200
0000
0300
,  // measure 21
0010
0000
0000
0001
0000
0000
0100
0000
0000
0001
0000
0000
1000
0000
0100
0000
,  // measure 22
1000
0010
1000
0000
0010
0000
0100
0001
0100
0000
0001
0000
1000
0000
0100
0000
,  // measure 23
0010
0000
0000
0100
0000
0000
0010
0000
0001
0000
0100
0000
0010
0000
1000
0000
,  // measure 24
0001
0100
0001
0000
0100
0000
0010
0000
1000
0000
0100
0000
0010
0000
0001
0000
,  // measure 25
1000
0100
1000
0000
0100
0000
1000
0000
0001
0000
0010
0000
0100
0000
1000
0000
,  // measure 26
0001
0000
0000
1000
0001
0000
0000
0001
0100
0000
0100
0000
0100
0010
0100
0010
,  // measure 27
0100
0010
1000
0001
0020
0000
0000
0000
,  // measure 28
0130
2000
0000
3001
0100
2000
0000
3100
,  // measure 29
0010
0000
0000
0010
0000
0000
0100
0000
0000
0100
0000
0000
0010
0000
1000
0000
,  // measure 30
0001
0010
0001
0000
0010
0000
0001
0100
0001
0000
1000
0000
0100
0000
1000
0000
,  // measure 31
0001
0000
0000
0100
0000
0000
0010
0000
1000
0001
1000
0000
0001
0000
0010
0000
,  // measure 32
0100
0010
0001
0000
0010
0000
0001
0000
0100
0000
0010
0000
1000
0000
0100
0000
,  // measure 33
0010
0100
1000
0000
0100
0000
0010
0000
0001
0000
0100
0000
0010
0000
1000
0000
,  // measure 34
0001
0000
0000
1000
0010
0000
0000
0100
0001
0000
0001
0000
0001
1000
0001
1000
,  // measure 35
0010
0100
0010
0100
0002
0000
0000
0000
,  // measure 36
1003
0021
0130
MMMM
,  // measure 37
1010
0120
1030
MMMM
,  // measure 38
0110
0102
1003
MMMM
,  // measure 39
1100
1020
0130
MMMM
,  // measure 40
1010
0102
0013
MMMM
,  // measure 41
0110
2100
3010
MMMM
,  // measure 42
0011
2100
3010
MMMM
,  // measure 43
1001
0000
0000
0000
,  // measure 44
0001
0200
0000
0310
1000
0200
0000
0310
,  // measure 45
0100
0000
0010
0001
0000
0010
0100
0000
1000
0100
0000
1000
0010
0100
0010
1000
,  // measure 46
0001
0010
0001
1000
0001
0000
1000
0010
1000
0001
1000
0000
0001
0010
0100
0010
,  // measure 47
0001
0000
1000
0010
0000
0100
0001
0000
0010
0000
0100
0000
0010
0000
0001
0000
,  // measure 48
1000
0100
1000
0100
0010
0100
0010
0001
0010
0001
1000
0010
0100
0001
0010
0100
,  // measure 49
0010
0001
0010
0001
0010
0100
0010
0100
1000
0100
1000
0100
0010
0001
0100
0010
,  // measure 50
1000
0000
0000
0001
0100
0000
0000
0010
1000
0000
1000
0000
1000
0001
1000
0001
,  // measure 51
0100
0010
1000
0001
0100
0010
1000
0001
0010
0000
0010
0000
0100
0010
0001
1000
,  // measure 52
0100
2000
0000
3010
0100
0002
0000
1003
,  // measure 53
0100
0000
1000
0010
0000
0100
0001
0000
0010
0100
0000
0010
0001
0100
0010
1000
,  // measure 54
0001
1000
0010
1000
0001
0000
1000
0001
0010
0001
1000
0000
0001
1000
0010
0100
,  // measure 55
0001
0000
0010
0001
0000
0010
0100
0000
0010
0000
0001
0000
0100
0000
0010
0000
,  // measure 56
1000
0001
1000
0001
0100
0010
0100
0010
1000
0010
1000
0010
0100
0001
0100
0001
,  // measure 57
0010
0100
0010
0100
1000
0100
1000
0100
1000
0001
1000
0001
0100
0010
0100
0010
,  // measure 58
1000
0000
0000
0100
0010
0000
0000
0010
0001
0000
0001
0000
0001
1000
0001
1000
,  // measure 59
0001
0100
0010
1000
0001
0100
0010
1000
0001
0000
0001
0000
0001
0010
0100
1000
,  // measure 60
0001
0100
0001
0010
0200
0000
0000
0000
0000
0000
0010
0000
0010
0000
0010
0000
,  // measure 61
0310
0000
0001
0010
0001
0010
0001
0010
0001
0010
0001
0010
0001
0010
0100
1000
,  // measure 62
0001
1000
0001
1000
0010
0000
1000
0001
1000
0001
0010
0100
0010
0001
1000
0001
,  // measure 63
0100
0000
0010
1001
0000
1010
0010
0100
,  // measure 64
0001
0100
0001
0010
0200
0000
0000
0000
0000
0000
1000
0000
1000
0000
1000
0000
,  // measure 65
1300
0100
0020
0000
0000
0130
0010
0001
,  // measure 66
1000
0000
0001
0100
0010
0000
1000
0000
1001
0000
0001
0010
0100
0000
1000
0000
,  // measure 67
1001
0000
0001
0100
0010
0000
1000
0000
1001
0000
1000
0100
0010
0000
0100
0000
,  // measure 68
1001
0000
0001
0100
0010
0000
0100
0010
1000
0000
0001
0010
0100
0000
0010
0001
,  // measure 69
1000
0100
0010
0100
1000
0010
0100
0001
0010
0001
0100
0010
1000
0001
0010
0400
,  // measure 70
4000
0000
0000
0000
0000
0000
0000
0000
0000
0000
0000
0000
0000
0000
0000
3300
,  // measure 71
MM11
0000
0000
0000
;
