#VERSION:0.83;
#TITLE:Purple storm;
#SUBTITLE:;
#ARTIST:Trick Trap;
#TITLETRANSLIT:;
#SUBTITLETRANSLIT:;
#ARTISTTRANSLIT:;
#GENRE:FUSION ROCK;
#ORIGIN:;
#CREDIT:;
#BANNER:banner.png;
#BACKGROUND:background.png;
#PREVIEWVID:;
#JACKET:jacket.png;
#CDIMAGE:;
#DISCIMAGE:;
#LYRICSPATH:;
#CDTITLE:cdtitle.png;
#MUSIC:Purple Storm.ogg;
#OFFSET:-0.102000;
#SAMPLESTART:0.000000;
#SAMPLELENGTH:12.000000;
#SELECTABLE:YES;
#BPMS:0.000=160.000;
#STOPS:;
#DELAYS:;
#WARPS:;
#TIMESIGNATURES:0.000=4=4;
#TICKCOUNTS:0.000=4;
#COMBOS:0.000=1;
#SPEEDS:0.000=1.000=0.000=0;
#SCROLLS:0.000=1.000;
#FAKES:;
#LABELS:0.000=Song Start;
#BGCHANGES:;
#KEYSOUNDS:;
#ATTACKS:
;

//---------------dance-single - ----------------
#NOTEDATA:;
#CHARTNAME:;
#STEPSTYPE:dance-single;
#DESCRIPTION:;
#CHARTSTYLE:;
#DIFFICULTY:Hard;
#METER:13;
#RADARVALUES:0.544511,0.746233,0.144378,0.279131,1.106897,396.000000,381.000000,15.000000,29.000000,0.000000,0.000000,0.000000,0.000000,0.000000,0.544511,0.746233,0.144378,0.279131,1.106897,396.000000,381.000000,15.000000,29.000000,0.000000,0.000000,0.000000,0.000000,0.000000;
#CREDIT:Pandemonium X;
#NOTES:
0000
0000
0000
0000
,
0000
0000
0000
0000
,
1000
0010
0100
0001
,
0010
0100
0010
0001
,
1000
0000
0100
1000
0010
0100
0001
0010
0001
1000
0100
0010
,
0200
0000
0320
0000
,
0032
0000
2003
0000
,
3200
0000
0000
0000
0310
0001
2000
0000
0000
0000
3010
0100
,
0002
0000
0000
0000
0013
0100
0020
0000
0000
0000
0130
0000
,
1000
0000
0010
0000
0001
0000
0010
0000
1000
0000
0100
0000
,
0001
0000
0100
0000
0010
0000
0002
0000
0000
0000
0000
0000
,
2003
0000
0000
0000
3001
0100
0020
0000
0000
0000
0130
0001
,
0010
0100
0010
0001
1000
0100
0020
0000
0000
0000
0030
0000
,
0100
0010
0001
0100
0001
1000
0100
1000
0001
0010
0100
0010
,
0002
0000
0003
0000
,
2000
0000
0000
0000
3010
0100
0002
0000
0000
0000
0013
0100
,
0020
0000
0000
0000
0130
1000
0002
0000
0000
0000
1003
0000
,
0100
0000
0001
0000
0100
0000
1000
0000
0010
0000
0001
0000
,
0100
0000
0010
0000
1000
0000
0001
0000
0010
0000
0100
0000
,
2000
0000
3000
0001
0100
0001
0010
0100
0010
0001
1000
0010
,
0100
0001
0100
0001
1000
0001
0020
0000
0000
0000
0030
0100
,
1000
0100
0010
0001
0010
0100
1000
0010
0100
0001
0010
0001
,
0200
0000
0000
0000
0000
0000
0310
1000
0100
0010
0001
0000
,
1000
0000
0001
0100
1000
0000
1000
0100
0001
0000
1001
0000
,
0110
0000
0001
0010
1000
0000
1000
0010
0001
0000
1001
0000
,
1000
0000
0010
0100
0001
0000
0010
0100
1000
0000
1001
0000
,
1000
0000
0001
0100
0010
0000
0100
0000
0001
0000
0010
0000
,
0100
0010
0001
1000
,
0010
0000
1000
0000
0100
0000
0010
0000
0000
0100
0000
0000
,
1000
0000
0000
0010
0000
0000
0100
0000
0001
0000
0010
0000
,
0100
0010
0001
1000
,
0010
1000
0100
0010
,
0001
0000
0000
0100
0000
0000
0020
0000
0030
2000
0000
0000
,
3100
0000
0100
0010
0000
0010
0001
0000
0001
1000
0000
1000
,
0001
0000
0100
0000
0010
0000
1000
0000
1000
0100
0000
0100
,
0010
0000
0010
0001
0000
0001
1000
0000
0001
0000
0100
0000
,
0001
0011
0100
1100
,
1001
0000
0001
1000
0001
0010
0200
0000
0000
0000
0000
0000
,
0000
0000
0000
0000
0300
0000
0010
0000
0100
0000
1000
0001
,
0200
0000
0000
0000
0000
0000
0300
0000
0020
0000
0000
0000
,
0000
0000
0000
0000
1030
0100
0010
0001
1000
0000
0110
0000
,
0110
0000
0100
0000
0001
0000
0001
0000
0010
0000
0100
0000
,
0100
0000
0010
0000
0001
0000
0001
0000
1001
0000
1001
0000
,
1000
0000
0010
0000
0010
0000
0100
0000
0001
0000
0001
0000
,
0010
0000
0100
0000
0100
0000
0011
0000
1100
0000
0012
0000
,
0000
0000
1003
0001
0100
1000
0100
0010
1000
0001
0010
0100
,
1000
0100
0010
0100
1000
0001
0100
0001
0010
0000
0200
0000
,
0000
0000
0000
0000
0300
0000
0000
0000
0000
0000
0010
0000
,
0001
0000
0010
0000
0001
0000
0100
0000
0001
0000
0100
0000
,
0010
0000
0100
0000
0010
0000
1000
0000
0010
0000
1000
0000
,
0001
0000
1000
0000
0001
0000
0100
0000
0001
0000
0100
0000
,
0010
0000
0100
0000
0010
0000
1000
0000
0010
0000
1000
0000
,
0001
0000
0001
0000
0010
0000
0100
0000
0100
0000
1000
0000
,
0010
0000
0010
0000
0100
0000
1000
0000
1000
0000
0100
0000
,
0010
0000
0010
0000
0100
0000
0001
0000
0001
0000
1000
0000
,
0100
0000
0010
0000
0100
0000
1000
0000
0001
0000
0100
0000
,
0000
0001
0000
0000
0010
0000
0000
0100
0000
0010
0000
0000
,
0001
0000
1000
0000
0100
0000
0000
1000
0000
0000
0010
0000
,
0000
0100
0000
0000
0001
0000
0010
0000
0001
0000
1000
0000
,
0000
0010
0000
0000
0100
0000
0000
0001
0000
0000
0010
0000
,
0000
0100
0000
0000
0010
0000
0000
0001
0000
0000
1000
0000
,
0000
0010
0000
0100
0010
0000
0010
2000
0000
0000
3001
0000
,
0000
1000
0000
0000
0100
0000
0000
0010
0000
0000
0100
0000
,
1000
0000
0010
0000
0100
0000
0000
0001
0000
0000
0010
0000
,
0000
0100
0000
0000
0010
0000
0001
0000
1000
0000
0100
0000
,
0000
1000
0000
0000
0001
0000
0000
0100
0000
0000
0001
0000
,
0000
0010
0000
0100
0000
0000
0010
0001
0200
0000
0310
1000
,
0001
0010
0100
1000
0000
1001
0000
0000
0000
0000
0000
0000
;

//---------------dance-single - ----------------
#NOTEDATA:;
#CHARTNAME:;
#STEPSTYPE:dance-single;
#DESCRIPTION:;
#CHARTSTYLE:;
#DIFFICULTY:Easy;
#METER:6;
#RADARVALUES:0.203504,0.356894,0.067376,0.048126,0.332069,148.000000,141.000000,7.000000,5.000000,0.000000,0.000000,0.000000,0.000000,0.000000,0.203504,0.356894,0.067376,0.048126,0.332069,148.000000,141.000000,7.000000,5.000000,0.000000,0.000000,0.000000,0.000000,0.000000;
#CREDIT:Pandemonium X;
#NOTES:
0000
0000
0000
0000
,
0000
0000
0000
0000
,
0000
0000
0000
0000
,
0000
0000
0000
0000
,
1000
0000
0100
0000
,
0010
0000
0001
0000
,
1000
0000
0001
0000
,
0100
0000
0001
0000
,
0010
0000
0100
0000
,
0010
0000
0001
0000
,
0100
0000
0010
0000
,
1000
0000
0100
0000
,
0010
0000
0100
0000
,
1000
0000
0001
0000
,
1000
0000
0010
0000
,
0100
0000
0010
0000
,
1000
0000
0001
0000
,
0010
0000
0001
0000
,
0100
0000
0001
0000
,
1000
0000
0100
0000
,
1000
0000
0001
0000
,
1000
0000
0010
0000
,
1000
0000
0100
0000
,
0010
0000
0000
0000
0000
0000
0000
0000
0100
0000
0100
0000
,
0000
0000
0000
0000
0000
0000
0000
0000
0010
0000
0010
0000
,
0000
0000
0000
0000
0000
0000
0000
0000
0100
0000
0100
0000
,
0000
0000
0000
0000
0000
0000
0000
0000
0010
0000
0000
0000
,
0010
0000
0100
0000
,
1000
0000
0001
0000
,
1000
0000
0010
0000
,
0100
0000
0001
0000
,
0010
0000
0001
0000
,
1000
0000
0000
0000
0001
0000
0000
0000
0000
1000
0000
0000
,
0001
0000
1000
0000
,
0010
0000
0100
0000
,
0100
0000
0010
0000
,
0100
0000
0010
0000
,
0100
0000
2002
0000
,
0000
3003
0001
0000
,
1000
0000
1000
0000
0001
0000
0000
0000
0100
0000
0000
0000
,
0000
0000
0000
0000
0000
0000
0000
0000
0000
0000
0010
0000
,
0010
0000
0000
0000
0000
0100
0000
0000
0000
0000
0000
0000
,
0000
0001
0000
0000
0000
0000
0000
0000
1000
0000
1000
0000
,
0001
0000
0000
0010
,
0000
0000
0000
0000
0000
0000
0100
0000
0100
0000
2000
0000
,
0000
0000
0000
0000
3010
0000
0100
0000
0001
0000
0010
0000
,
0100
0000
1000
0000
0100
0000
1000
0000
0010
0000
0200
0000
,
0000
0000
0000
0000
0000
0000
0000
0000
0000
0000
0320
0000
,
0000
0000
0000
0000
0100
0000
0030
0000
0000
0000
0100
0000
,
0000
0000
0000
0000
0010
0000
0000
0000
0000
0000
1000
0000
,
0000
0000
0000
0000
0001
0000
0000
0000
0000
0000
0010
0000
,
0000
0000
0000
0000
0100
0000
0000
0000
0000
0000
0011
0000
,
0000
0000
0000
0000
0101
0000
0000
0000
0000
0000
1100
0000
,
0000
0000
0000
0000
1010
0000
0000
0000
0000
0000
0101
0000
,
0000
0000
0000
0000
0001
0000
0000
0000
0000
0000
1000
0000
,
0000
0000
0000
0000
0100
0000
0000
0000
0000
0000
1000
0000
,
0000
0000
0000
0000
0001
0000
0000
0000
0000
0000
0100
0000
,
0000
0000
0010
0000
1000
0000
0000
0000
0000
0000
0010
0000
,
0000
0000
0000
0000
1000
0000
0001
0000
1000
0000
0001
0000
,
0000
0000
0000
0000
1000
0000
0000
0000
0000
0000
0001
0000
,
0000
0000
0000
0000
0100
0000
0000
0000
0000
0000
0010
0000
,
0000
0100
0000
0000
0001
0000
0000
0010
0000
0000
0100
0000
,
0000
0000
0000
0000
0010
0000
0000
0000
0000
0000
0001
0000
,
0000
0000
0000
0000
1000
0000
0000
0000
0000
0000
0001
0000
,
0000
0000
0000
0000
0100
0000
0000
0000
0000
0000
0010
0000
,
0000
0000
0000
0000
1000
0000
0000
0000
0000
0000
0100
0000
,
0000
0000
0000
0000
0010
0000
0100
0000
0000
0000
0000
1000
,
0000
0000
0000
0000
0000
1001
0000
0000
0000
0000
0000
0000
;

//---------------dance-single - ----------------
#NOTEDATA:;
#CHARTNAME:;
#STEPSTYPE:dance-single;
#DESCRIPTION:;
#CHARTSTYLE:;
#DIFFICULTY:Medium;
#METER:10;
#RADARVALUES:0.453759,0.584009,0.452384,0.144378,0.770016,330.000000,283.000000,47.000000,15.000000,0.000000,0.000000,0.000000,0.000000,0.000000,0.453759,0.584009,0.452384,0.144378,0.770016,330.000000,283.000000,47.000000,15.000000,0.000000,0.000000,0.000000,0.000000,0.000000;
#CREDIT:Pandemonium X;
#NOTES:
0000
0000
0000
0000
,
0000
0000
0000
0000
,
1000
0100
1000
0010
,
0100
0001
0010
0100
,
0010
0000
0001
0000
0010
0000
0100
0000
1000
0000
0100
0000
,
0010
0000
0100
0000
,
1000
0000
0001
0000
,
1000
0000
0101
0000
,
0001
0000
1100
0000
,
0100
0000
1000
0000
0010
0000
0100
0000
0001
0000
0010
0000
,
0100
0000
0010
0000
0001
0000
1000
0000
0000
0000
0000
0000
,
0101
0000
0010
0000
,
1010
0000
1001
0000
,
1000
0000
0100
0000
1000
0000
0010
0000
0100
0000
0001
0000
,
0020
0000
0130
0000
,
1001
0000
0000
0000
0001
0000
0200
0000
0000
0000
0310
0000
,
2000
0000
0000
0000
3010
0000
0200
0000
0000
0000
0310
0000
,
0100
0000
0010
0000
1000
0000
0001
0000
0010
0000
0100
0000
,
0010
0000
0001
0000
1000
0000
0100
0000
0010
0000
0001
0000
,
2000
0000
0000
0000
0000
0000
3100
0000
0010
0000
0001
0000
,
0010
0000
1000
0000
0010
0000
0200
0000
0000
0300
0000
0000
,
0010
0000
0001
0000
0100
0000
0010
0000
1000
0000
0001
0000
,
2000
0000
0000
0000
0000
0000
3001
0000
0100
0000
0010
0000
,
1001
0000
0000
0000
1010
0000
0000
0000
0101
0000
0101
0000
,
0011
0000
0000
0000
0110
0000
0000
0000
1100
0000
1100
0000
,
0101
0000
0000
0000
1001
0000
0000
0000
1010
0000
1010
0000
,
1001
0000
0000
0000
1001
0000
0000
0000
0001
0000
0010
0000
,
0100
0010
0001
0100
,
0010
0000
1000
0000
0001
0000
0010
0000
0000
0001
0000
0000
,
0100
0000
0000
0010
0000
0000
1000
0000
0010
0000
0100
0000
,
0001
0010
1000
0010
,
0100
0010
0001
0100
,
0010
1000
0001
1000
,
0100
1000
0010
0100
,
0010
0000
1000
0000
0001
0000
0010
0000
0000
0100
0000
0000
,
0010
0000
0000
0001
0000
0000
0010
0000
0100
0000
1000
0000
,
1010
0001
0101
0001
,
0011
0110
0200
0000
,
0000
0000
0000
0000
0000
0000
0310
0000
0001
0000
1000
0000
,
1001
0000
1001
0000
0100
0000
0000
0000
0020
0000
0000
0000
,
0000
0000
0000
1030
0000
0100
0000
0010
0000
0001
1000
0000
,
1001
0000
0010
0000
0000
0100
0000
0000
0002
0000
0000
0000
,
1003
0000
0100
0000
0010
0000
0001
0000
1010
0000
1010
0000
,
0200
0000
0000
0000
0000
0000
0000
0000
0000
0301
0000
0010
,
0000
0100
0000
0010
0000
0001
1000
0000
1001
0000
0110
0000
,
0000
0000
0100
0010
1000
0000
0100
0000
0001
0000
0100
0000
,
0010
0000
0001
0000
0100
0000
0010
0000
1000
0000
2001
0000
,
0000
0000
0000
0000
0000
0000
0000
0000
0000
3000
0002
0000
,
0000
0000
0000
0000
0013
0000
0001
0000
0010
0000
0100
0000
,
0010
0000
0001
0000
0100
0000
0010
0000
0100
0000
0001
0000
,
1000
0000
0100
0000
0010
0000
0100
0000
1000
0000
0001
0000
,
0100
0000
0010
0000
1000
0000
0100
0000
0010
0000
0110
0000
,
0000
1100
0000
0000
0110
0000
0000
1100
0000
0000
0110
0000
,
0000
1100
0000
0000
1001
0000
0000
0101
0000
0020
0000
0000
,
0000
0000
0000
0000
0000
0000
0230
0000
0000
0000
0301
0000
,
0010
0000
0100
0000
0010
0000
0001
0000
1000
0000
0100
0000
,
0000
1000
0000
0000
0010
0000
0000
0100
0000
0001
0000
0000
,
0010
0000
0100
0000
1000
0000
0000
0100
0000
0000
0010
0000
,
0000
0100
0000
0000
1000
0000
0010
0000
0100
0000
0001
0000
,
0000
1000
0000
0000
0100
0000
0000
0010
0000
0000
0100
0000
,
0000
1000
0000
0000
0001
0000
0000
0100
0000
0000
0010
0000
,
0000
1010
0000
0000
0101
0000
0000
1001
0000
0000
0100
0000
,
0000
0010
0000
0000
1000
0000
0000
0001
0000
0000
0010
0000
,
0001
0000
0100
0000
0010
0000
0000
1000
0000
0000
0001
0000
,
0000
0010
0000
0000
0100
0000
0010
0000
0001
0000
0110
0000
,
0000
1000
0000
0000
0110
0000
0000
0001
0000
0000
1010
0000
,
0000
0001
0000
0000
0000
0100
1000
0010
0100
0000
0010
1000
,
0001
0010
0100
1000
0000
1001
0000
0000
0000
0000
0000
0000
;

//---------------dance-single - ----------------
#NOTEDATA:;
#CHARTNAME:;
#STEPSTYPE:dance-single;
#DESCRIPTION:;
#CHARTSTYLE:;
#DIFFICULTY:Beginner;
#METER:5;
#RADARVALUES:0.133378,0.259559,0.019250,0.000000,0.226192,97.000000,95.000000,2.000000,0.000000,0.000000,0.000000,0.000000,0.000000,0.000000,0.133378,0.259559,0.019250,0.000000,0.226192,97.000000,95.000000,2.000000,0.000000,0.000000,0.000000,0.000000,0.000000,0.000000;
#CREDIT:Pandemonium X;
#NOTES:
0000
0000
0000
0000
,
0000
0000
0000
0000
,
0000
0000
0000
0000
,
0000
0000
0000
0000
,
0010
0000
0000
0000
,
0100
0000
0010
0000
,
1000
0000
0001
0000
,
1000
0000
0000
0000
,
0001
0000
0000
0000
,
0100
0000
0000
0000
,
0010
0000
0000
0000
,
1000
0000
0000
0000
,
0001
0000
0000
0000
,
0010
0000
0010
0000
,
0010
0000
0000
0000
,
0100
0000
0000
0000
,
0010
0000
0000
0000
,
0001
0000
0000
0000
,
1000
0000
0000
0000
,
0010
0000
0000
0000
,
0100
0000
0000
0000
,
0001
0000
1000
0000
,
0010
0000
0000
0000
,
0100
0000
0000
0000
0000
0000
0000
0000
0010
0000
0010
0000
,
0000
0000
0000
0000
0000
0000
0000
0000
0100
0000
0100
0000
,
0000
0000
0000
0000
0000
0000
0000
0000
0001
0000
0001
0000
,
0000
0000
0000
0000
0000
0000
0000
1000
0000
0000
0000
0000
,
0001
0000
0000
0000
,
1000
0000
0010
0000
,
0000
0000
0100
0000
,
0010
0000
0000
0000
,
1000
0000
0000
0000
,
0001
0000
0000
0000
,
1000
0000
0000
0000
,
0001
0000
0010
0000
,
0000
0000
0100
0000
,
1000
0000
0001
0000
,
0100
0000
0010
0000
,
0000
0000
0100
0000
,
0000
0000
0001
0000
,
0000
0000
1000
0000
,
0000
0000
0000
0000
0001
0000
0000
0000
0000
0000
0000
0000
,
0100
0000
0000
0010
,
0000
1000
0000
0000
,
0001
0000
0000
0000
0000
0000
0000
0000
0000
0000
1001
0000
,
0000
0000
0000
0000
0001
0000
0000
0000
0000
0000
0010
0000
,
0000
0000
0000
0000
0100
0000
0000
0000
0000
0000
1000
0000
,
0000
0000
0000
0000
0000
0000
0000
0000
0000
0000
0010
0000
,
0000
0000
0000
0000
0100
0000
0000
0000
0000
0000
0010
0000
,
0000
0000
0000
0000
1000
0000
0000
0000
0000
0000
0001
0000
,
0000
0000
0000
0000
0010
0000
0000
0000
0000
0000
0001
0000
,
0000
0000
0000
0000
1000
0000
0000
0000
0000
0000
0001
0000
,
0000
0000
0000
0000
0001
0000
0000
0000
0000
0000
0001
0000
,
0000
0000
0000
0000
0001
0000
0000
0000
0000
0000
1000
0000
,
0000
0000
0000
0000
0001
0000
0000
0000
0000
0000
0100
0000
,
0000
0000
0000
0000
0010
0000
0000
0000
0000
0000
1000
0000
,
0000
0000
0000
0000
0000
0000
0000
0000
0000
0000
0001
0000
,
0000
0000
0000
0000
0010
0000
0000
0000
0000
0000
0000
0000
,
0000
0000
0000
0000
0100
0000
0000
0000
0000
0000
0010
0000
,
0000
0000
0000
0000
0001
0000
0000
0000
0000
0000
1000
0000
,
0000
0000
0000
0000
0010
0000
0000
0000
0000
0000
0000
0000
,
0000
0100
0000
0000
0000
0000
0000
0000
0000
0000
0010
0000
,
0000
0000
0000
0000
,
0000
0000
0000
0000
0100
0000
0000
0000
0000
0000
0000
0000
,
0000
0000
0000
0000
0000
0000
0000
0000
0000
0000
0001
0000
,
0000
0000
0000
0000
1000
0000
0000
0000
0000
0000
0010
0000
,
0000
0000
0000
0000
0000
0000
0100
0000
0100
0000
0010
0000
,
0010
0000
0010
0000
0000
1001
0000
0000
0000
0000
0000
0000
;

//---------------dance-single - ----------------
#NOTEDATA:;
#CHARTNAME:;
#STEPSTYPE:dance-single;
#DESCRIPTION:;
#CHARTSTYLE:;
#DIFFICULTY:Challenge;
#METER:14;
#RADARVALUES:0.631138,1.038238,0.356132,0.385008,1.174274,459.000000,422.000000,37.000000,40.000000,0.000000,0.000000,0.000000,0.000000,0.000000,0.631138,1.038238,0.356132,0.385008,1.174274,459.000000,422.000000,37.000000,40.000000,0.000000,0.000000,0.000000,0.000000,0.000000;
#CREDIT:Pandemonium X;
#NOTES:
// measure 0
0000
0000
0000
0000
,  // measure 1
0000
0000
0000
0000
,  // measure 2
0001
0110
0010
1100
,  // measure 3
0100
0011
0100
1100
,  // measure 4
1001
0000
0010
0001
0100
0010
1000
0100
1000
0001
0010
0100
,  // measure 5
0020
0000
0230
0000
,  // measure 6
2300
0000
3002
0000
,  // measure 7
0023
0000
0000
0000
0130
1000
0002
0000
0000
0000
0103
0010
,  // measure 8
2000
0000
0000
0000
3100
0010
0200
0000
0000
0000
0310
0000
,  // measure 9
0001
0000
0100
0000
1000
0000
0100
0000
0001
0000
0010
0000
,  // measure 10
1000
0000
0010
0000
0100
0000
2000
0000
0000
0000
0000
0000
,  // measure 11
3002
0000
0000
0000
1003
0010
0200
0000
0000
0000
0310
1000
,  // measure 12
0100
0010
0100
1000
0001
0010
0200
0000
0000
0000
0300
0010
,  // measure 13
0100
0010
0001
0100
0001
1000
0100
1000
0001
0010
0100
0010
,  // measure 14
0002
0000
0003
0000
,  // measure 15
1002
0000
0000
0000
0103
0010
2000
0000
0000
0000
3100
0010
,  // measure 16
0200
0000
0000
0000
0310
0001
2000
0000
0000
0000
3001
0000
,  // measure 17
0110
0000
1000
0000
0010
0000
1001
0000
0100
0000
1000
0000
,  // measure 18
1010
0000
0100
0000
0001
0000
1001
0000
0100
0000
0010
0000
,  // measure 19
1002
0000
0003
1000
0010
1000
0100
0010
0100
1000
0001
0100
,  // measure 20
0010
1000
0010
1000
0001
1000
0200
0000
0000
0000
0300
0010
,  // measure 21
0001
0010
0100
1000
0100
0010
0001
0100
0010
1000
0100
1000
,  // measure 22
0020
0000
0000
0000
0000
0000
0130
0001
0010
0100
1000
0001
,  // measure 23
1000
0000
0001
0100
0010
0000
0010
1000
1010
0000
0101
0000
,  // measure 24
0001
0000
0010
0100
1000
0000
0100
0010
0011
0000
0110
0000
,  // measure 25
0010
0000
0100
1000
0010
0000
0100
0001
0011
0000
1001
0000
,  // measure 26
0001
0000
0100
0010
1000
0000
1001
0000
0001
0000
0010
0000
,  // measure 27
1001
0001
1000
0001
,  // measure 28
0100
0000
0001
0000
0010
0000
0100
0000
0000
0010
0000
0000
,  // measure 29
0001
0000
0000
0100
0000
0000
0010
0000
1000
0000
0100
0000
,  // measure 30
0010
0100
1000
0001
,  // measure 31
0100
0001
0010
0100
,  // measure 32
1000
0000
0000
0010
0000
0100
0002
0000
0013
0200
0000
0000
,  // measure 33
0310
0000
0010
0100
0000
0100
1000
0000
1000
0001
0000
0001
,  // measure 34
1000
0000
0010
0000
0100
0000
0001
0000
0001
0010
0000
0010
,  // measure 35
0100
0000
0100
1000
0000
1000
0001
0000
1000
0000
0010
0000
,  // measure 36
1000
1100
0010
0011
,  // measure 37
1001
0000
1000
0001
1000
0100
0020
0000
0000
0000
0000
0000
,  // measure 38
0000
0000
0000
0000
0030
0000
0100
0000
0010
0000
0001
1000
,  // measure 39
0020
0000
0000
0000
0000
0000
0030
0000
0200
0000
0000
0000
,  // measure 40
0000
0000
0000
0000
0000
0000
0000
0000
0000
0000
0000
0000
0301
0000
0000
0010
0000
0000
0100
0000
0000
0010
0000
0000
0001
0000
0000
1000
0000
0000
0001
0000
0000
0100
0000
0000
0001
0000
0000
0000
1001
0000
0000
0000
0000
0000
0000
0000
,  // measure 41
1001
0000
0000
0000
0000
1000
0000
0002
0000
0000
0003
0000
,  // measure 42
0000
0000
0000
0000
0100
0000
0000
0000
0010
0000
0000
0000
1000
0000
0000
0000
0100
0000
0000
0000
1000
0000
0000
0000
0001
0000
0000
0010
0000
0000
0100
0000
0000
0010
0000
0000
0001
0000
0000
1000
0000
0000
0010
0000
0000
0100
0000
0000
,  // measure 43
0002
0000
0000
0000
0003
1000
0001
1000
0001
0000
0000
0000
0000
0000
0100
0010
,  // measure 44
1000
0000
0000
0001
0000
0000
0010
0000
0000
0100
0000
0000
0010
0000
0000
0001
0000
0000
1000
0000
0000
0001
0000
0000
0100
0000
0000
0000
0000
0000
0000
0000
0011
0000
0000
0000
0000
0000
0000
0000
2100
0000
0000
0000
0000
0000
0000
0000
,  // measure 45
0000
0000
3001
1000
0010
0001
0010
0100
0001
1000
0100
0010
,  // measure 46
0001
0010
0100
0010
0001
1000
0010
1000
0100
0010
2002
0000
,  // measure 47
0000
0000
0000
0000
0000
0000
0000
0000
0000
3003
0102
0000
,  // measure 48
0000
0000
0000
0000
0000
0000
0000
0000
0000
0000
0000
0000
0003
0000
0000
0000
0200
0000
0000
0000
0000
0000
0000
0000
0310
0000
0000
1000
0000
0000
0001
0000
0000
0010
0000
0000
0100
0000
0000
0010
0000
0000
0001
0000
0000
1000
0000
0000
,  // measure 49
0001
0000
0000
0000
0000
0000
0000
1000
0100
0010
0100
1000
0010
0100
0001
0010
,  // measure 50
0100
0010
0001
0100
0010
1000
0001
0010
0100
0010
0001
1000
0010
0100
0001
0010
,  // measure 51
0100
0000
0000
1000
0000
0000
0100
0000
0000
1000
0000
0000
0100
0000
0000
0010
0000
0000
0001
0000
0000
0000
0000
0000
0000
0000
0000
0000
0000
0000
0000
0000
0000
0000
0000
0000
0000
0000
0000
0000
1020
0000
0000
0000
0000
0000
0000
0000
,  // measure 52
0000
0130
0000
0001
0021
0000
0000
0130
0000
1000
1020
0000
,  // measure 53
0000
0130
0000
0001
0021
0000
0000
0130
0000
2000
0000
0000
,  // measure 54
0000
0000
0000
0000
0000
0000
0000
0000
0000
0000
0000
0000
0000
0000
0000
0000
0000
0000
0000
0000
0000
0000
0000
0000
3000
0000
0002
0000
0000
0000
0000
0000
0000
0000
0000
0000
0003
0000
0000
0100
0000
0000
0010
0000
0000
0100
0000
0000
,  // measure 55
0010
0000
0000
0100
0000
0000
0010
0000
0000
0100
0000
0000
0010
0000
0000
0100
0000
0000
0010
0000
0000
0100
0000
0000
0010
0000
0000
0000
0000
0000
0000
0000
1000
0000
0000
0000
0000
0000
0000
0000
0001
0000
0000
0000
0000
0000
0000
0000
,  // measure 56
0000
0010
0000
0000
0100
0000
0000
0010
0000
0100
0000
0000
,  // measure 57
1000
0000
0001
0000
0010
0000
0000
0001
0000
0000
0100
0000
,  // measure 58
0000
0010
0000
0000
1000
0000
0100
0000
1000
0000
0001
0000
,  // measure 59
0000
0100
0000
0000
0010
0000
0000
1000
0000
0000
0100
0000
,  // measure 60
0000
0010
0000
0000
0100
0000
0000
1000
0000
0000
0001
0000
,  // measure 61
0000
0100
0000
0010
0100
0000
0100
0002
0000
0000
1003
0000
,  // measure 62
0000
0001
0000
0000
0010
0000
0000
0100
0000
0000
0010
0000
,  // measure 63
0001
0000
0100
0000
0010
0000
0000
1000
0000
0000
0100
0000
,  // measure 64
0000
0010
0000
0000
0100
0000
1000
0000
0001
0000
0011
0000
,  // measure 65
0000
0001
0000
0000
1100
0000
0000
0010
0000
0000
1001
0000
,  // measure 66
0101
0000
0001
0000
0000
1000
0100
1000
0020
0000
0130
0001
,  // measure 67
1000
0100
0010
0001
0000
1001
0000
0000
0000
0000
0000
0000
;
