#TITLE:Paper Planes;
#SUBTITLE:[JKE Remake];
#ARTIST:Virtual Riot;
#TITLETRANSLIT:;
#SUBTITLETRANSLIT:;
#ARTISTTRANSLIT:;
#GENRE:DRUM AND BASS;
#CREDIT:;
#BANNER:Paper Planes-banner.png;
#BACKGROUND:Paper Planes-bg.png;
#LYRICSPATH:;
#CDTITLE:cdtitle.png;
#MUSIC:Paper Planes [JKE Remake].ogg;
#OFFSET:0.002000;
#SAMPLESTART:10.989429;
#SAMPLELENGTH:21.942856;
#SELECTABLE:YES;
#BPMS:0.000000=175.000000
,128.000000=87.500000
,144.000000=175.000000
,304.000000=87.500000
;
#STOPS:
;
#BGCHANGES:;
#KEYSOUNDS:;
#ATTACKS:;

//---------------dance-single - ----------------
#NOTES:
     dance-single:
     :
     Hard:
     12:
     0.467324,0.613363,0.073019,0.109529,0.248266,448.000000,438.000000,10.000000,15.000000,0.000000,0.000000,0.467324,0.613363,0.073019,0.109529,0.248266,448.000000,438.000000,10.000000,15.000000,0.000000,0.000000:
0000
0000
0000
0000
,
0000
0000
0000
0000
,
0000
0000
0000
0000
,
0000
0000
0000
0000
,
0000
0000
0000
0000
,
0000
0000
0000
0000
,
0000
0000
0000
0000
,
0000
0000
0000
0000
,
1000
0100
0001
0100
0010
0000
0000
0100
,
0010
0001
1000
0000
0000
0001
0000
1001
,
0000
0001
0010
1000
0010
0000
0000
0100
,
0010
0001
1000
0000
0000
1000
0000
1001
,
0000
0001
0010
0001
1000
0010
0000
0100
,
0001
1000
0001
0000
1000
0100
0010
0100
,
0000
0010
0001
0100
0000
0010
1000
0100
,
0000
0000
0010
0000
0001
0000
0100
0000
0010
1000
0000
0001
0010
0000
0100
0000
,
0000
0010
0001
0100
1000
0000
0000
0100
,
0010
1000
0001
0000
0000
1000
0000
1001
,
0000
1000
0010
0001
0010
0000
0000
0100
,
0010
0001
1000
0000
0000
0001
0000
1001
,
0000
0001
0100
0010
1000
0100
0000
0100
,
1000
0001
1000
0000
0001
0100
0001
1000
,
0000
0100
0010
0001
0000
0001
0010
0100
,
0000
0000
0100
0000
0010
0000
0001
0000
1000
0010
0000
0100
0001
0000
0010
0000
,
0100
0000
0100
0000
0000
0010
0000
0001
,
1000
0001
0100
0000
0000
0010
1000
0001
,
0010
0000
0010
0000
0000
0100
0000
0100
,
0010
0001
1000
0000
0000
0001
0010
0100
,
1000
0000
1000
0000
0000
0010
0000
0010
,
0100
0001
1000
0000
0000
0100
1000
0100
,
0010
0000
0010
0000
0000
0100
0000
0100
,
0010
0001
1000
0000
0000
0001
0100
0010
,
1000
0001
0000
0001
0010
0000
0010
0100
0000
0010
0000
0001
0000
1000
0000
0001
,
0000
0000
0000
0000
,
1000
0010
0000
0010
0100
0000
0100
0010
0000
1000
0000
0010
0000
0100
0000
0001
,
0000
0000
0000
0000
,
1000
0001
0020
0031
,
0100
0000
0010
1000
0001
0000
0000
0000
,
1000
0010
0200
0301
,
0010
0000
0100
0010
0001
1000
0001
0000
,
1000
0010
0200
0310
,
0100
0000
0010
1000
0100
0000
0000
0000
,
0010
0001
2000
3010
,
0100
0000
0010
1000
0001
0010
0100
0000
,
0010
0000
0001
0000
0100
0000
0001
0000
1000
0000
0000
0100
0010
0000
0000
0000
,
0100
0000
0000
1000
0001
0000
0100
0000
0001
0000
0000
0000
0000
0000
0000
0000
,
1000
0000
0001
0000
0010
0000
0001
0000
0100
0000
0000
0010
1000
0000
0000
0000
,
0001
0000
0000
0010
0001
0000
0100
0000
0001
0000
1000
0000
0100
0000
0000
0000
,
0000
0000
0010
0000
0100
0000
1000
0000
0001
0000
0000
1000
0010
0000
0000
0000
,
0100
0000
0000
0010
0100
0000
0001
0000
1000
0000
0000
0000
0000
0000
0000
0000
,
0100
0000
0010
0000
0100
0000
1000
0000
0001
0000
0000
0010
0100
0000
0000
0000
,
0010
0000
0000
0100
0010
0000
0001
0000
0000
0000
0000
1000
0010
0000
0000
0000
,
0000
0000
0000
0100
0001
0000
0000
0000
0010
0000
0000
0100
0010
0000
0001
0000
,
1000
0000
0000
0100
0010
0000
0100
0000
1000
0000
0002
0000
0000
0000
0103
0000
,
0010
0000
1000
0000
0100
0000
0000
0010
0100
0000
0000
0000
0010
0000
0000
0001
,
0010
0001
1000
0010
1000
0000
0200
0000
,
0310
0000
0100
0000
0010
0000
0100
0000
1000
0000
0000
0001
1000
0000
0000
0000
,
0100
0000
0010
0100
1000
0002
0000
0013
,
0000
0000
0100
0000
0010
0000
0001
0000
1000
0000
0000
0010
1000
0000
0000
0000
,
0010
0000
0100
0010
1000
0001
0010
0000
,
1001
1000
0100
0001
0100
0000
0000
0010
,
0001
0010
0100
0000
0000
0010
0000
1001
,
0000
0001
0100
1000
0100
0000
0000
0010
,
1000
0100
0010
0000
0000
0100
0000
1001
,
0000
0001
0010
0001
1000
0100
0000
1000
,
0010
0100
0001
0000
0010
0100
0010
0001
,
0000
1000
0001
0100
0000
0001
1000
0100
,
0000
0000
1000
0000
0001
0000
0100
0000
0010
1000
0000
0100
0001
0000
1000
0000
,
0001
0100
1000
0100
0010
0000
0000
0100
,
0001
0010
1000
0000
0000
0010
0000
1001
,
0000
1000
0010
0001
0010
0000
0000
0100
,
0001
0010
0100
0000
0000
0010
0000
1001
,
0000
0001
0100
0001
1000
0100
0000
0010
,
0100
1000
0001
0000
1000
0010
0100
0001
,
0000
1000
0001
0100
0000
0001
1000
0100
,
0000
0000
0010
0000
0100
0000
1000
0000
0100
1000
0000
0001
0010
0000
0001
0000
,
1000
0000
1000
0000
0000
0001
0000
1000
0010
0100
0010
0000
0000
0100
0000
0010
,
0100
0000
0100
0000
0000
0001
0000
0001
1000
0100
0010
0000
0000
0100
1000
0001
,
0010
0000
0010
0000
0000
0100
0000
0100
1000
0001
0100
0000
0000
0010
0000
0010
,
0100
0000
0100
0000
0000
0001
0000
0001
1000
0100
1000
0000
0000
0100
0010
0001
,
2000
0000
0000
3000
0000
0000
0000
0002
0000
0000
0003
0000
0000
0100
0000
0020
,
0000
0000
0000
0030
0000
0000
0000
0020
0000
0000
0000
0030
0000
1000
0000
0002
,
0000
0000
0000
0003
0000
0000
0000
0002
0000
0000
0000
0003
0000
1000
0000
0020
,
0000
0000
0000
0030
0000
0000
0000
0020
0000
0000
0000
0030
0000
0000
0000
0000
,
1001
0000
0000
0000
;

//---------------dance-single - ----------------
#NOTES:
     dance-single:
     :
     Medium:
     8:
     0.325458,0.460022,0.087623,0.000000,0.124133,312.000000,300.000000,12.000000,0.000000,0.000000,0.000000,0.325458,0.460022,0.087623,0.000000,0.124133,312.000000,300.000000,12.000000,0.000000,0.000000,0.000000:
0000
0000
0000
0000
,
0000
0000
0000
0000
,
0000
0000
0000
0000
,
0000
0000
0000
0000
,
0000
0000
0000
0000
,
0000
0000
0000
0000
,
0000
0000
0000
0000
,
0000
0000
0000
0000
,
1001
0001
0010
0000
,
0100
0000
0010
0000
0000
0001
0000
1100
,
0000
1000
0010
0000
,
0100
0000
0010
0000
0000
1000
0000
0101
,
0000
0000
0001
0000
0010
0000
0000
0100
,
1000
0000
0001
0000
1000
0000
0010
1000
,
0000
0001
0100
0010
0000
0100
0010
1000
,
0000
0001
1000
0000
0100
0000
0010
0100
,
1000
0100
1000
0000
,
0001
0000
0100
0000
0000
0010
0000
1001
,
0000
0001
0100
0000
,
0001
0000
1000
0000
0000
0100
0000
0110
,
0000
0100
0010
0000
,
0100
0000
1000
0000
0001
0000
0100
0010
,
0000
1000
0010
0100
0000
0010
1000
0001
,
0010
0000
0100
0000
1000
0100
0010
0001
,
1000
0000
0001
0000
0000
0100
0000
0001
,
0010
0000
0100
0000
0000
0010
0000
0100
,
1000
0000
0001
0000
0000
1000
0000
0010
,
1000
0000
0100
0000
0000
1000
0100
0010
,
0001
0000
1000
0000
0000
0001
0000
0100
,
0010
0000
1000
0000
0000
0010
0000
0100
,
0001
0000
1000
0000
0000
0100
0000
0010
,
0100
0000
1000
0000
0000
0100
0010
0001
,
1000
0001
0000
0001
1000
0000
1000
0001
0000
0100
0000
0001
0000
0010
0000
0100
,
0000
0000
0000
0000
,
1000
0100
0000
0100
1000
0000
1000
0100
0000
0010
0000
0100
0000
1000
0000
0001
,
0000
0000
0000
0000
,
1000
0010
0100
0001
,
0010
0000
0100
0010
0001
0000
0000
0000
,
0010
0001
1000
0100
,
1000
0000
0010
0000
0100
0010
1000
0000
,
0000
0001
1000
0100
,
1000
0000
0010
1000
0100
0000
0000
0000
,
0000
0010
0001
0100
,
0010
1000
0001
1001
,
0001
1000
0010
1000
,
0100
0000
0010
0100
1000
0000
0000
0000
,
0100
1000
0010
0100
,
0001
0000
0010
0100
1000
0100
0010
0000
,
0000
0100
0010
0001
,
1000
0000
0001
0100
0010
0000
0000
0000
,
0100
0010
1000
0001
,
1000
0000
0001
1000
0000
0000
1001
0000
,
0000
0010
1000
0010
,
0100
0000
0001
0010
0100
0000
0000
0000
,
0010
0001
1000
0100
,
1000
0000
0010
0100
0010
1000
0001
0000
,
0000
1000
0001
0010
,
0100
0000
0010
0100
1000
0000
0000
0000
,
0100
1000
0010
0100
,
0010
0000
1000
0010
0100
0000
0001
0000
,
1000
0001
0100
0000
,
0001
0000
0010
0000
0000
0001
0000
1100
,
0000
0001
1000
0000
,
0010
0000
1000
0000
0000
0010
0000
1001
,
0000
1000
0001
0000
,
0100
0000
0001
0000
0010
0000
0100
1000
,
0000
0100
1000
0100
0000
1000
0100
1000
,
0000
0100
1000
0000
0010
0000
0100
0000
,
0001
1000
0001
0000
,
0100
0000
0001
0000
0000
0010
0000
1100
,
0000
0100
1000
0000
,
0010
0000
0100
0000
0000
0001
0000
1010
,
0000
1000
0001
0000
,
0010
0000
0001
0000
0100
0000
0001
0100
,
0000
0010
0100
0010
0000
0100
0010
0100
,
0010
0000
1000
0000
0001
0010
0100
1000
,
0100
0000
0000
0000
0000
0000
0000
1000
0000
0000
0000
0000
0000
0001
0000
0100
,
0000
0000
0000
0000
0000
0000
0000
0001
0000
0000
0000
0000
0000
0100
0000
0001
,
0000
0000
0000
0000
0000
0000
0000
0010
0000
0000
0000
0000
0000
0100
0000
0010
,
0000
0000
0000
0000
0000
0000
0000
0001
0000
0000
0000
0000
0000
0000
0000
0000
,
1000
0000
0000
0000
0000
0000
0000
0001
0000
0000
0000
0000
0000
1000
0000
0010
,
0000
0000
0000
0000
0000
0000
0000
0010
0000
0000
0000
0000
0000
0010
0000
0100
,
0000
0000
0000
0000
0000
0000
0000
0100
0000
0000
0000
0000
0000
0100
0000
0001
,
0000
0000
0000
0000
0000
0000
0000
0001
0000
0000
0000
0000
0000
0000
0000
0000
,
1001
0000
0000
0000
;

//---------------dance-single - ----------------
#NOTES:
     dance-single:
     :
     Easy:
     6:
     0.234705,0.398686,0.036510,0.021906,0.000000,225.000000,220.000000,5.000000,3.000000,0.000000,0.000000,0.234705,0.398686,0.036510,0.021906,0.000000,225.000000,220.000000,5.000000,3.000000,0.000000,0.000000:
0000
0000
0000
0000
,
0000
0000
0000
0000
,
0000
0000
0000
0000
,
0000
0000
0000
0000
,
0000
0000
0000
0000
,
0000
0000
0000
0000
,
0000
0000
0000
0000
,
0000
0000
0000
0000
,
1000
0100
0010
0000
,
0100
0000
1000
0000
0000
0001
0000
0001
,
0000
1000
0001
0000
,
0100
0000
0010
0000
0000
1000
0000
1000
,
0000
0010
1000
0000
,
0100
0000
1000
0000
0010
0000
0000
0100
,
0000
0000
0000
0010
0000
0000
0000
0100
,
0000
0010
1000
1001
,
0000
0001
1000
0000
,
0100
0000
1000
0000
0000
0100
0000
0010
,
0000
0100
1000
0000
,
0010
0000
0100
0000
0000
0010
0000
0001
,
0000
0010
1000
0000
,
0100
0000
1000
0000
0001
0000
0000
0100
,
0000
0000
0000
0001
0000
0000
0000
1000
,
0000
1000
0010
0100
,
0001
0001
0000
1000
,
0001
0100
0000
0001
,
1000
0100
0000
1000
,
0001
0010
0000
0001
,
0010
0100
0000
0010
,
0100
1000
0000
0100
,
1000
0010
0000
0100
,
0001
0000
0000
0000
,
2000
0000
0000
0000
,
3000
0000
0000
0000
,
0002
0000
0000
0000
,
0003
0000
0000
0000
,
0100
0000
0010
0000
,
1000
0010
1000
0000
,
0010
0000
0100
0000
,
0001
0100
1000
0100
,
0001
0000
1000
0000
,
0001
0010
0001
0000
,
0010
0000
0100
0000
,
1000
0100
0010
0001
,
1000
0000
0010
0100
,
0010
1000
0001
0000
,
0001
0000
1000
0001
,
0100
1000
0100
1001
,
0000
0010
0100
0001
,
1000
0100
0010
0000
,
0000
0100
0010
0001
,
1000
0010
0000
0000
,
0000
1000
0010
0100
,
0001
1000
0100
0000
,
0010
0100
1000
0010
,
0100
0001
1000
1001
,
0001
1000
0010
1000
,
0100
0010
0100
0000
,
0010
0001
0100
0001
,
1000
0100
0010
0001
,
1001
0001
1000
0000
,
0001
0000
1000
0000
0000
0010
0000
1000
,
0000
0100
1000
0000
,
0100
0000
0010
0000
0000
0100
0000
1000
,
0000
0100
1000
0000
,
0010
0000
0100
0000
0001
0000
0000
0001
,
0000
0000
0000
0001
0000
0000
0000
0001
,
0000
0010
0001
0010
,
0000
0100
0010
0000
,
0100
0000
0010
0000
0000
0100
0000
1000
,
0000
0001
1000
0000
,
0001
0000
1000
0000
0000
0010
0000
1000
,
0000
0010
1000
0000
,
0100
0000
1000
0000
0010
0000
0000
0100
,
0000
0001
0000
0000
0000
0010
0000
0000
,
0100
0010
0001
1000
,
0001
0000
1000
0000
,
0010
0000
0100
0000
,
0001
0000
0010
0000
,
0100
0000
1000
0000
,
1001
0000
0010
0000
0100
0001
0100
0000
,
0001
0000
0100
0000
0010
1000
0010
0100
,
0010
0000
1000
0000
0001
1000
0100
0000
,
0010
0000
0200
0000
,
0300
0000
0000
0000
;

//---------------dance-single - ----------------
#NOTES:
     dance-single:
     :
     Beginner:
     3:
     0.109529,0.245345,0.029208,0.000000,0.000000,105.000000,101.000000,4.000000,0.000000,0.000000,0.000000,0.109529,0.245345,0.029208,0.000000,0.000000,105.000000,101.000000,4.000000,0.000000,0.000000,0.000000:
0000
0000
0000
0000
,
0000
0000
0000
0000
,
0000
0000
0000
0000
,
0000
0000
0000
0000
,
0000
0000
0000
0000
,
0000
0000
0000
0000
,
0000
0000
0000
0000
,
0000
0000
0000
0000
,
1000
0000
0000
0000
,
1000
0000
0000
0000
,
0001
0000
0000
0000
,
0001
0000
0000
0000
,
0100
0000
0000
0000
,
0100
0000
0000
0000
,
0010
0000
0000
0000
,
0010
0000
0100
0000
,
0001
0000
0000
0000
,
1000
0000
0000
0000
,
0100
0000
0000
0000
,
1000
0000
0000
0000
,
0010
0000
0000
0000
,
0100
0000
0000
0000
,
0001
0000
0000
0000
,
1000
0000
0001
0000
,
0100
0000
0000
0000
,
0010
0000
0000
0000
,
1000
0000
0000
0000
,
0100
0000
0000
0000
,
1000
0000
0000
0000
,
0001
0000
0000
0000
,
0100
0000
0000
0000
,
0010
0000
0000
0000
,
1001
0000
0000
0000
,
0000
0000
0000
0000
,
0010
0000
0000
0000
,
0000
0000
0000
0000
,
0100
0000
0100
0000
,
0100
0000
0000
0000
,
0001
0000
0001
0000
,
0001
0000
0000
1000
,
0000
0010
0000
0000
,
0010
0000
0000
0000
,
0000
0000
0100
0000
,
0010
0000
0000
0000
,
1000
0000
0000
0000
,
0001
0001
0001
0000
,
0100
0000
0000
0000
,
0010
0000
0100
0000
,
0001
0000
0000
0000
,
1000
1000
1000
0000
,
0001
0000
0000
0000
,
1000
0000
0000
0000
,
0000
0010
0000
0000
,
0100
0000
0000
0000
,
0001
0000
0000
0000
,
1000
0000
0001
0001
,
1000
0000
0000
0000
,
0010
0000
0000
0000
,
1000
0000
0000
0000
,
0100
0000
0000
0000
,
1001
0000
0000
0000
,
0001
0000
0000
0000
,
1000
0000
0000
0000
,
0010
0000
0000
0000
,
0100
0000
0000
0000
,
0001
0000
0000
0000
,
0010
0000
0000
0000
,
0001
0000
1000
0000
,
0100
0000
0000
0000
,
1000
0000
0000
0000
,
0010
0000
0000
0000
,
0100
0000
0000
0000
,
0010
0000
0000
0000
,
1000
0000
0000
0000
,
0001
0000
0000
0000
,
1000
0000
0001
0000
,
0110
0000
0010
0000
,
0100
0000
0001
0000
,
1000
0000
0010
0000
,
0100
0000
0001
0000
,
1000
1000
1000
0000
,
0001
0001
0001
0000
,
0100
0100
0100
0000
,
0010
0010
0010
0000
,
1001
0000
0000
0000
;

//---------------dance-single - ----------------
#NOTES:
     dance-single:
     :
     Challenge:
     15:
     0.596672,0.644031,0.233662,0.262870,0.456371,572.000000,540.000000,32.000000,36.000000,57.000000,0.000000,0.596672,0.644031,0.233662,0.262870,0.456371,572.000000,540.000000,32.000000,36.000000,57.000000,0.000000:
// measure 0
0000
0000
0000
0000
,  // measure 1
0000
0000
0000
0000
,  // measure 2
0000
0000
0000
0000
,  // measure 3
0000
0000
0000
0000
,  // measure 4
0000
0000
0000
0000
,  // measure 5
0000
0000
0000
0000
,  // measure 6
0000
0000
0000
0000
,  // measure 7
0000
0000
0000
0000
,  // measure 8
1001
0010
0100
0001
0010
0000
0000
0100
,  // measure 9
0010
0001
1000
0000
0000
M1M1
0000
1M1M
,  // measure 10
0000
1000
0100
0001
0100
0000
0000
0010
,  // measure 11
0100
1000
0001
0000
0000
MM11
0000
11MM
,  // measure 12
0000
0010
0001
0100
0001
1000
0000
0001
,  // measure 13
0100
1000
0100
0000
0010
1000
0010
0200
,  // measure 14
0000
0310
0100
0020
0000
0130
0010
0200
,  // measure 15
0000
0000
0310
0000
1000
0000
0001
0000
0010
0001
0000
0010
0100
1000
0010
0100
,  // measure 16
0001
0010
1000
0010
0001
0000
0000
0010
,  // measure 17
0001
0100
1000
0000
0000
11MM
0000
M1M1
,  // measure 18
0000
0001
0100
1000
0100
0000
0000
1000
,  // measure 19
0010
0001
0010
0000
0000
1M1M
0000
MM11
,  // measure 20
0000
0010
0001
1000
0001
0100
0000
0010
,  // measure 21
1000
0100
0010
0000
0100
0010
0001
2000
,  // measure 22
0000
3001
1000
0002
0000
1003
0001
2000
,  // measure 23
0000
0000
3001
0000
0010
0000
0100
0000
0010
0001
0000
0010
0100
1000
0010
0100
,  // measure 24
0001
0000
0010
0000
0001
0000
0100
0001
0000
0010
0100
0000
1000
0000
0001
0000
,  // measure 25
0100
0000
0010
0000
1000
0000
0010
0100
0000
0001
0010
0000
0001
0000
1000
0000
,  // measure 26
0001
0000
0010
0000
0100
0000
0010
0001
0000
0100
0000
0010
0100
0000
0001
0000
,  // measure 27
1000
0000
0010
0000
0100
0000
0010
1000
0000
0100
0000
0010
0100
0000
1000
0000
,  // measure 28
0100
0000
1000
0000
0010
0000
0100
0001
0000
0010
0100
0000
0010
0000
0001
0000
,  // measure 29
1000
0000
0010
0000
0100
0000
0001
0010
0000
0100
0010
0000
0001
0000
1000
0000
,  // measure 30
0100
0000
0010
0000
0100
0000
1000
0010
0000
0100
0000
0010
1000
0000
0001
0000
,  // measure 31
0010
0001
2000
0000
0000
3001
0010
0100
,  // measure 32
1000
0000
0000
1000
0000
0000
1000
0000
0000
0000
0010
0000
0000
0010
0000
0000
0100
0000
0000
0100
0000
0000
0100
0000
0000
0000
0010
0000
0000
0010
0000
0000
,  // measure 33
1000
0000
0000
1000
0000
0000
1000
0000
0000
0000
0001
0000
0000
0001
0000
0000
0010
0000
0000
0010
0000
0000
0010
0000
0000
0000
0100
0000
0000
0100
0000
0000
,  // measure 34
0010
0000
0000
0010
0000
0000
0010
0000
0000
0000
0001
0000
0000
0001
0000
0000
1000
0000
0000
1000
0000
0000
1000
0000
0000
0000
0100
0000
0000
0100
0000
0000
,  // measure 35
1000
0000
0000
1000
0000
0000
1000
0000
0000
0000
0010
0000
0000
0010
0000
0000
0100
0000
0000
0100
0000
0000
0100
0000
0000
0000
0010
0000
0000
0010
0000
0000
,  // measure 36
1000
0000
0100
0000
0010
0000
0100
0000
1000
0000
0000
0001
0100
0000
0001
0000
,  // measure 37
1000
0000
0000
0010
0100
0000
0001
0000
0010
0000
0000
0000
MMMM
0000
0000
0000
,  // measure 38
0000
0000
0010
0000
0100
0000
1000
0000
0010
0000
0000
0100
0001
0000
0010
0000
,  // measure 39
0100
0000
0000
0010
0001
0000
0100
0000
0001
0000
2000
0000
0200
0000
3300
0000
,  // measure 40
0000
0000
0010
0000
0001
0000
0100
0000
0010
0000
0000
1000
0001
0000
0010
0000
,  // measure 41
0100
0000
0000
0100
1000
0000
0001
0000
1000
0000
0000
0000
MMMM
0000
0000
0000
,  // measure 42
0000
0000
1000
0000
0001
0000
0010
0000
0100
0000
0000
0010
0001
0000
0000
0001
,  // measure 43
0100
0000
0000
0100
0010
0000
1000
0000
0001
0000
0020
0000
0200
0000
0330
0000
,  // measure 44
1001
0000
0001
0000
0010
0000
0001
0000
0100
0000
0010
1000
0100
0000
0010
0000
,  // measure 45
0100
0000
1000
0001
0010
0000
0100
0000
1100
0000
0000
0000
MMMM
0000
0000
0000
,  // measure 46
1000
0000
0001
0000
0010
0000
0100
0000
0010
0000
0001
0100
0010
0000
0100
0000
,  // measure 47
0010
0000
1000
0010
0100
0000
0001
0000
1000
0000
0001
0000
0020
0000
0030
0000
,  // measure 48
0000
0000
0100
0000
0010
0000
0001
0000
0100
0000
0010
1000
0001
0000
0010
0000
,  // measure 49
0100
0000
0010
0001
1000
0000
0010
0000
0100
0000
0000
0000
MMMM
0000
0000
0000
,  // measure 50
0010
0000
1000
0000
0001
0000
0010
0000
0100
0000
0010
0001
0100
0000
0010
0000
,  // measure 51
0100
0000
0010
1000
0001
0000
0010
0000
0100
0000
1000
0010
0200
0000
0000
0000
,  // measure 52
0300
0000
0000
0M00
0000
0000
0100
0000
0001
0000
0000
0000
0010
0000
0000
0000
0001
0000
0000
0000
0100
0000
0010
0000
0100
0000
0000
0000
0001
0000
0000
0000
,  // measure 53
0010
0000
0100
1000
0100
0000
1000
0000
0001
0000
0000
0000
MMMM
0000
0000
0000
,  // measure 54
1000
0000
0001
0000
0010
0000
0100
0000
0010
0000
0001
1000
0001
0000
0010
0000
,  // measure 55
0001
0000
1000
0010
1000
0000
0010
0000
0100
0000
0001
0010
0200
0000
0300
0000
,  // measure 56
0000
0000
0010
0000
0001
0000
1000
0000
0010
0000
0100
0001
0010
0000
0001
0000
,  // measure 57
1000
0000
0100
1000
0010
0000
0100
0000
0001
0000
0000
0000
MMMM
0000
0000
0000
,  // measure 58
1000
0000
0001
0000
0010
0000
1000
0000
0010
0000
0100
0010
0001
0000
0010
0000
,  // measure 59
0001
0000
0100
0010
1000
0000
0001
0000
1000
0000
0010
0100
0010
0000
0000
0000
,  // measure 60
1001
0001
0010
0001
1000
0000
0000
0001
,  // measure 61
1000
0010
1000
0000
0000
1M1M
0000
M1M1
,  // measure 62
0000
0001
0010
0100
0010
0000
0000
0100
,  // measure 63
0010
0100
1000
0000
0000
1MM1
0000
M11M
,  // measure 64
0000
0010
1000
0001
0010
0100
0000
0100
,  // measure 65
0010
0001
1000
0000
0001
1000
0001
0020
,  // measure 66
0000
0130
0010
0200
0000
0310
0100
0020
,  // measure 67
0000
0000
0130
0000
0010
0000
0001
0000
1000
0010
0000
0100
0010
1000
0001
0010
,  // measure 68
0100
1000
0100
0001
0100
0000
0000
0001
,  // measure 69
0100
0010
0001
0000
0000
MM11
0000
1M1M
,  // measure 70
0000
1000
0010
0001
0010
0000
0000
1000
,  // measure 71
0010
0100
0001
0000
0000
M1M1
0000
1M1M
,  // measure 72
0000
1000
0100
0001
0100
0010
0000
0100
,  // measure 73
0001
0100
1000
0000
1000
0001
0010
2000
,  // measure 74
0000
3010
0001
2000
0000
3010
0100
0002
,  // measure 75
0000
0000
1003
0000
0100
0000
1000
0000
0010
1000
0000
0010
0100
0001
0010
0100
,  // measure 76
1000
0000
1000
0000
0000
0001
0000
0100
0010
0010
0100
0000
0000
0010
0000
0100
,  // measure 77
0001
0000
1000
0000
0000
0100
0000
1000
0010
0010
0100
0000
0000
0010
0100
0001
,  // measure 78
1000
0000
0100
0000
0000
0010
0000
0100
1000
1000
0001
0000
0000
1000
0000
0010
,  // measure 79
0100
0000
0100
0000
0000
0010
0000
1000
0001
0001
0010
0000
0000
0100
0010
0001
,  // measure 80
2002
0000
0000
0000
3003
0000
0000
0202
0000
0000
0000
0303
0000
0011
0000
2200
,  // measure 81
0000
0000
0000
0000
3300
0000
0000
2200
0000
0000
0000
0000
3300
0011
0000
2020
,  // measure 82
0000
0000
0000
0000
3030
0000
0000
2020
0000
0000
0000
0000
3030
0101
0000
0220
,  // measure 83
0000
0000
0000
0000
0330
0000
0000
0220
0000
0000
0000
0000
0330
0000
0000
0000
,  // measure 84
1001
0000
0000
0000
;
