#TITLE:ONIGOROSHI;
#SUBTITLE:;
#ARTIST:m1dy;
#TITLETRANSLIT:;
#SUBTITLETRANSLIT:;
#ARTISTTRANSLIT:;
#GENRE:TOKYO STYLE SPEEDCORE;
#CREDIT:;
#BANNER:banner.png;
#BACKGROUND:background.png;
#LYRICSPATH:;
#CDTITLE:cdtitle.png;
#MUSIC:ONIGOROSHI.mp3;
#OFFSET:-1.006000;
#SAMPLESTART:96.966057;
#SAMPLELENGTH:9.600006;
#SELECTABLE:YES;
#BPMS:0.000000=400.000000
;
#STOPS:
;
#BGCHANGES:;
#KEYSOUNDS:;
#ATTACKS:;

//---------------dance-single - ----------------
#NOTES:
     dance-single:
     :
     Hard:
     17:
     0.821389,1.170306,0.556425,0.282244,0.052417,713.000000,644.000000,69.000000,35.000000,0.000000,0.000000,0.821389,1.170306,0.556425,0.282244,0.052417,713.000000,644.000000,69.000000,35.000000,0.000000,0.000000:
// measure 0
0000
0000
0000
0000
,  // measure 1
0000
0000
0000
0000
,  // measure 2
0000
0000
0000
0000
,  // measure 3
0000
0000
0000
0000
,  // measure 4
0000
0000
0000
0000
,  // measure 5
0000
0000
0000
0000
,  // measure 6
0000
0000
0000
0000
,  // measure 7
0000
1000
0100
0100
,  // measure 8
1001
0000
0001
0000
,  // measure 9
1000
0000
0001
0000
,  // measure 10
0100
0000
0010
0000
,  // measure 11
0100
0000
0010
0000
,  // measure 12
1000
0000
0010
0000
,  // measure 13
0100
0000
0001
0000
,  // measure 14
1100
0000
0000
0110
0000
0000
0011
0000
,  // measure 15
0000
0101
1001
0000
,  // measure 16
1020
0000
0130
0000
,  // measure 17
0010
1000
0100
0000
,  // measure 18
0021
0000
0130
0000
,  // measure 19
0010
0001
1000
0000
,  // measure 20
0201
0000
0310
0000
,  // measure 21
0100
0001
1000
0000
,  // measure 22
1200
0000
0310
0000
,  // measure 23
0100
0010
0000
0001
0000
1000
0010
0000
,  // measure 24
0102
0000
0013
0000
,  // measure 25
0010
0100
1000
0000
,  // measure 26
2100
0000
3001
0000
,  // measure 27
0001
0100
0010
0000
,  // measure 28
1020
0000
0130
0000
,  // measure 29
0100
0010
1000
0000
,  // measure 30
1001
0000
0000
0000
,  // measure 31
0000
0000
0000
0000
,  // measure 32
0001
0010
0001
1000
,  // measure 33
0010
1000
0000
0010
0000
1000
0010
0000
,  // measure 34
0100
0001
0010
0100
,  // measure 35
0010
0001
0000
1000
0000
0010
1000
0000
,  // measure 36
0100
1000
0010
0100
,  // measure 37
0001
0010
0000
0001
0000
0010
0001
0000
,  // measure 38
0010
0001
1000
0010
,  // measure 39
0100
0001
0000
0010
0000
0100
1000
0000
,  // measure 40
0001
1000
0100
0010
,  // measure 41
0100
0010
0000
0100
0000
0010
0100
0000
,  // measure 42
0010
0001
1000
0010
,  // measure 43
1000
0010
0000
0100
0000
0001
0010
0000
,  // measure 44
0100
0010
0001
1000
,  // measure 45
0010
1000
0000
0010
0000
1000
0010
0000
,  // measure 46
0200
0000
0302
0000
,  // measure 47
0013
0100
0000
0100
0000
0100
0010
0000
,  // measure 48
0001
0100
0010
1000
,  // measure 49
0100
0010
0000
0100
0000
1000
0010
0000
,  // measure 50
0200
0000
0302
0000
,  // measure 51
0013
0001
0000
1000
0000
0100
0010
0000
,  // measure 52
0100
1000
0010
0100
,  // measure 53
0001
0100
0000
0010
0000
0100
0001
0000
,  // measure 54
2000
0000
3200
0000
,  // measure 55
0310
0100
0000
1000
0000
0010
0100
0000
,  // measure 56
0001
0000
1000
0001
,  // measure 57
0100
0000
0001
1000
,  // measure 58
0010
0000
1000
0001
,  // measure 59
0010
0000
0001
1000
,  // measure 60
0200
0000
0000
0000
,  // measure 61
0000
0000
0000
0000
,  // measure 62
0000
0000
0000
0000
,  // measure 63
0000
0000
0300
0000
,  // measure 64
0010
0000
0011
0000
,  // measure 65
0001
0000
0100
0000
0010
1000
0010
0000
,  // measure 66
1000
0000
1001
0000
,  // measure 67
0001
0000
0010
0000
0100
1000
0100
0000
,  // measure 68
1000
0000
1010
0000
,  // measure 69
0010
0000
0100
0000
0001
0100
0001
0000
,  // measure 70
0000
0000
0100
0000
0001
1000
0000
0100
,  // measure 71
1000
0000
0100
0010
0000
0001
0100
0000
,  // measure 72
0010
0000
0101
0000
,  // measure 73
0001
0000
1000
0000
0100
0010
0100
0000
,  // measure 74
0010
0000
0011
0000
,  // measure 75
0001
0000
0010
0000
0100
1000
0100
0000
,  // measure 76
1000
0000
1010
0000
,  // measure 77
0010
0000
0100
0000
0001
0010
0001
0000
,  // measure 78
0000
0000
0000
0000
,  // measure 79
2000
0001
0000
0001
3000
0010
0200
0000
,  // measure 80
1300
0100
0010
0100
,  // measure 81
1000
0000
0010
0000
0100
0000
0001
1000
,  // measure 82
0001
0010
0001
1000
,  // measure 83
0010
0000
0100
0000
0001
0000
0010
0001
,  // measure 84
0010
0001
1000
0100
,  // measure 85
0010
0000
0100
0000
1000
0000
0010
1000
,  // measure 86
0010
0100
0001
0010
,  // measure 87
0100
0000
0010
0000
0001
1000
0001
0000
,  // measure 88
1000
0000
0001
0000
0100
0000
0010
1000
,  // measure 89
0001
0000
0010
0000
0100
0000
1000
0100
,  // measure 90
0010
0000
0100
0000
1000
0000
0010
0100
,  // measure 91
0001
0000
0010
0000
0100
0000
0010
0001
,  // measure 92
1000
0000
0000
0000
1001
0000
0000
0000
0010
0000
0000
0000
,  // measure 93
1001
0000
0000
0000
0110
0000
0000
0000
1010
0000
0000
0000
,  // measure 94
0011
0000
0000
0000
,  // measure 95
0000
0000
0000
0000
,  // measure 96
0002
0000
0000
0000
,  // measure 97
0000
0000
0000
0000
,  // measure 98
2003
0000
0000
0000
,  // measure 99
0000
0000
0000
0000
,  // measure 100
3020
0000
0000
0000
,  // measure 101
0000
0000
0000
0000
,  // measure 102
2030
0000
0000
0000
,  // measure 103
0000
0000
0000
0000
,  // measure 104
3001
0000
0000
0001
0000
0000
1000
0000
,  // measure 105
0000
1000
0000
0000
0010
0000
0100
0000
,  // measure 106
0001
0000
0000
0001
0000
0000
0100
0000
,  // measure 107
0000
0100
0000
0000
0010
0000
1000
0000
,  // measure 108
0010
0000
0000
0010
0000
0000
1000
0000
,  // measure 109
0000
1000
0000
0000
0100
0000
1000
0000
,  // measure 110
0010
0000
0000
0010
0000
0000
0100
0000
,  // measure 111
0000
0100
0000
0000
2002
0000
3003
0000
,  // measure 112
0101
0000
0000
0011
0000
0000
0101
0000
,  // measure 113
0000
0011
0000
0000
0001
0000
1000
0000
,  // measure 114
1100
0000
0000
1010
0000
0000
1100
0000
,  // measure 115
0000
1010
0000
0000
1001
0000
0000
0000
,  // measure 116
1100
0000
0000
0110
0000
0000
1100
0000
,  // measure 117
0000
0110
0000
0000
0100
0000
0010
0000
,  // measure 118
0011
0000
0000
0110
0000
0000
0011
0000
,  // measure 119
0000
0110
0000
0000
1001
0000
0000
0000
,  // measure 120
0101
0000
0000
1010
0000
0000
0101
0000
,  // measure 121
0000
1010
0000
0000
1000
0000
0001
0000
,  // measure 122
0011
0000
0000
1100
0000
0000
0011
0000
,  // measure 123
0000
1100
0000
0000
1001
0000
0010
0000
,  // measure 124
1001
0000
0000
0110
0000
0000
1001
0000
,  // measure 125
0000
0110
0000
0000
0110
0000
0010
1000
,  // measure 126
0200
0000
0000
0000
,  // measure 127
0000
0300
0000
0000
,  // measure 128
0010
0001
0100
0010
,  // measure 129
1000
0001
0010
0100
,  // measure 130
0010
0001
1000
0010
,  // measure 131
1000
0000
0001
0000
0010
0000
0001
1000
,  // measure 132
0001
1000
0100
1000
,  // measure 133
0010
0000
1000
0000
0010
0000
0100
0001
,  // measure 134
0100
0000
0001
0000
0010
0000
0100
0010
,  // measure 135
0100
0000
1000
0000
0001
0000
1000
0001
,  // measure 136
1000
0010
1000
0001
,  // measure 137
0010
0100
0010
0001
,  // measure 138
1000
0100
1000
0001
,  // measure 139
0100
0000
0001
0000
0010
0000
0100
0010
,  // measure 140
0100
0010
0001
1000
,  // measure 141
0010
1000
0001
0100
,  // measure 142
0010
0100
0010
1000
0001
1000
0001
0010
,  // measure 143
0100
1000
0100
0010
0002
0000
0000
0000
,  // measure 144
1003
0001
1000
0000
0001
0000
1000
0001
,  // measure 145
1000
0000
0001
0000
1000
0001
0100
0000
,  // measure 146
0010
1000
0010
0000
1000
0000
0010
1000
,  // measure 147
0010
0000
1000
0000
0001
0100
0010
0000
,  // measure 148
1000
0001
1000
0000
0001
0000
1000
0001
,  // measure 149
1000
0000
0001
0000
0010
0100
1000
0000
,  // measure 150
0100
0010
0100
0000
0010
0000
0100
0010
,  // measure 151
0001
1000
0010
0100
0001
0000
0000
0000
,  // measure 152
1000
0000
0000
0100
0000
0000
0010
0000
0000
0100
0000
0000
1000
0000
0000
0001
,  // measure 153
0000
0000
0100
0000
0000
0010
0000
0000
1000
0000
0010
0000
0100
0000
0001
0000
,  // measure 154
0010
0000
0000
0100
0000
0000
1000
0000
0000
0100
0000
0000
1000
0000
0000
0010
,  // measure 155
0000
0000
0100
0000
0000
0001
0000
0000
0010
0000
0000
0100
0000
0000
1000
0000
,  // measure 156
0001
0000
0000
1010
0000
0000
0001
0000
,  // measure 157
0000
1100
0000
0000
0101
0000
1010
0000
,  // measure 158
2002
0000
0000
0000
,  // measure 159
3000
0000
0003
0000
,  // measure 160
1000
0010
1000
0010
0100
0000
0000
0000
,  // measure 161
0010
1000
0000
0001
0000
0010
0100
0000
,  // measure 162
0020
0000
0032
0000
,  // measure 163
0103
0001
0000
0010
0000
0100
1000
0000
,  // measure 164
0002
0000
2003
0000
,  // measure 165
3100
0010
0000
0100
0000
1000
0010
0000
,  // measure 166
0210
0000
0302
0000
,  // measure 167
0013
0100
0000
0010
0000
0001
1000
0000
,  // measure 168
0010
1000
0000
1000
0010
0000
0100
0000
,  // measure 169
0001
1000
0000
0100
0000
0010
0100
0000
,  // measure 170
1000
0001
0100
0001
0010
0100
0010
0001
,  // measure 171
1000
0100
0000
1000
0000
0010
0100
0000
,  // measure 172
0001
0000
1000
0001
1000
0000
0001
0000
,  // measure 173
0010
0001
0000
0100
0000
0010
1000
0000
,  // measure 174
0200
0000
2300
0000
,  // measure 175
3010
0100
0010
0100
0010
0100
0010
0100
,  // measure 176
0010
1000
0100
1000
,  // measure 177
0100
0010
0000
0001
0000
0100
0010
0000
,  // measure 178
1000
0001
0010
0100
,  // measure 179
0010
0001
0000
0100
0000
0010
1000
0000
,  // measure 180
0100
1000
0010
0100
,  // measure 181
0001
1000
0000
0010
0000
0100
0001
0000
,  // measure 182
0010
0000
0000
0010
0000
0000
0010
0000
,  // measure 183
0001
0010
0000
0100
0000
1000
0010
0000
,  // measure 184
0100
0000
0000
0000
0010
1000
0001
0000
,  // measure 185
0010
0000
0000
0000
0100
0010
0001
0000
,  // measure 186
1000
0000
0000
0000
0001
1000
0010
0000
,  // measure 187
0100
0010
0100
0010
1000
0001
0010
0100
,  // measure 188
2000
0000
0000
0000
,  // measure 189
0000
0000
0000
0000
,  // measure 190
0000
0000
0000
0000
,  // measure 191
0000
0000
0000
3000
,  // measure 192
1100
0000
0000
0110
0000
0000
0011
0000
,  // measure 193
0000
0101
1001
0000
;

//---------------dance-single - ----------------
#NOTES:
     dance-single:
     :
     Medium:
     15:
     0.647434,1.170306,0.435463,0.354822,0.016128,562.000000,508.000000,54.000000,44.000000,0.000000,0.000000,0.647434,1.170306,0.435463,0.354822,0.016128,562.000000,508.000000,54.000000,44.000000,0.000000,0.000000:
0000
0000
0000
0000
,
0000
0000
0000
0000
,
0000
0000
0000
0000
,
0000
0000
0000
0000
,
0000
0000
0000
0000
,
0000
0000
0000
0000
,
0000
0000
0000
0000
,
0000
1000
0001
0100
,
0110
0000
0100
0000
,
0010
0000
1000
0001
,
0010
0000
0100
0000
,
0010
0000
0001
0100
,
0010
0000
1000
0000
,
0001
0010
0100
1000
,
1100
0000
0000
0011
0000
0000
0101
0000
,
0000
0110
1001
0000
,
1200
0000
0310
0000
,
0100
1000
0010
0000
,
0210
0000
0301
0000
,
0010
0001
0100
0000
,
1002
0000
0013
0000
,
0100
1000
0010
0000
,
0210
0000
0301
0000
,
0010
0000
0000
0001
0000
0000
0100
0000
,
0210
0000
0301
0000
,
0010
0001
1000
0000
,
1200
0000
0310
0000
,
0100
1000
0010
0000
,
0210
0000
0301
0000
,
0100
0010
1000
0000
,
1001
0000
0000
0000
,
0000
0000
0000
0000
,
1000
0010
0100
0001
,
0010
0100
0010
0001
,
1000
0001
0100
0001
,
1000
0100
0010
0100
,
1000
0001
0010
0001
,
1000
0001
0100
0001
,
0010
0100
0010
0001
,
1000
0001
0000
0100
0000
0010
1000
0000
,
0100
0010
0100
1000
,
0010
0100
0001
0010
,
0001
0100
0010
1000
,
0001
0010
0100
0010
,
0001
0100
0010
1000
,
0001
0010
0100
1000
,
0200
0000
2300
0000
,
3001
0100
0000
0010
0000
1000
0001
0000
,
0020
0000
0230
0000
,
1300
0100
0000
0010
0000
0001
1000
0000
,
0020
0000
0000
0000
,
0130
0010
0000
1000
0000
0001
0010
0000
,
0200
0000
2300
0000
,
3001
0100
0000
0001
0000
0010
0100
0000
,
2000
0000
3002
0000
,
0103
0001
0000
0010
0000
0100
0010
0000
,
0001
0000
1001
0000
,
0100
0000
0110
0000
,
0010
0000
1001
0000
,
0100
0000
1001
0000
,
0020
0000
0000
0000
,
0000
0000
0000
0000
,
0000
0000
0000
0000
,
0000
0000
0030
0000
,
0100
0000
0001
0000
,
0010
0001
0100
0010
,
1000
0000
0001
0000
,
1000
0100
1000
0010
,
0100
0000
0010
0000
,
0100
0010
1000
0001
,
0000
0000
1000
0000
0000
0001
0000
1000
,
0001
0000
0100
0010
0000
0100
0000
0000
,
0010
0000
1000
0000
,
0010
0100
0001
1000
,
0100
0000
0010
0000
,
0100
1000
0010
0100
,
0001
0000
0010
0000
,
0100
0010
0001
1000
,
0100
0000
0000
0000
,
1000
0100
0000
0010
0000
0001
0100
0000
,
0010
1000
0010
1000
,
0010
1000
0010
1000
,
0001
0100
0001
0100
,
0001
0100
0001
0100
,
0001
0010
0001
0010
,
0001
0010
0001
0010
,
0100
1000
0100
1000
,
0100
1000
0100
1000
,
0010
0000
0100
0010
,
0110
0000
0100
0010
,
0110
0000
0010
0100
,
0110
0000
0100
0010
,
0110
0000
0000
0000
0010
0000
0000
0000
0001
0000
0000
0000
,
1000
0000
0000
0000
0010
0000
0000
0000
0100
0000
0000
0000
,
1001
0000
0000
0000
,
0000
0000
0000
0000
,
0002
0000
0000
0000
,
0000
0000
0000
0000
,
2003
0000
0000
0000
,
0000
0000
0000
0000
,
3002
0000
0000
0000
,
0000
0000
0000
0000
,
0200
0000
0000
0000
,
0000
0000
0303
0000
,
2000
0000
0000
0000
,
0000
0000
0000
0000
,
3002
0000
0000
0000
,
0000
0000
0000
0000
,
2003
0000
0000
0000
,
0000
0000
0000
0000
,
0020
0000
0000
0000
,
0000
0000
3030
0000
,
0001
0000
0000
0100
0000
0000
0010
0000
,
0000
1000
0000
0000
0010
0000
0100
0000
,
0001
0000
0000
1000
0000
0000
0100
0000
,
0000
0010
0000
0000
0110
0000
0000
0000
,
0100
0000
0000
0010
0000
0000
0100
0000
,
0000
1000
0000
0000
0010
0000
0100
0000
,
0001
0000
0000
0010
0000
0000
0001
0000
,
0000
1000
0000
0000
0110
0000
0000
0000
,
1000
0000
0000
0010
0000
0000
0100
0000
,
0000
0001
0000
0000
0010
0000
0001
0000
,
1000
0000
0000
0100
0000
0000
1000
0000
,
0000
0010
0000
0000
0100
0000
0010
0000
,
1000
0000
0000
0001
0000
0000
0010
0000
,
0000
0001
0000
0000
1000
0000
0001
0000
,
0101
0000
0000
0000
,
0000
0000
0000
0000
,
1000
0000
0001
0010
,
0000
0001
0100
0010
,
1000
0000
0100
1000
,
0000
0100
1000
0010
,
0100
0000
0010
1000
,
0000
0001
0010
0001
,
0100
0000
0001
1000
,
0001
0010
0110
0000
,
0010
0000
0001
0010
,
0000
0001
0100
0010
,
1000
0000
0001
0010
,
0000
0100
0010
0001
,
0100
0000
0010
1000
,
0000
0001
0010
0100
,
1000
0001
1000
0001
1000
0001
1000
0001
,
1000
0001
1000
0001
0020
0000
0000
0000
,
0130
0000
0000
1000
0000
0000
0010
0000
,
0000
0100
0000
0000
0010
0000
1000
0000
,
0001
0000
0000
0010
0000
0000
0100
0000
,
0000
0010
0000
0000
0100
0000
1000
0000
,
0001
0000
0000
0100
0000
0000
0010
0000
,
0000
1000
0000
0000
0001
0000
1000
0000
,
0100
0000
0000
0010
0000
0000
0100
0000
,
0010
0001
0100
0001
1000
0000
0000
0000
,
1001
0000
0000
1010
0000
0000
0011
0000
,
0000
0110
0000
0000
0100
0000
1000
0000
,
1010
0000
0000
0101
0000
0000
0011
0000
,
0000
0110
0000
0000
0100
0000
1000
0000
,
1001
0000
0000
1010
0000
0000
0101
0000
,
0000
0011
0000
0000
0110
0000
1100
0000
,
1010
0000
0000
0000
,
0000
0000
0000
0000
,
0100
0001
0100
0001
0100
0000
0000
0000
,
0001
0010
0100
1000
,
0002
0000
0203
0000
,
0310
1000
0100
0010
,
0002
0000
0023
0000
,
0130
0010
0001
1000
,
0200
0000
0320
0000
,
0130
1000
0000
0010
0000
0100
0001
0000
,
1000
0001
0000
1000
0001
0000
0100
0000
,
0010
0100
0001
0010
,
0002
0000
0000
0000
,
0103
0001
0010
0001
,
2000
0000
3200
0000
,
0310
0100
1000
0001
,
0201
0000
0320
0000
,
1030
0100
0010
0001
1000
0100
0010
0001
,
2000
0000
3200
0000
,
0310
0000
0000
0100
0000
0000
1000
0000
,
0002
0000
0203
0000
,
0310
0000
0000
1000
0000
0000
0100
0000
,
2000
0000
3020
0000
,
0130
0000
0000
0001
0000
0000
0010
0000
,
0110
0000
0000
0110
0000
0000
0110
0000
,
0100
0010
0000
0001
0000
0100
0010
0000
,
1000
0000
0001
1000
,
1010
0000
1000
0001
,
0011
0000
0001
1000
,
1010
0000
1000
0001
,
0020
0000
0000
0000
,
0000
0000
0000
0000
,
0000
0000
0000
0000
,
0030
0000
0000
0000
,
0011
0000
0000
1100
0000
0000
1010
0000
,
0000
0110
1001
0000
;

//---------------dance-single - ----------------
#NOTES:
     dance-single:
     :
     Easy:
     11:
     0.451591,0.702184,0.290309,0.274180,0.000000,392.000000,356.000000,36.000000,34.000000,0.000000,0.000000,0.451591,0.702184,0.290309,0.274180,0.000000,392.000000,356.000000,36.000000,34.000000,0.000000,0.000000:
0000
0000
0000
0000
,
0000
0000
0000
0000
,
0000
0000
0000
0000
,
0000
0000
0000
0000
,
0000
0000
0000
0000
,
0000
0000
0000
0000
,
0000
0000
0000
0000
,
0000
1000
0100
0010
,
0001
0000
0000
0000
,
1000
0000
0000
0000
,
0010
0000
0000
0000
,
0100
0000
0000
0000
,
0001
0000
0100
0000
,
0010
0000
1000
0000
,
2002
0000
0000
0000
,
0000
0000
3003
0000
,
0020
0000
1030
0000
,
0000
0000
0000
0000
,
0002
0000
0103
0000
,
0000
0000
0000
0001
,
0020
0000
0130
0000
,
0000
0000
0000
0000
,
2000
0000
3001
0000
,
1000
0000
0000
0001
0000
0000
0100
0000
,
0020
0000
1030
0000
,
0000
0000
0000
0000
,
0200
0000
0310
0000
,
0000
0000
0000
0001
,
2000
0000
3010
0000
,
0000
0000
0200
0000
,
0310
0000
0000
0000
,
0000
0000
0000
0000
,
2000
0000
3010
0000
,
0001
0100
0010
0000
,
2000
0000
3100
0000
,
0010
0001
0100
0000
,
0002
0000
1003
0000
,
0001
1000
0010
0000
,
0200
0000
0310
0000
,
0010
1000
0100
0010
,
0002
0000
1003
0000
,
0100
1000
0001
0000
,
0200
0000
0310
0000
,
0100
0001
0010
0000
,
0200
0000
1300
0000
,
0100
1000
0010
0000
,
0200
0000
0302
0000
,
1003
0000
0000
0000
,
0002
0000
0013
0000
,
0100
0010
0001
0000
,
0020
0000
0130
0000
,
0010
0100
1000
0000
,
0200
0000
1300
0000
,
0100
1000
0010
0000
,
0200
0000
0310
0000
,
0100
0001
1000
0000
,
0001
1000
0001
0000
,
1000
0010
1000
0000
,
0001
0100
0001
0000
,
0010
0001
0010
0000
,
0200
0000
0000
0000
,
0000
0000
0000
0000
,
0000
0000
0000
0000
,
0000
0000
0300
0000
,
0010
0000
0001
0000
,
0100
0001
0010
0000
,
0100
0000
1000
0000
,
0100
1000
0010
0000
,
0100
0000
0010
0000
,
0100
0010
1000
0000
,
0000
0001
1000
0100
,
0010
0001
0010
0100
,
1000
0000
0001
0000
,
0010
0100
1000
0000
,
0100
0000
1000
0000
,
0010
0100
0001
0000
,
0010
0000
0100
0000
,
0010
0001
0100
0000
,
0000
0000
0000
0000
,
0010
0000
0000
1000
0000
0000
0100
0000
,
0010
0000
0001
0000
,
0010
0001
0100
0010
,
1000
0000
0001
0000
,
0010
0001
1000
0100
,
0010
0000
0100
0000
,
0010
0100
1000
0010
,
0100
0000
0010
0000
,
0100
0001
0010
0100
,
1000
0000
0001
1000
,
0010
0000
0100
0001
,
0010
0000
0100
1000
,
0010
0000
0100
0001
,
2002
0000
0000
0000
,
0000
0000
0000
0000
,
3003
0000
0000
0000
,
0000
0000
0000
0000
,
0100
0000
0000
0000
,
0000
0000
0000
0000
,
0010
0000
0000
0000
,
0000
0000
0000
0000
,
1000
0000
0000
0000
,
0000
0000
0000
0000
,
0001
0000
0000
0000
,
0000
0000
0000
0000
,
1000
0000
0000
0000
,
0000
0000
0000
0000
,
0010
0000
0000
0000
,
0000
0000
0000
0000
,
0100
0000
0000
0000
,
0000
0000
0000
0000
,
0001
0000
0000
0000
,
0000
0000
0020
0000
,
0130
0000
0000
0011
,
0000
0000
1001
0000
,
1010
0000
0000
1001
,
0000
0000
0100
0000
,
1001
0000
0000
1100
,
0000
0000
0011
0000
,
1001
0000
0000
1010
,
0000
0000
1001
0000
,
0011
0000
0000
1001
,
0000
0000
1100
0000
,
1001
0000
0000
0011
,
0000
0000
1001
0000
,
1010
0000
0000
0011
,
0000
0000
1000
0001
,
0110
0000
0000
0000
,
0000
0000
0000
0000
,
0010
0000
0000
1000
,
0000
0000
0100
1000
,
0010
0000
0000
0100
,
0000
0000
0001
0010
,
0100
0000
0000
0010
,
0000
0000
0001
1000
,
0010
0000
0100
0000
,
0010
1000
0001
0000
,
0010
0000
0000
0100
,
0000
0000
0010
0001
,
0100
0000
0000
0010
,
0000
0000
1000
0001
,
0010
0000
0000
0100
,
0000
0000
0010
0000
,
0001
0010
0100
1000
,
0100
0010
0001
0000
,
1000
0000
0000
1001
,
0000
0000
0100
0001
,
0010
0000
0000
0110
,
0000
0000
0100
1000
,
0010
0000
0000
0101
,
0000
0000
0001
0010
,
0100
0000
0010
0000
,
0001
0010
0100
0000
,
0110
0000
0000
0011
,
0000
0000
0001
0010
,
0110
0000
0000
1100
,
0000
0000
1000
0001
,
1001
0000
0000
0001
0000
0000
1000
0000
,
0000
0010
0000
0000
0100
0000
0010
0000
,
1001
0000
0000
0000
,
0000
0000
0000
0000
,
1000
0010
0100
0000
,
0010
0000
1000
0000
,
0100
0010
0001
0000
,
0010
0000
0100
0000
,
0010
0001
1000
0000
,
0001
0000
0100
0000
,
0010
1000
0001
0000
,
0010
0000
0000
0100
0000
0000
0010
0000
,
0001
0000
1000
0000
,
0001
1000
0010
0000
,
0200
0000
0000
0000
,
0310
0000
1000
0000
,
0001
0010
0100
0000
,
0010
0000
0001
0000
,
2000
0000
3002
0000
,
0003
0000
0000
0000
,
0210
0000
0301
0000
,
0010
0100
1000
0000
,
1200
0000
0310
0000
,
0100
1000
0001
0000
,
0201
0000
0310
0000
,
0001
1000
0100
0000
,
0011
0000
0000
1010
,
0010
0100
0001
1000
,
0001
0000
1000
0001
,
0010
0000
0001
1000
,
0010
0000
1000
0001
,
0100
0000
0001
1000
,
0200
0000
0000
0000
,
0000
0000
0000
0000
,
0300
0000
0000
0000
,
0000
0000
0000
0000
,
1000
0000
0000
0010
0000
0000
0100
0000
,
0000
0001
1001
0000
;

//---------------dance-single - ----------------
#NOTES:
     dance-single:
     :
     Beginner:
     7:
     0.247684,0.624163,0.169347,0.000000,0.000000,215.000000,194.000000,21.000000,0.000000,0.000000,0.000000,0.247684,0.624163,0.169347,0.000000,0.000000,215.000000,194.000000,21.000000,0.000000,0.000000,0.000000:
0000
0000
0000
0000
,
0000
0000
0000
0000
,
0000
0000
0000
0000
,
0000
0000
0000
0000
,
0000
0000
0000
0000
,
0000
0000
0000
0000
,
0000
0000
0000
0000
,
0000
0000
0000
0000
,
0000
0000
0000
0000
,
0000
0000
0000
0000
,
0000
0000
0000
0000
,
0000
0000
0000
0000
,
0000
0000
0000
0000
,
0000
0000
0000
0000
,
0110
0000
0000
0000
,
0000
0000
0000
0000
,
1000
0000
0000
0000
,
0000
0000
0000
0000
,
1000
0000
0000
0000
,
0000
0000
0000
0000
,
0001
0000
0000
0000
,
0000
0000
0000
0000
,
0001
0000
0000
0000
,
0000
0000
0000
0000
,
0100
0000
0000
0000
,
0000
0000
0000
0000
,
0100
0000
0000
0000
,
0000
0000
0000
0000
,
0010
0000
0000
0000
,
0000
0000
0000
0000
,
0110
0000
0000
0000
,
0000
0000
0000
0000
,
1000
0000
0000
0000
,
0001
0000
0000
0000
,
1000
0000
0000
0000
,
0010
0000
0000
0000
,
1000
0000
0000
0000
,
0100
0000
0000
0000
,
1000
0000
0000
0000
,
0001
0000
0000
0000
,
0100
0000
0000
0000
,
0001
0000
0000
0000
,
0010
0000
0000
0000
,
0001
0000
0000
0000
,
1000
0000
0000
0000
,
0100
0000
0000
0000
,
1000
0000
0000
0000
,
0110
0000
0000
0000
,
1001
0000
0000
0000
,
0001
0000
0000
0000
,
1000
0000
0000
0000
,
0010
0000
0000
0000
,
1000
0000
0000
0000
,
0100
0000
0000
0000
,
1000
0000
0000
0000
,
0001
0000
0000
0000
,
1000
0000
0000
0000
,
1000
0000
0000
0000
,
1000
0000
0000
0000
,
1000
0000
0000
0000
,
1000
0000
0000
0000
,
0000
0000
0000
0000
,
0000
0000
0000
0000
,
0000
0000
0000
0000
,
0010
0000
0000
0000
,
0000
0000
1000
0000
,
0001
0000
0000
0000
,
0000
0000
0010
0000
,
0001
0000
0000
0000
,
0000
0000
0100
0000
,
0010
0000
0000
0000
,
1000
0000
0000
0000
,
0001
0000
0000
0000
,
0000
0000
1000
0000
,
0010
0000
0000
0000
,
0000
0000
1000
0000
,
0100
0000
0000
0000
,
0000
0000
0010
0000
,
0001
0000
0000
0000
,
1001
0000
0000
0000
,
0001
0000
0000
0000
,
0001
0000
0000
0000
,
1000
0000
0000
0000
,
1000
0000
0000
0000
,
0010
0000
0000
0000
,
0010
0000
0000
0000
,
0100
0000
0000
0000
,
0100
0000
0000
0000
,
1001
0000
0000
0000
,
0110
0000
0000
0000
,
1001
0000
0000
0000
,
0110
0000
0000
0000
,
1001
0000
0000
0000
,
0000
0000
0000
0000
,
0000
0000
0000
0000
,
0000
0000
0000
0000
,
0010
0000
0000
0000
,
0000
0000
0000
0000
,
1000
0000
0000
0000
,
0000
0000
0000
0000
,
0100
0000
0000
0000
,
0000
0000
0000
0000
,
0010
0000
0000
0000
,
0000
0000
0000
0000
,
0001
0000
0000
0000
,
0000
0000
0000
0000
,
0100
0000
0000
0000
,
0000
0000
0000
0000
,
0010
0000
0000
0000
,
0000
0000
0000
0000
,
1000
0000
0000
0000
,
0000
0000
0000
0000
,
1001
0000
0000
0001
,
0000
0000
0001
0000
,
0001
0000
0000
0001
,
0000
0000
0001
0000
,
1000
0000
0000
1000
,
0000
0000
1000
0000
,
1000
0000
0000
1000
,
0000
0000
1000
0000
,
0010
0000
0000
0010
,
0000
0000
0010
0000
,
0010
0000
0000
0010
,
0000
0000
0010
0000
,
0100
0000
0000
0100
,
0000
0000
0100
0000
,
0100
0000
0000
0000
,
0000
0000
0000
0000
,
0010
0000
0000
1000
,
0000
0000
0100
0000
,
0010
0000
0000
0100
,
0000
0000
1000
0000
,
0001
0000
0000
0100
,
0000
0000
0001
0000
,
0010
0000
0000
0001
,
0000
0000
1000
0000
,
0001
0000
0000
0100
,
0000
0000
0001
0000
,
0010
0000
0000
0001
,
0000
0000
1000
0000
,
0001
0000
0000
0100
,
0000
0000
0010
0000
,
1000
0001
1000
0001
,
1000
0001
1000
0000
,
0001
0000
0000
0001
,
0000
0000
1000
0000
,
0001
0000
0000
0001
,
0000
0000
1000
0000
,
0010
0000
0000
0010
,
0000
0000
1000
0000
,
0100
0000
0000
0100
,
0010
0000
0001
0000
,
0110
0000
0000
0110
,
0000
0000
0001
0000
,
1001
0000
0000
1001
,
0000
0000
0001
0000
,
1001
0000
0000
0110
,
0000
0000
1001
0000
,
1001
0000
0000
0000
,
0000
0000
0000
0000
,
0001
0001
0001
0000
,
1000
0000
0000
0000
,
0010
0000
1000
0000
,
0100
0000
0000
0000
,
0010
0000
0001
0000
,
1000
0000
0000
0000
,
1001
0000
0001
0000
,
1000
0000
0000
0000
,
0010
0000
1000
0000
,
0100
0000
0000
0000
,
0010
0010
0010
0000
,
0100
0000
0000
0000
,
0010
0000
0001
0000
,
1000
0000
0000
0000
,
0001
0000
1000
0000
,
0000
0000
0000
0000
,
0010
0000
1000
0000
,
0001
0000
0000
0000
,
0010
0000
0100
0000
,
1000
0000
0000
0000
,
0100
0000
1000
0000
,
0010
0000
0000
0000
,
0110
0000
0000
0000
,
0100
0000
0000
0000
,
0010
0000
0000
0000
,
1000
0000
0000
0000
,
0001
0000
0000
0000
,
0100
0000
0000
0000
,
0001
0000
0000
0000
,
0000
0000
0000
0000
,
0000
0000
0000
0000
,
0000
0000
0000
0000
,
0001
0000
0000
1000
0000
0000
0001
0000
,
0000
1000
0001
0000
;

//---------------dance-single - ----------------
#NOTES:
     dance-single:
     :
     Challenge:
     18:
     0.983823,1.326347,0.838669,0.677387,0.052417,854.000000,750.000000,104.000000,84.000000,0.000000,0.000000,0.983823,1.326347,0.838669,0.677387,0.052417,854.000000,750.000000,104.000000,84.000000,0.000000,0.000000:
// measure 0
0000
0000
0000
0000
,  // measure 1
0000
0000
0000
0000
,  // measure 2
0000
0000
0000
0000
,  // measure 3
0000
0000
0000
0000
,  // measure 4
0000
0000
0000
0000
,  // measure 5
0000
0000
0000
0000
,  // measure 6
0000
0000
0000
0000
,  // measure 7
0000
1010
1100
1100
,  // measure 8
1001
0000
0001
0000
,  // measure 9
0100
0010
0000
0010
1000
0000
0001
0000
,  // measure 10
1000
0000
1000
0000
,  // measure 11
1000
0001
0000
0001
0010
0000
0100
0000
,  // measure 12
0010
0001
0100
0010
,  // measure 13
1000
0100
0010
0001
,  // measure 14
0011
0000
0000
1100
0000
0000
1010
0000
,  // measure 15
0000
0010
1001
0000
,  // measure 16
1200
0000
0310
0000
,  // measure 17
0001
0010
0000
0200
0000
1300
0001
0000
,  // measure 18
1020
0000
0130
0000
,  // measure 19
0010
1000
0000
0200
0000
0310
0001
0000
,  // measure 20
2001
0000
3100
0000
,  // measure 21
0010
0100
0000
0020
0000
0031
0100
0000
,  // measure 22
1020
0000
0130
0000
,  // measure 23
0010
1000
0000
1010
0000
1000
0001
0000
,  // measure 24
1002
0000
0103
0000
,  // measure 25
0001
0010
0000
0200
0000
0310
0001
0000
,  // measure 26
2001
0000
3010
0000
,  // measure 27
0100
0010
0000
2000
0000
3100
0010
0000
,  // measure 28
0021
0000
0130
0000
,  // measure 29
0100
1000
0000
0010
0000
0100
0001
1000
,  // measure 30
1001
0000
0000
0000
,  // measure 31
0000
0000
0000
0000
,  // measure 32
0001
0100
0010
1000
,  // measure 33
0100
1000
0000
0020
0000
0130
0001
0000
,  // measure 34
1000
0100
1000
0010
,  // measure 35
0100
0001
0000
0020
0000
0031
0010
0000
,  // measure 36
0100
0010
0001
1000
,  // measure 37
0001
1000
0000
0200
0000
0310
0100
0000
,  // measure 38
2000
0000
3002
0000
,  // measure 39
0103
0010
0000
1001
0000
1000
0100
0000
,  // measure 40
0011
0010
0001
0100
,  // measure 41
0010
1000
0000
0200
0000
0310
0001
0000
,  // measure 42
1000
0001
0100
0001
,  // measure 43
0010
0100
0000
2000
0000
3100
1000
0000
,  // measure 44
0100
1000
0010
0100
,  // measure 45
0001
1000
0000
0002
0000
0013
0001
0000
,  // measure 46
0020
0000
0230
0000
,  // measure 47
1300
1100
0000
0101
0000
0010
0110
0000
,  // measure 48
1001
1000
0001
0010
,  // measure 49
0100
0010
0000
0021
0000
0130
1000
0000
,  // measure 50
0100
1000
0010
0100
,  // measure 51
0010
1000
0000
0201
0000
0310
1000
0000
,  // measure 52
0001
0010
0001
1000
,  // measure 53
0100
0010
0000
0021
0000
0130
1000
0000
,  // measure 54
0100
1000
0010
0100
,  // measure 55
0001
1000
0000
1020
0000
1030
0100
0000
,  // measure 56
0010
0000
0000
0000
0001
1000
0001
1000
,  // measure 57
0020
0000
0000
0000
1030
0001
1000
0001
,  // measure 58
0020
0000
0000
0000
0031
1000
0001
1000
,  // measure 59
0020
0000
0000
0000
1030
0001
1000
0001
,  // measure 60
0200
0000
0000
0000
,  // measure 61
0000
0000
0000
0000
,  // measure 62
0000
0000
0000
0000
,  // measure 63
0000
0000
0000
0000
0310
1000
0002
0000
,  // measure 64
0013
0000
0100
0010
0001
0000
0010
0100
,  // measure 65
0000
0100
1000
0000
0100
1000
0010
0100
,  // measure 66
0001
0000
1000
0001
0010
0000
0100
0010
,  // measure 67
0000
0100
1000
0000
0100
1000
0010
0100
,  // measure 68
0001
0000
1000
0001
0010
0000
0100
0010
,  // measure 69
0000
0001
0100
0000
0010
1000
0001
0010
,  // measure 70
0000
0100
0000
1000
0010
0100
0010
1000
,  // measure 71
0001
0010
0000
0100
0010
0000
0001
0000
,  // measure 72
1000
0000
0010
0100
0001
0000
1000
0100
,  // measure 73
0000
0010
0100
0000
0010
0001
0100
0010
,  // measure 74
1000
0000
0100
1000
0100
0000
1000
0010
,  // measure 75
0000
0100
0010
0000
0100
0010
1000
0001
,  // measure 76
0010
0000
0100
0010
0001
0000
0010
0100
,  // measure 77
0000
0010
0001
0000
0100
0010
1000
0001
,  // measure 78
0010
0000
0000
0000
,  // measure 79
0100
0110
0000
1001
0000
1000
1001
0000
,  // measure 80
1000
0010
1000
0000
1000
0001
1000
0000
,  // measure 81
1000
0100
1000
0000
1000
0001
1000
0000
,  // measure 82
0001
0100
0001
0000
0001
1000
0001
0000
,  // measure 83
0001
0010
0001
0000
0001
1000
0001
0000
,  // measure 84
1000
0010
1000
0000
0010
0100
0010
0000
,  // measure 85
0100
0001
0100
0000
0001
0010
0001
0000
,  // measure 86
0010
0100
0000
1000
0100
0000
1000
0010
,  // measure 87
0100
0010
1000
0001
0000
1000
0100
0010
,  // measure 88
0200
0000
0000
0000
1300
0001
1000
0001
,  // measure 89
0200
0000
0000
0000
0301
1000
0001
1000
,  // measure 90
0200
0000
0000
0000
1300
0001
1000
0001
,  // measure 91
0200
0000
0000
0000
0301
1000
0001
1000
,  // measure 92
1100
0000
0000
0000
0110
0000
0000
0000
0011
0000
0000
0000
,  // measure 93
0110
0000
0000
0000
1100
0000
0000
0000
1010
0000
0000
0000
,  // measure 94
1001
0000
0000
0000
,  // measure 95
0000
0000
0000
0000
,  // measure 96
0002
0000
0000
0000
,  // measure 97
0000
0000
0000
0000
,  // measure 98
0203
0000
0000
0000
,  // measure 99
0000
0000
0000
0000
,  // measure 100
2300
0000
0000
0000
,  // measure 101
0000
0000
0000
0000
,  // measure 102
3020
0000
0000
0000
,  // measure 103
0000
0000
0000
0000
,  // measure 104
0032
0000
0000
0000
,  // measure 105
0000
0000
0000
0000
,  // measure 106
0203
0000
0000
0000
,  // measure 107
0000
0000
0000
0000
,  // measure 108
2300
0000
0000
0000
,  // measure 109
0000
0000
0000
0000
,  // measure 110
3002
0000
0000
0000
,  // measure 111
0000
0000
2003
3000
,  // measure 112
1100
0000
0000
1100
0000
0000
1100
0000
,  // measure 113
0000
1100
0000
0000
0110
0000
0010
0001
,  // measure 114
0011
0000
0000
0011
0000
0000
0011
0000
,  // measure 115
0000
0011
0000
0000
1001
0000
0000
0000
,  // measure 116
0101
0000
0000
0101
0000
0000
0101
0000
,  // measure 117
0000
0101
0000
0000
0110
0000
0100
0010
,  // measure 118
0110
0000
0000
0110
0000
0000
0110
0000
,  // measure 119
0000
0110
0000
0000
0110
0000
0000
0000
,  // measure 120
1010
0000
0000
1010
0000
0000
1010
0000
,  // measure 121
0000
1010
0000
0000
1100
0000
1000
0001
,  // measure 122
0101
0000
0000
0101
0000
0000
0101
0000
,  // measure 123
0000
0101
0000
0000
1001
0000
0001
1000
,  // measure 124
1001
0000
0000
0110
0000
0000
1001
0000
,  // measure 125
0000
0110
0000
0000
0110
0000
1000
0001
,  // measure 126
2001
0000
0000
0000
,  // measure 127
0000
0000
3000
0000
,  // measure 128
0001
0100
0001
0000
0100
0000
0010
0100
,  // measure 129
0010
0000
1000
0000
0010
1000
0010
0000
,  // measure 130
1000
0100
1000
0000
0100
0000
0010
0100
,  // measure 131
0010
0000
0100
0000
1000
0010
0100
0000
,  // measure 132
0010
1000
0010
0000
0100
0000
0001
0100
,  // measure 133
0001
0000
0010
0000
0100
1000
0100
0000
,  // measure 134
1000
0001
1000
0000
0001
0000
0100
0010
,  // measure 135
0100
0000
0010
0000
1000
0100
0010
0001
,  // measure 136
1000
0001
0010
0000
0100
0000
0010
0001
,  // measure 137
0100
0000
0010
0000
1000
0001
0010
0000
,  // measure 138
0100
0010
0001
0000
0010
0000
0001
0100
,  // measure 139
0010
0000
1000
0000
0010
0100
0010
0000
,  // measure 140
0100
0010
1000
0000
0001
0000
0010
0100
,  // measure 141
1000
0000
0100
0000
1000
0001
0100
0010
,  // measure 142
2000
3200
0302
0203
2300
3020
0032
0023
,  // measure 143
0230
0302
0023
0230
2300
0000
0000
0000
,  // measure 144
3001
0100
0001
0100
0001
0100
0001
0100
,  // measure 145
0001
0100
0001
0100
0001
0000
0000
0000
,  // measure 146
1000
0010
1000
0010
1000
0010
1000
0010
,  // measure 147
1000
0010
1000
0010
1000
0000
0000
0000
,  // measure 148
0001
1000
0001
1000
0001
1000
0001
1000
,  // measure 149
0001
1000
0001
1000
0001
0000
0000
0000
,  // measure 150
0010
0100
0010
0100
0010
0100
0010
0100
,  // measure 151
0010
1000
0001
0010
0100
0000
0000
0000
,  // measure 152
1000
0000
0000
0100
0000
0000
0010
0000
0000
0001
0000
0000
0010
0000
0000
0001
,  // measure 153
0000
0000
0100
0000
0000
1000
0000
0000
0100
0000
0010
0000
1000
0000
0001
0000
,  // measure 154
0000
1000
0000
0000
0100
0000
0000
0010
0000
0000
0100
0000
0000
1000
0000
0000
,  // measure 155
0001
0000
0000
0010
0000
0000
1000
0000
0000
0010
0000
0000
0001
0000
0000
0000
,  // measure 156
1001
0000
0000
0101
0000
0000
1001
0000
,  // measure 157
0000
1100
0000
0000
0110
0000
1001
0000
,  // measure 158
0110
0000
0000
0000
,  // measure 159
0020
0030
0200
0302
2003
0002
3003
0000
,  // measure 160
0001
0010
0001
0100
0020
0000
0000
0000
,  // measure 161
0130
0001
0000
0021
0000
0130
1000
0000
,  // measure 162
1002
0000
0203
0000
,  // measure 163
0310
1000
0000
1200
0000
0310
0100
0000
,  // measure 164
2100
0000
3020
0000
,  // measure 165
0130
0001
0000
0010
0000
0100
1000
0000
,  // measure 166
2001
0000
3002
0000
,  // measure 167
0103
0001
0000
0021
0000
0130
1000
0000
,  // measure 168
1001
1000
0000
0001
0200
0000
0000
0000
,  // measure 169
0310
1000
0000
1020
0000
0130
0001
0000
,  // measure 170
1000
0100
0010
0001
1000
0100
0010
0001
,  // measure 171
1000
0001
0000
0201
0000
0310
1000
0000
,  // measure 172
0100
0000
0010
0001
0100
0000
0010
0000
,  // measure 173
1000
0001
0000
0021
0000
0130
1000
0000
,  // measure 174
0021
0000
0230
0000
,  // measure 175
1300
0100
0010
0001
1000
0100
0010
0001
,  // measure 176
1000
0001
0010
0100
,  // measure 177
0010
0001
0000
0021
0000
0130
1000
0000
,  // measure 178
0001
0100
1000
0100
,  // measure 179
0010
1000
0000
2010
0000
3100
0010
0000
,  // measure 180
0100
0010
0001
1000
,  // measure 181
0010
1000
0000
0201
0000
0310
1000
0000
,  // measure 182
1001
0000
0000
0011
0000
0000
1001
0000
,  // measure 183
1000
0010
0000
0201
0000
0310
1000
0000
,  // measure 184
1001
0000
0000
0000
1000
0001
1000
0001
,  // measure 185
0010
0001
1000
0001
1000
0001
0010
0001
,  // measure 186
1000
0001
1000
0001
1000
0001
0010
0001
,  // measure 187
1000
0001
1000
0001
1000
0001
1000
0001
,  // measure 188
0200
0000
0000
0000
,  // measure 189
0000
0000
0000
0000
,  // measure 190
0000
0000
0000
0000
,  // measure 191
0000
0000
0000
0000
0000
0000
0000
0300
,  // measure 192
1001
0000
0000
0110
0000
0000
1001
0000
,  // measure 193
0000
0110
1001
0000
;
