#TITLE:Nightmoves;
#SUBTITLE:;
#ARTIST:Playmaker;
#TITLETRANSLIT:;
#SUBTITLETRANSLIT:;
#ARTISTTRANSLIT:;
#GENRE:NIGHT CLUB;
#CREDIT:;
#BANNER:banner.png;
#BACKGROUND:background.png;
#LYRICSPATH:;
#CDTITLE:cdtitle.png;
#MUSIC:Nightmoves.ogg;
#OFFSET:-0.220000;
#SAMPLESTART:7.584615;
#SAMPLELENGTH:14.769230;
#SELECTABLE:YES;
#BPMS:0.000000=130.000000
;
#STOPS:
;
#BGCHANGES:;
#KEYSOUNDS:;
#ATTACKS:;

//---------------dance-single - ----------------
#NOTES:
     dance-single:
     :
     Hard:
     13:
     0.568028,0.583859,0.167615,0.046560,0.717019,427.000000,409.000000,18.000000,5.000000,0.000000,0.000000,0.568028,0.583859,0.167615,0.046560,0.717019,427.000000,409.000000,18.000000,5.000000,0.000000,0.000000:
0000
0000
0000
0000
,
0000
0000
0000
0000
,
0000
0000
0000
0000
,
0000
0000
0000
0000
,
1000
0000
0001
1000
0000
0100
0010
0000
0000
0000
0100
1000
0000
0010
0100
0000
,
0000
0000
0001
0010
0000
0100
0010
0000
0000
0000
0100
1000
0000
0100
0010
0000
,
0000
0000
0010
0001
0000
0100
0010
0000
0000
0000
0100
0001
0000
0010
0100
0000
,
0000
0000
0010
0001
0000
1000
0010
0000
0100
0001
0000
0001
0000
0001
0010
0000
,
0100
0000
0010
0100
0000
1000
0010
0000
0000
0000
0100
0001
0000
0010
0100
0000
,
0000
0000
0100
1000
0000
1000
0100
0000
0000
0000
0100
1000
0000
1000
0010
0000
,
0000
0000
0010
0100
0000
0100
0001
0000
0000
0000
0001
1000
0000
1000
0001
0000
,
0000
0000
0001
0100
0000
0100
0010
0000
0010
0100
0000
0100
0000
0100
0010
0000
,
1000
0000
0001
0010
0000
0100
1000
0000
0001
0100
0000
0010
0000
1000
0100
0000
,
0010
0000
0100
1000
0000
0100
0010
0000
0001
0100
0000
1000
0000
0100
0001
0000
,
1000
0100
0000
0001
0000
0001
0100
0000
0100
0010
0000
0001
0000
0100
1000
0000
,
0100
0001
0000
0010
0000
0100
1000
0000
0001
0010
0000
1000
0000
0010
0001
0000
,
1001
0000
1000
0000
0100
0000
0010
0000
0100
1000
0000
0010
0000
0100
0001
0000
,
1000
0000
0001
0010
0000
0000
0100
0000
0010
0001
0000
0100
0000
0001
1000
0000
,
0100
0000
1000
0000
0010
0000
0100
0000
0010
1000
0000
0001
0000
0010
0100
0000
,
0010
0000
0001
0100
0000
0000
0001
0000
1000
0100
0000
1000
0000
0010
0100
0000
,
0001
0000
0010
0000
0001
0000
1000
0000
0100
1000
0000
0010
0000
0100
0001
0000
,
1000
0000
0001
0010
0000
0000
0100
0000
0010
0001
0000
0100
0000
0010
1000
0000
,
0001
0000
1000
0000
0100
0000
0010
0000
0100
1000
0000
0010
0000
0100
0001
0000
,
0101
1100
1010
0011
,
1001
0000
0001
0000
0100
0000
1000
0000
1000
0100
0000
0010
0000
1000
0010
0000
,
1000
0000
0100
0010
0000
0000
0100
0000
0010
0001
0000
0100
0000
1000
0100
0000
,
0010
0000
1000
0000
0010
0000
0001
0000
0010
0100
0000
0001
0000
0010
0100
0000
,
0010
0000
0001
0010
0000
0000
0100
0000
1000
0100
0000
0001
0000
0100
0010
0000
,
0100
0000
1000
0000
0010
0000
0001
0000
0010
0100
0000
0001
0000
0010
0100
0000
,
0010
0000
0001
0100
0000
0001
1000
0000
0100
1000
0000
0010
0000
0001
0010
0000
,
0100
0000
0010
0000
1000
0000
0001
0000
0010
0100
0000
1000
0000
0100
0010
0000
,
1001
0110
1001
0110
,
2000
0000
0010
0000
,
0001
0000
0100
0000
,
3002
0000
0010
0000
,
0100
0000
1000
0000
,
0003
0000
0100
0010
0000
0100
0010
0000
0000
0000
1000
0001
0000
1000
0001
0000
,
0000
0000
0001
0010
0000
0001
0010
0000
0000
0000
1000
0100
0000
1000
0100
0000
,
0000
0000
1000
0001
0000
1000
0001
0000
0000
0000
0001
0100
0000
0001
0100
0000
,
0000
0000
0010
1000
0000
0010
2000
0000
0000
0000
0000
0000
0000
0000
0000
0000
,
3100
0000
0010
0001
0100
0000
0010
0000
1000
0001
0000
0100
0000
0010
0100
0000
,
0001
0000
1000
0100
0000
0010
0100
0000
1000
0010
0000
0100
0000
0001
1000
0000
,
0100
0000
0010
0100
1000
0000
0001
0000
0010
0001
0000
0100
0000
0010
1000
0000
,
0001
0000
1000
0001
0100
0000
0001
0000
0010
0100
0000
0010
0000
0001
0100
0000
,
0001
0000
1000
0010
0100
0000
0010
0000
1000
0001
0000
0010
0000
0100
0010
0000
,
0100
0000
1000
0100
0000
1000
0010
0000
0100
0010
0000
1000
0000
0001
0010
0000
,
0100
0000
0010
0001
1000
0000
0010
0000
1000
0010
0000
0100
0000
0010
1000
0000
,
0001
0000
1000
0100
0000
0010
0100
0000
0010
0001
0000
1000
0000
0010
0100
0000
,
0001
1000
0100
0100
1000
0001
0010
0010
,
0001
0010
0100
0100
1000
0010
0100
0100
,
0010
0100
0001
0001
0100
0010
1000
1000
,
0100
0010
0001
0001
0010
0100
1000
1000
,
0001
0000
1000
1001
0000
0000
0001
0101
,
0000
0000
1000
1010
0000
0000
1000
1100
,
0000
0000
0001
0011
0000
0000
0001
0101
,
0000
0000
0100
0110
0100
0000
0010
0000
,
2002
0000
0000
0000
,
3003
0000
0000
0000
;

//---------------dance-single - ----------------
#NOTES:
     dance-single:
     :
     Medium:
     8:
     0.336560,0.424625,0.325918,0.111743,0.000000,253.000000,218.000000,35.000000,12.000000,0.000000,0.000000,0.336560,0.424625,0.325918,0.111743,0.000000,253.000000,218.000000,35.000000,12.000000,0.000000,0.000000:
0000
0000
0000
0000
,
0000
0000
0000
0000
,
0000
0000
0000
0000
,
0000
0000
0000
0000
,
1000
0100
0010
0001
0000
0000
0010
0100
,
0000
0000
0100
1000
0000
0000
1000
0001
,
0000
0000
0001
0100
0000
0000
0100
0010
,
0000
0000
0010
1000
0001
0000
1001
0000
,
1000
0100
0010
0100
0000
0000
0010
0001
,
0000
0000
0010
0100
0000
0000
0100
1000
,
0000
0000
0100
0010
0000
0000
0100
1000
,
0000
0000
1000
0010
0100
0000
0110
0000
,
0020
0000
0000
0030
,
0200
0000
0310
0000
,
0010
0000
0010
0000
,
0010
0000
0010
0000
,
1000
0000
1001
0000
0001
0100
0010
0000
,
1000
0000
1010
0000
1000
0010
0100
0010
,
1000
0000
1001
0000
0001
0010
0100
0000
,
0010
0000
0011
0000
0001
0010
0001
0010
,
0100
0000
0110
0000
0100
1000
0010
0000
,
0100
0000
0101
0000
0001
0100
0001
1000
,
0100
0000
1100
0000
0100
1000
0010
0000
,
1010
0101
1010
0101
,
0001
1000
0010
0000
1000
0000
1010
0000
,
1000
0100
0010
0000
0100
0000
1100
0000
,
0100
1000
0010
0000
0100
0000
0101
0000
,
0001
0010
0100
0000
0010
0000
0110
0000
,
0010
0001
0100
0000
0001
0000
1001
0000
,
1000
0001
0100
0000
0010
0000
1010
0000
,
1000
0010
0100
0000
0001
0000
0011
0000
,
1100
0101
1100
0101
,
2000
0000
0000
3000
,
0020
0000
0000
0030
,
0200
0000
0000
0300
,
0002
0000
0000
0003
,
2000
0000
0000
3000
,
0020
0000
0000
0030
,
0200
0000
0000
0300
,
0002
0000
0000
0003
,
1000
0000
1001
0000
0001
0100
0010
1000
,
0001
0000
1001
0000
1000
0100
0010
0100
,
1000
0000
1001
0000
0001
0100
0010
1000
,
0001
0000
1001
0000
1000
0100
0001
0100
,
1000
0000
1100
0000
1000
0010
0100
0010
,
1000
0000
1010
0000
1000
0010
0100
0001
,
0010
0000
0110
0000
0100
0010
0001
0010
,
0100
0000
0110
0000
0100
1000
0010
0100
,
0101
0000
0001
0100
0010
0000
0100
0010
,
1000
1000
1000
1000
,
0001
0000
1000
0010
1000
0000
0010
0100
,
0010
0100
0001
0010
,
0100
0000
1000
0100
0000
0000
0100
0010
,
0000
0000
0010
0001
0000
0000
0001
1000
,
0000
0000
1000
0010
0000
0000
0010
0100
,
0000
0000
0100
0001
1000
0000
1001
0000
,
0220
0000
0000
0000
,
0330
0000
0000
0000
;

//---------------dance-single - ----------------
#NOTES:
     dance-single:
     :
     Easy:
     5:
     0.210184,0.338955,0.083807,0.055872,0.000000,158.000000,149.000000,9.000000,6.000000,0.000000,0.000000,0.210184,0.338955,0.083807,0.055872,0.000000,158.000000,149.000000,9.000000,6.000000,0.000000,0.000000:
0000
0000
0000
0000
,
0000
0000
0000
0000
,
0000
0000
0000
0000
,
0000
0000
0000
0000
,
1000
0000
0001
0000
,
0100
0000
0001
0000
,
0010
0000
0001
0000
,
1000
0000
0100
1000
,
0010
0100
0000
0010
,
0000
1000
0000
0001
,
0000
0010
0000
0001
,
0000
1000
0001
0100
,
0020
0000
0000
0030
,
0200
0000
0000
0300
,
0100
0000
0100
0000
,
0100
0000
0100
0000
,
0010
1000
0001
0010
,
0001
1000
0100
1000
,
0010
0100
0010
1000
,
0001
0010
0100
0010
,
0001
1000
0100
0010
,
0100
1000
0010
0100
,
0001
1000
0010
0100
,
1001
0110
1001
0110
,
1000
0010
1000
0001
,
0010
0100
0010
0001
,
1000
0001
0100
0001
,
1000
0100
0010
0100
,
1000
0001
0010
0001
,
1000
0100
0010
0100
,
1000
0010
0100
0010
,
1001
0110
1001
0110
,
2000
0000
0000
0000
,
0000
0000
0000
3000
,
0002
0000
0000
0000
,
0000
0000
0000
0003
,
0200
0000
0000
0000
,
0000
0000
0000
0300
,
0020
0000
0000
0000
,
0000
0000
0000
0030
,
1000
0001
0010
0001
,
0100
0001
1000
0100
,
0001
0100
0010
0001
,
1000
0010
0001
0010
,
1000
0010
0100
0001
,
0010
1000
0010
0001
,
1000
0100
0001
0100
,
0010
0001
1000
0010
,
0100
0010
1000
0001
,
0010
0100
0000
0100
,
0010
0001
1000
0010
,
0100
0000
0010
0000
,
1000
0001
0000
1000
,
0000
0010
0000
1000
,
0000
0100
0000
0010
,
0000
0001
1000
0010
,
1001
0000
0000
0000
;

//---------------dance-single - ----------------
#NOTES:
     dance-single:
     :
     Beginner:
     3:
     0.090459,0.156441,0.065184,0.000000,0.000000,68.000000,61.000000,7.000000,0.000000,0.000000,0.000000,0.090459,0.156441,0.065184,0.000000,0.000000,68.000000,61.000000,7.000000,0.000000,0.000000,0.000000:
0000
0000
0000
0000
,
0000
0000
0000
0000
,
0000
0000
0000
0000
,
0000
0000
0000
0000
,
1000
0000
0000
0000
,
0001
0000
0000
0000
,
1000
0000
0000
0000
,
0001
0000
0100
0000
,
0010
0000
0000
0000
,
0100
0000
0000
0000
,
0010
0000
0000
0000
,
0100
0000
0000
0000
,
0001
0000
0000
0000
,
1000
0000
0000
0000
,
1000
0000
0000
0000
,
1000
0000
0000
0000
,
0110
0000
0000
0000
,
0100
0000
0000
0000
,
0010
0000
0000
0000
,
1000
0000
0000
0000
,
0001
0000
0000
0000
,
0010
0000
0000
0000
,
0001
0000
0000
0000
,
1000
1000
1000
1000
,
0001
0000
0000
0000
,
0100
0000
0000
0000
,
0001
0000
0000
0000
,
0010
0000
0000
0000
,
0100
0000
0000
0000
,
1000
0000
0000
0000
,
0010
0000
0000
0000
,
0100
0100
0100
0100
,
0001
0000
0000
0000
,
0000
0000
0000
0000
,
1000
0000
0000
0000
,
0000
0000
0000
0000
,
0010
0000
0000
0000
,
0000
0000
0000
0000
,
1000
0000
0000
0000
,
0000
0000
0000
0000
,
1001
0000
0000
0000
,
0010
0000
0010
0000
,
0110
0000
0000
0000
,
0100
0000
0100
0000
,
1001
0000
0000
0000
,
0001
0000
0001
0000
,
1001
0000
0000
0000
,
1000
0000
1000
0000
,
0110
0000
0000
0000
,
0100
0000
0000
0000
,
0001
0000
0000
0000
,
1000
0000
0000
0000
,
0100
0000
0000
0000
,
1000
0000
0000
0000
,
0010
0000
0000
0000
,
0100
0000
0001
0000
,
1001
0000
0000
0000
;

//---------------dance-single - ----------------
#NOTES:
     dance-single:
     :
     Challenge:
     16:
     0.808809,0.730056,0.595964,0.000000,1.145369,608.000000,544.000000,64.000000,0.000000,32.000000,0.000000,0.808809,0.730056,0.595964,0.000000,1.145369,608.000000,544.000000,64.000000,0.000000,32.000000,0.000000:
// measure 0
0000
0000
0000
0000
,  // measure 1
0000
0000
0000
0000
,  // measure 2
0000
0000
0000
0000
,  // measure 3
0000
0000
0000
0000
,  // measure 4
1001
0000
0001
0010
0000
0010
0001
0100
0010
0000
0100
0010
0000
0010
1000
0100
,  // measure 5
0010
0000
0010
0100
0000
0100
1000
0001
0100
0000
0010
0100
0000
0100
0010
1000
,  // measure 6
0100
0000
0010
0001
0000
0001
0100
0001
1000
0000
0100
1000
0000
1000
0100
0010
,  // measure 7
0100
0000
0010
0001
0000
0001
0100
0010
1000
0001
0000
0110
0000
1000
0001
0000
,  // measure 8
1100
0000
1000
0100
0000
0010
0001
0100
0010
0000
0100
0010
0000
1000
0001
0010
,  // measure 9
0100
0000
0010
0001
0000
0010
0001
1000
0100
0000
1000
0010
0000
0100
0010
1000
,  // measure 10
0100
0000
1000
0100
0000
1000
0010
1000
0001
0000
0010
0100
0000
0010
0001
0100
,  // measure 11
0010
0000
0100
0010
0000
0100
0001
1000
0100
0010
0000
0011
0000
0001
0100
0000
,  // measure 12
0010
0000
1000
0001
0000
0010
0001
0100
0001
1000
0000
0100
0000
0010
0100
0000
,  // measure 13
0010
0000
0001
0100
0000
0010
1000
0000
0001
1000
0000
0100
0000
0010
0001
0000
,  // measure 14
1000
0001
0000
0010
0000
0100
1000
0000
0001
1000
0000
0100
0000
0010
0001
0000
,  // measure 15
1000
0001
0000
0010
0000
0100
1000
0000
0001
1000
0000
0100
0000
0010
0001
0000
,  // measure 16
1100
0000
0100
1000
0010
0100
0001
0010
0100
0010
0000
0011
0000
0100
1000
0000
,  // measure 17
0010
0000
1000
0010
0000
0000
0101
0000
0001
0010
0000
0110
0000
1000
0100
0000
,  // measure 18
0011
0000
0010
0001
0100
0010
1000
0001
0010
0100
0000
0110
0000
0100
1000
0000
,  // measure 19
1001
0000
0001
0100
0000
0100
0010
0000
1000
0100
0000
0110
0000
0100
1000
0000
,  // measure 20
0011
0000
0010
0001
0100
0001
1000
0100
0010
0100
0000
1100
0000
1000
0010
0000
,  // measure 21
0110
0000
0100
0001
0000
0010
0100
0000
0010
0001
0000
0011
0000
0001
1000
0000
,  // measure 22
0100
0000
0010
0100
1000
0010
0100
0001
0010
0100
0000
0110
0000
0100
1000
0000
,  // measure 23
1001
MMMM
0110
MMMM
0101
MMMM
1010
MMMM
,  // measure 24
1100
0000
0100
0010
0001
0010
0100
0010
0001
1000
0000
1100
0000
1000
0010
0000
,  // measure 25
0101
0000
0001
0010
0000
0010
0001
0000
1000
0001
0000
0101
0000
0001
0100
0000
,  // measure 26
0110
0000
0100
0001
0010
0001
0100
0001
1000
0100
0000
0110
0000
0100
1000
0000
,  // measure 27
1100
0000
0100
1000
0000
0100
0010
0000
0100
1000
0000
1100
0000
1000
0010
0000
,  // measure 28
0101
0000
0100
0010
1000
0100
1000
0001
1000
0001
0000
0101
0000
0001
0010
0000
,  // measure 29
0110
0000
0100
1000
0000
0100
0010
0000
0100
1000
0000
1100
0000
0001
0010
0000
,  // measure 30
0101
0000
0001
0100
0010
1000
0001
0010
0100
1000
0000
1100
0000
0100
1000
0000
,  // measure 31
1001
MMMM
0110
MMMM
0101
MMMM
0011
MMMM
,  // measure 32
1000
0000
0100
1000
0000
1000
0001
0000
0000
0000
0001
0010
0000
0010
0100
0000
,  // measure 33
0000
0000
0010
0001
0000
0001
0100
0000
0000
0000
0010
1000
0000
1000
0001
0000
,  // measure 34
0000
0000
0010
0100
0000
0100
1000
0000
0000
0000
0100
1000
0000
1000
0010
0000
,  // measure 35
0000
0000
0100
0001
0000
0001
0010
0000
0000
0000
0100
0010
0000
0010
0001
0000
,  // measure 36
1000
0000
0001
0100
0000
0001
0100
0000
0001
0000
1000
0100
0000
1000
0100
0000
,  // measure 37
1000
0000
0001
0010
0000
0001
0010
0000
0001
0000
1000
0010
0000
1000
0010
0000
,  // measure 38
1000
0000
0001
1000
0000
1000
0001
0000
0100
0000
0010
0100
0000
0100
0010
0000
,  // measure 39
0100
0000
0001
0010
0000
0100
1000
0000
1001
0000
0000
0000
0000
0000
0000
0000
,  // measure 40
1010
0000
1000
0001
0010
0100
0010
0001
1000
0001
0000
0110
0000
1000
0001
0000
,  // measure 41
0011
0000
0010
0100
0000
0010
0001
0000
0010
0100
0000
1100
0000
1000
0010
0000
,  // measure 42
1010
0000
1000
0010
0100
0001
0010
0100
0010
0001
0000
1100
0000
1000
0010
0000
,  // measure 43
1010
0000
1000
0001
0000
0010
0100
0000
0010
0001
0000
0011
0000
0010
0100
0000
,  // measure 44
1001
0000
0001
1000
0100
1000
0010
0100
0001
0010
0000
0110
0000
0100
1000
0000
,  // measure 45
0110
0000
0100
1000
0000
0100
0010
0000
0010
0001
0000
0011
0000
0001
0100
0000
,  // measure 46
0110
0000
0010
0100
0001
1000
0100
0010
0100
1000
0000
1100
0000
0100
1000
0000
,  // measure 47
1010
0000
1000
0001
0000
0010
0100
0000
0010
0001
0000
0100
0000
0010
1000
0000
,  // measure 48
0001
0100
0010
1000
0001
0000
0010
0000
0100
0010
0001
1000
0100
0000
1000
0000
,  // measure 49
0010
1000
0100
1000
0010
0000
0100
0000
0001
0010
0100
0010
0001
0000
1000
0000
,  // measure 50
0001
1000
0010
1000
0100
0000
0010
0000
0100
0010
0001
0100
0001
0000
1000
0000
,  // measure 51
0001
0010
0001
0100
0010
0000
0100
0000
0010
1000
0001
0010
0100
0000
0010
0000
,  // measure 52
0001
0000
0010
0100
1000
0000
1001
0000
1000
0000
0100
0010
0001
0000
1001
0000
,  // measure 53
0001
0000
0100
0010
1000
0000
1010
0000
1000
0000
0010
0100
0001
0000
0101
0000
,  // measure 54
0001
0000
0010
0100
1000
0000
1100
0000
1000
0000
0100
1000
0010
0000
1010
0000
,  // measure 55
0010
0000
0100
0010
1000
0000
1001
0000
0001
0000
0010
0100
1000
0000
1001
0000
,  // measure 56
0110
0000
0000
0000
;
