#VERSION:0.83;
#TITLE:Nasty Techniques;
#SUBTITLE:;
#ARTIST:kors k;
#TITLETRANSLIT:;
#SUBTITLETRANSLIT:;
#ARTISTTRANSLIT:;
#GENRE:Hi-TECH FULL ON;
#ORIGIN:;
#CREDIT:;
#BANNER:banner.png;
#BACKGROUND:background.png;
#PREVIEWVID:;
#JACKET:jacket.png;
#CDIMAGE:;
#DISCIMAGE:;
#LYRICSPATH:;
#CDTITLE:cdtitle.png;
#MUSIC:Nasty Techniques.ogg;
#OFFSET:-0.163000;
#SAMPLESTART:32.583000;
#SAMPLELENGTH:18.000004;
#SELECTABLE:YES;
#BPMS:0.000=75.000,
8.000=150.000,
68.000=300.000,
71.000=150.000,
95.000=300.000,
98.500=150.000,
129.000=75.000,
159.000=37.500,
159.500=300.000,
161.000=150.000,
223.000=300.000,
225.500=150.000;
#STOPS:68.000=0.300,
68.500=0.100,
69.000=0.300,
69.500=0.100,
70.000=0.200,
95.000=0.200,
96.000=0.200,
97.000=0.200,
97.500=0.200,
98.000=0.100,
98.500=1.200,
113.500=0.600,
120.000=0.400,
159.500=0.200,
160.000=0.200,
160.500=0.100,
223.000=0.100,
224.000=0.100,
225.000=0.100;
#DELAYS:;
#WARPS:;
#TIMESIGNATURES:0.000=4=4;
#TICKCOUNTS:0.000=4;
#COMBOS:0.000=1;
#SPEEDS:0.000=1.000=0.000=0;
#SCROLLS:0.000=1.000;
#FAKES:;
#LABELS:0.000=Song Start;
#BGCHANGES:;
#KEYSOUNDS:;
#ATTACKS:
;

//---------------dance-single - ----------------
#NOTEDATA:;
#CHARTNAME:;
#STEPSTYPE:dance-single;
#DESCRIPTION:;
#CHARTSTYLE:;
#DIFFICULTY:Hard;
#METER:13;
#RADARVALUES:0.469601,0.621763,0.344756,0.304668,0.420923,410.000000,367.000000,43.000000,38.000000,0.000000,0.000000,6.000000,0.000000,0.000000,0.469601,0.621763,0.344756,0.304668,0.420923,410.000000,367.000000,43.000000,38.000000,0.000000,0.000000,6.000000,0.000000,0.000000;
#CREDIT:Pandemonium X;
#NOTES:
0000
0000
0000
0000
,
0000
0000
0000
0000
,
0110
0000
0000
0000
0000
0100
0001
2000
,
0000
0002
0000
0000
0000
0000
3003
0000
,
0110
0000
0000
0100
0010
0000
0100
0010
,
0000
0000
0000
2000
0000
0000
3100
0010
,
0001
0100
0001
0100
0010
1000
0010
1000
,
0100
1000
0100
1000
0001
0010
0001
0010
,
0004
4000
0000
0000
0000
0000
0000
0000
0000
0000
0000
0000
0000
0000
3003
0000
,
0110
0000
0000
0000
1000
0010
0100
0000
0001
0000
0000
0010
0000
0000
0001
0000
,
1002
0203
0010
0301
,
1000
0100
1000
0001
0100
0001
0010
0100
,
0020
0001
0100
0031
,
0100
0010
0001
0100
1000
0100
0010
1000
,
1200
0320
0001
0130
,
0100
0010
0100
1000
0010
0100
0001
0010
,
0200
1000
0010
1300
,
1001
0010
1001
0100
1001
0000
0010
0010
,
0200
0000
0001
0000
0310
0000
1000
0010
,
1000
0001
0010
0100
0010
0001
2000
0000
,
0100
0000
0010
0000
3001
0000
0100
0001
,
0010
0100
1000
0100
0001
1000
2100
0000
,
3002
0000
0100
0000
0013
0000
0001
0010
,
1000
0010
0100
1000
0002
0013
0110
0000
,
1100
0000
1100
0011
0010
1001
0000
0001
,
0000
1000
0000
0000
0010
0000
0000
1000
0000
0000
0100
0000
1000
0000
0010
0000
,
0000
0100
0000
0000
0001
0000
0000
0010
0000
0000
0100
0000
0010
0000
0001
0000
,
0000
0010
0000
0000
1000
0000
0000
0010
0000
0000
0001
0000
0010
0000
0100
0000
,
0100
0000
0100
0000
0000
0000
1001
0000
0001
0000
0000
1000
0000
0000
0100
0000
,
0000
0001
0000
0000
0100
0000
0010
0000
0001
0000
1000
0000
0010
0100
0000
0000
,
0000
0000
0000
0000
0110
0000
0000
0010
0000
0000
1000
0000
0000
0010
0000
0000
,
0100
0010
2000
0000
0000
0000
0000
0000
,
0000
0000
0000
0000
3001
0000
0000
0000
0100
0000
0000
0002
0000
0000
0000
0000
,
0000
0000
0000
0023
0000
0000
0000
0000
0130
0000
0010
0100
0000
0100
0000
0010
,
0000
0010
0001
0100
0020
0000
0000
0000
0000
0000
0000
2030
0000
0000
0000
0000
,
0000
0000
0000
3002
0000
0000
0000
0000
1003
0000
0100
1000
0000
0010
0100
0000
,
0010
1000
0001
1000
1001
0000
0000
0000
0110
0100
0010
1000
0000
0002
0000
0000
,
0003
0000
0000
0010
0000
0001
0000
1000
0000
0100
0000
0020
0000
0000
0000
0000
,
0000
0000
0030
0000
0110
0000
0000
0000
1100
0100
1000
0010
0000
0002
0000
0000
,
0003
0000
0000
0010
0000
1000
0000
0001
0000
0100
0000
0001
0000
0000
1001
0000
,
1001
1001
2002
0000
0000
0000
0000
0000
,
0000
0000
0000
0000
3003
0010
0000
0000
,
0100
1001
0220
0000
0000
0000
0000
0000
,
0000
0000
0000
0000
0330
0002
0000
0000
,
0013
0000
0000
0000
1001
0000
0000
0001
0000
0000
0010
0000
1100
0000
0000
0010
,
0000
0000
0001
0000
1010
0000
0000
0100
0000
0000
0001
0000
1001
0000
0000
1000
,
0000
0000
0001
0000
0400
0040
0000
0000
0000
0000
0000
0000
0000
0000
0000
0000
,
0000
0000
0330
0000
1001
0000
0000
0000
1000
0010
0100
0000
0001
0000
0000
0010
,
0000
0010
0001
0000
0200
0000
0000
0000
0301
1000
0000
0100
0000
0010
0100
1000
,
0000
0000
0100
0000
0000
0000
1000
0000
0000
0000
0010
0000
0000
0000
0100
0001
,
0000
0001
0010
0000
0200
0000
0000
0000
0310
0100
0000
1000
0000
0001
1000
0010
,
0000
0100
0001
0000
0000
0000
1000
0000
0000
0000
0100
0000
0000
0000
1000
0010
,
0000
0100
0001
0000
2000
0000
0000
0000
3010
1000
0000
0001
0000
0010
0100
0010
,
0000
0000
0100
0000
0000
0000
0010
0000
0000
0000
0001
0000
0000
1000
0010
0000
,
0000
0100
0001
0010
0200
0000
0000
0000
0310
0001
0000
1000
0000
0000
0001
1000
,
0000
0010
1000
0000
0004
0040
0000
0000
0000
0000
0000
0033
1000
0000
1000
0000
,
0001
0000
0100
0000
0020
0000
2030
0000
0000
0000
3100
1000
0000
0100
0000
0010
,
0001
1000
0000
0000
1001
0000
0000
0000
1010
0000
0000
0000
0101
0000
0000
0000
,
0001
0010
0000
0010
0100
0000
1002
0000
0000
0000
0013
0100
0000
0010
0000
0001
,
1000
0100
0000
0000
1010
0000
0000
0000
1100
0000
0000
0000
1010
0000
0000
0000
,
1000
0001
0000
0010
0100
0000
0012
0000
0000
0000
0103
0001
0000
0010
0000
0100
,
0010
0001
0000
0000
1001
0000
0000
0000
0101
0000
0000
0000
0011
0000
0000
0000
,
0010
0100
0000
0100
0010
0000
0201
0000
0000
0000
0310
0100
0010
0100
0001
0000
,
0000
0001
0000
0001
0010
0000
0100
1000
0100
1000
0100
0010
0001
1000
0000
0010
,
0100
0000
0000
0010
1000
0001
0020
0000
0000
0000
0030
0000
0000
0000
0000
0000
;

//---------------dance-single - ----------------
#NOTEDATA:;
#CHARTNAME:;
#STEPSTYPE:dance-single;
#DESCRIPTION:;
#CHARTSTYLE:;
#DIFFICULTY:Medium;
#METER:8;
#RADARVALUES:0.328721,0.440415,0.264580,0.376826,0.092202,287.000000,254.000000,33.000000,47.000000,0.000000,0.000000,2.000000,0.000000,0.000000,0.328721,0.440415,0.264580,0.376826,0.092202,287.000000,254.000000,33.000000,47.000000,0.000000,0.000000,2.000000,0.000000,0.000000;
#CREDIT:Pandemonium X;
#NOTES:
0000
0000
0000
0000
,
0000
0000
0000
0000
,
1001
0000
0000
0000
0000
0001
0100
0002
,
0000
2000
0000
0000
0000
0000
3003
0000
,
0110
0000
0000
1000
0010
0000
0010
1000
,
0000
0000
0000
0020
0000
0000
0130
0001
,
0020
0000
0000
0000
,
0030
0000
0000
0200
0000
0000
2300
0000
,
0002
0000
0000
0000
0000
0000
0000
3003
,
0110
0000
0000
0000
0001
0000
0100
0000
0010
0000
0000
0010
0000
0000
0010
0000
,
0210
0302
0203
0320
,
1030
0010
0100
0000
0010
1000
0001
0000
,
0011
0110
1100
1001
,
0001
1000
0010
0000
1000
0100
0010
0000
,
0210
2300
3200
0320
,
0031
0010
0100
0010
0001
0000
1000
0000
,
1001
0110
1001
1010
,
0001
0100
1000
1000
0100
0000
0001
0001
,
2001
0000
3020
0000
2030
0000
3100
1000
,
0010
0000
0100
0001
1000
0000
1001
0000
,
1010
0000
1001
0000
0011
0000
0001
0010
,
0100
0000
0010
0001
1000
0000
1200
0000
,
0310
0000
0100
0000
1000
0000
0010
0100
,
0001
0000
1000
0001
0010
0000
0100
0000
,
1000
0000
0010
0100
0001
1000
0000
0001
,
0000
1000
0000
0010
0000
1000
0000
0100
,
0000
1000
0000
0001
0000
0010
0000
0100
,
0000
0010
0000
0001
0000
0100
0000
0010
,
0010
0010
0000
1001
0001
0000
1000
0000
,
0010
0000
1000
0000
0010
0100
0001
0000
,
1100
0100
1000
0010
,
0100
0001
0020
0000
0000
0000
0000
0000
,
0030
0000
0000
0000
1001
0000
0000
0000
0000
0000
0000
0200
0000
0000
0000
0000
,
0000
0000
0000
0320
0000
0000
0000
0000
0000
0000
0000
2030
0000
0000
0000
0000
,
0000
0000
0000
0000
3002
0000
0000
0000
0000
0000
0000
0023
0000
0000
0000
0000
,
0000
0000
0000
0230
0000
0000
0000
0000
0000
0000
0000
2300
0000
0000
0000
0000
,
0000
0000
0000
0000
3001
0000
0000
0000
1000
0000
0000
0010
0000
1000
0001
0000
,
0010
0000
0000
0100
0000
0010
0000
0001
0000
1000
0000
0020
0000
0000
0000
0000
,
0030
0000
0000
0000
0100
0000
0000
0000
0010
0000
0000
1000
0000
0010
1000
0000
,
0001
0000
0000
1000
0000
0100
0000
0001
0000
0100
0000
1000
0000
0000
0001
0000
,
1000
0001
0200
0000
0000
0000
0000
0000
,
0000
0000
0000
0300
0000
0020
0000
0000
,
1030
2002
0000
0000
,
0000
0000
3003
0000
0000
1001
0000
0000
,
0110
0102
0000
2003
,
0000
3200
0000
0320
,
0000
0000
0000
0000
0034
4000
0000
0000
0000
0000
0000
0000
0000
0000
0000
0000
,
0000
0000
0000
0000
3003
0000
0000
0000
1000
0000
0010
0000
0001
0000
0000
0010
,
0000
1000
0021
0000
0130
0000
1000
0000
,
0010
0100
0001
0010
,
0100
0010
0002
0000
0013
0000
0100
0000
,
1000
0100
1000
0010
,
0100
0010
2000
0000
3100
0000
1000
0000
,
0010
0100
0001
0010
,
0100
0010
0200
0000
1300
0000
0100
0000
,
0010
0000
0001
0001
0010
0010
0100
0000
,
0010
0000
0001
2001
0000
3001
0000
0100
,
0000
0001
0000
0010
0000
0001
0000
0100
,
0000
0010
0000
2010
0000
3100
0000
0010
,
0000
0100
0000
1000
0000
1000
0000
0001
,
0000
0001
0000
2001
0000
3010
0000
1000
,
0000
0100
0000
1000
0000
0001
0000
0010
,
0000
0100
0000
0012
0000
0103
0000
0210
,
0000
0310
0000
0100
0010
1000
0001
0100
,
0010
1000
0001
0220
0000
0330
0000
0000
;

//---------------dance-single - ----------------
#NOTEDATA:;
#CHARTNAME:;
#STEPSTYPE:dance-single;
#DESCRIPTION:;
#CHARTSTYLE:;
#DIFFICULTY:Easy;
#METER:7;
#RADARVALUES:0.232510,0.283872,0.064141,0.224492,0.044097,203.000000,195.000000,8.000000,28.000000,0.000000,0.000000,0.000000,0.000000,0.000000,0.232510,0.283872,0.064141,0.224492,0.044097,203.000000,195.000000,8.000000,28.000000,0.000000,0.000000,0.000000,0.000000,0.000000;
#CREDIT:Pandemonium X;
#NOTES:
0000
0000
0000
0000
,
0000
0000
0000
0000
,
1001
0000
0000
0000
,
0000
0000
0000
0000
,
0110
0000
0000
0000
,
0000
0000
2000
0000
,
0002
0000
0000
0000
,
3003
0000
0002
0000
,
2000
0000
0000
0000
,
3003
0000
0000
0000
,
0020
1030
0010
0100
,
0001
0010
0100
1000
,
0100
0001
0100
1000
,
0010
1000
0001
0010
,
0200
0310
0001
0010
,
0001
0100
0001
1000
,
0001
0010
1000
0010
,
0100
0000
1000
0000
0010
0000
0100
0010
,
0100
0010
1000
0001
,
0010
0001
1000
0001
,
0100
1000
0100
0001
,
1000
0010
1000
0002
,
0013
0100
1000
0100
,
1000
0010
0100
2002
,
0000
0000
0000
0000
0000
3003
0000
1001
,
0000
0001
0000
1000
0000
0010
0000
1000
,
0000
0001
0000
0010
0000
0100
0000
0010
,
0000
0001
0000
0100
0000
0010
0000
1000
,
0001
1000
0000
0010
0100
0000
0001
0000
,
0010
0100
0010
0001
,
1000
0100
1000
0010
,
0100
0002
0000
0000
,
0000
0000
0000
0000
0013
0000
0000
0000
0000
0000
0000
0100
0000
0000
0000
0000
,
0000
0000
0000
1000
0000
0000
0000
0000
0000
0000
0000
0001
0000
0000
0000
0000
,
0000
0000
0000
0000
0100
0000
0000
0000
0000
0000
0000
0010
0000
0000
0000
0000
,
0000
0000
0000
1000
0000
0000
0000
0000
0000
0000
0000
0001
0000
0000
0000
0000
,
0000
0000
0000
0000
1000
0000
0000
0000
0001
0000
0000
0100
0000
0000
0000
0000
,
0001
0010
0100
2000
,
0000
0000
3000
0000
0100
0000
0000
0000
1000
0000
0000
0010
0000
0000
0000
0000
,
0100
0000
0000
0010
0000
0000
0000
1000
0000
0000
0000
0001
0000
0000
1001
0000
,
0000
0020
0000
0000
,
0000
0000
0000
0030
0000
0100
0000
0000
,
0001
2002
0000
0000
,
0000
0000
0000
3003
0000
0100
0000
0000
,
0010
2002
0000
0000
,
0000
0000
0000
0000
3003
0100
0000
0000
,
0010
0200
0000
0000
0000
0000
0000
0000
,
0000
0000
0310
0000
1000
0001
0010
0000
,
0010
0200
1300
0100
,
1000
0010
0100
0001
,
0010
0200
0310
0001
,
1000
0010
1000
0001
,
0010
0200
0310
0001
,
0010
0100
1000
0100
,
1000
0020
1030
0001
,
0100
0000
0010
1000
0010
1000
0010
0000
,
0000
0000
0000
2000
0000
3100
0000
1000
,
0000
0010
0000
0100
0000
0001
0000
0010
,
0000
0100
0000
0020
0000
0031
0000
0010
,
0000
0001
0000
1000
0000
0100
0000
0001
,
0000
0100
0000
0020
0000
0130
0000
1000
,
0000
0010
0000
0100
0000
0001
0000
1000
,
0000
0010
0000
2000
0000
3100
0000
1000
,
0000
0010
0000
0200
0000
0302
0000
0023
,
0000
0130
0000
1001
0000
0000
0000
0000
;

//---------------dance-single - ----------------
#NOTEDATA:;
#CHARTNAME:;
#STEPSTYPE:dance-single;
#DESCRIPTION:;
#CHARTSTYLE:;
#DIFFICULTY:Beginner;
#METER:3;
#RADARVALUES:0.095066,0.154839,0.032070,0.000000,0.000000,83.000000,79.000000,4.000000,0.000000,0.000000,0.000000,0.000000,0.000000,0.000000,0.095066,0.154839,0.032070,0.000000,0.000000,83.000000,79.000000,4.000000,0.000000,0.000000,0.000000,0.000000,0.000000,0.000000;
#CREDIT:Pandemonium X;
#NOTES:
0000
0000
0000
0000
,
0000
0000
0000
0000
,
0010
0000
0000
0000
,
0000
0000
0000
0000
,
0100
0000
0000
0000
,
0000
0000
0000
0000
,
0001
0000
0000
0000
,
1000
0000
0000
0000
,
0010
0000
0000
0000
,
0100
0000
0010
0000
,
1000
0001
0000
0000
,
1000
0000
0000
0000
,
0010
0000
0000
0000
,
1000
0000
0000
0000
,
0100
0010
0000
0000
,
0001
0000
0000
0000
,
1000
0000
0000
0000
,
0010
0000
0000
0100
,
0100
0000
0000
0010
,
0000
0000
0000
1000
,
0000
0000
0000
0001
,
0000
0000
0000
1000
,
0010
0000
0000
0100
,
0000
0000
0000
0010
,
0000
0000
0000
0000
0000
0000
0000
1000
,
0000
0000
0000
0000
0000
0000
0000
0001
,
0000
0000
0000
0000
0000
0000
0000
0100
,
0000
0000
0000
0000
0000
0000
0000
0010
,
0000
0000
0100
0000
,
0000
0000
0010
0000
,
0000
1000
0000
0000
,
0000
0001
0000
0000
,
0000
0110
0000
0000
,
0000
0000
0010
0000
,
0000
0100
0000
0001
,
0000
1000
0100
0000
,
0010
0100
1000
0000
,
0000
0001
0000
0000
,
0000
1000
0001
0100
,
0000
0010
0000
0000
,
0000
1000
0000
0000
,
0000
0000
0000
0001
,
0000
1000
0000
0000
,
0000
0000
0000
0001
,
0000
0010
0000
0100
,
0000
1000
0000
0010
,
0000
0100
0000
0000
,
0000
0110
0000
0000
,
0000
0010
1001
0000
,
0000
0001
0000
0000
,
0000
1000
0000
0000
,
0000
0010
0000
1000
,
0000
0100
0000
0000
,
0000
1000
0000
0000
,
0000
0001
0000
0000
,
0000
1000
0000
0000
,
0000
0000
0000
0010
0000
0000
0000
0000
,
0000
0000
0000
0100
0000
0000
0000
0000
,
0000
0000
0000
0001
0000
0000
0000
0000
,
0000
0000
0000
1000
0000
0000
0000
0000
,
0000
0000
0000
0001
0000
0000
0000
0000
,
0000
0000
0000
0010
0000
0000
0000
0000
,
0000
0000
0000
0001
0000
0000
0000
1000
,
0000
0000
0000
0010
0000
0000
0000
0100
,
0000
0000
0000
1001
0000
0000
0000
0000
;

//---------------dance-single - ----------------
#NOTEDATA:;
#CHARTNAME:;
#STEPSTYPE:dance-single;
#DESCRIPTION:;
#CHARTSTYLE:;
#DIFFICULTY:Challenge;
#METER:15;
#RADARVALUES:0.628807,0.854924,0.641406,0.938056,0.629380,549.000000,469.000000,80.000000,117.000000,21.000000,0.000000,8.000000,0.000000,0.000000,0.628807,0.854924,0.641406,0.938056,0.629380,549.000000,469.000000,80.000000,117.000000,21.000000,0.000000,8.000000,0.000000,0.000000;
#CREDIT:Pandemonium X;
#NOTES:
// measure 0
0000
0000
0000
0000
,  // measure 1
0000
0000
0000
0000
,  // measure 2
2002
0000
3003
0000
0000
0001
0100
0020
,  // measure 3
0000
2000
0000
0000
0000
3030
0000
0000
,  // measure 4
0202
0303
0000
0001
2000
3000
0100
0020
,  // measure 5
0000
0000
0030
0200
0000
0000
0310
0001
,  // measure 6
0100
0010
0100
0010
0100
0010
0100
0010
1000
0001
1000
0001
1000
0001
1000
0001
,  // measure 7
0010
0001
0010
0001
0010
0001
0010
0001
1000
0100
1000
0100
1000
0100
1000
0100
,  // measure 8
4000
0004
0000
0000
0000
0000
0000
0000
0000
0000
0000
0000
0000
0000
3003
0000
,  // measure 9
0110
0000
0000
0000
0100
0010
1000
0000
0110
0000
0000
0101
0000
0001
0010
0000
,  // measure 10
1200
0000
0320
0031
0200
0310
2000
3001
,  // measure 11
0010
2000
3020
0032
0103
1000
0100
0010
,  // measure 12
2010
0000
0000
0000
0000
0000
0000
3000
2001
0000
0000
0000
0000
0000
0000
3000
2100
0000
0000
0000
0000
0000
0000
3000
2001
0000
0000
0000
0000
0000
0000
3000
,  // measure 13
0201
0310
0002
0023
0130
0010
0001
1000
,  // measure 14
2010
0000
3200
0310
0002
0013
0200
0310
,  // measure 15
0001
0200
0320
2030
3100
0001
0100
0010
,  // measure 16
0012
0000
0000
0000
0000
0000
0000
0003
0102
0000
0000
0000
0000
0000
0000
0003
1002
0000
0000
0000
0000
0000
0000
0003
0012
0000
0000
0000
0000
0000
0000
0003
,  // measure 17
1001
MM1M
1001
M1MM
1001
0000
0010
0010
,  // measure 18
1002
0103
2000
3100
0020
1030
0001
0020
,  // measure 19
0230
0000
0000
0000
2300
0000
0000
0000
3200
0000
0000
0000
0301
0000
0000
0000
0100
0000
0000
0000
0010
0000
0000
0000
0021
0000
0000
0000
0000
0000
0000
0030
,  // measure 20
0120
0000
0000
0000
0000
0000
0000
0030
1020
0000
0000
0000
0000
0000
0000
0030
0120
0000
0000
0000
0000
0000
0000
0030
0021
0000
0000
0000
0032
0000
0000
0000
,  // measure 21
0203
0310
2000
3002
0013
0100
0021
0000
,  // measure 22
0230
1300
0200
0301
0200
0310
0100
0020
,  // measure 23
0032
0203
0310
1000
0001
0010
0110
0000
,  // measure 24
1100
0000
0011
1010
1001
MM1M
0000
0110
,  // measure 25
0001
0100
0000
0010
1000
0000
1000
0100
0000
0010
0001
0000
1000
0000
0100
0000
,  // measure 26
0010
0100
0000
1000
0010
0000
0100
0001
0000
0010
0100
0000
0010
0000
0001
0000
,  // measure 27
0010
0001
0000
0100
0010
0000
1000
0001
0000
0010
0100
0000
0010
0000
0001
0000
,  // measure 28
0001
0000
1000
0010
1000
0000
0101
0000
1000
0000
0010
0100
0000
0001
0010
0000
,  // measure 29
0100
0010
0000
0001
1000
0000
0100
0000
1000
0000
0010
1000
0000
0001
0010
0000
,  // measure 30
1100
0000
0000
0000
0100
0000
1000
0100
0000
0010
0001
0000
0010
0100
0000
0100
,  // measure 31
1000
0000
0010
0000
0400
0004
0000
0000
0000
0000
0000
0000
0000
0000
0000
0000
,  // measure 32
0000
0000
0303
0000
1010
0000
0000
1000
0010
0100
0001
2000
0000
0000
0000
0000
,  // measure 33
3001
0000
0010
0000
0100
0000
2000
0000
0000
0000
0000
0000
0000
0000
0000
0000
3200
0000
0300
0000
1000
0000
2000
3000
0000
0000
0002
0003
0000
0000
0200
0300
,  // measure 34
0000
0000
2000
3000
0200
0300
0200
0300
0010
0000
0000
0000
1000
0000
0010
0000
0100
0000
0001
0000
0010
0000
0200
0000
0000
0000
0310
0000
0001
0000
0010
0000
,  // measure 35
0100
0000
0010
0000
0001
0000
2000
0000
0000
0000
3001
0000
0100
0000
0001
0000
2000
3000
0100
0000
0020
0030
0200
0300
0000
0000
0020
0030
0200
0300
0000
0000
,  // measure 36
0020
0030
0200
0300
2000
3000
0002
0003
0101
0000
0000
0000
0000
0000
0000
0000
1010
0000
1000
0000
0100
0000
0020
0000
0000
0000
0200
0000
0000
0000
0000
0000
,  // measure 37
0330
0000
0000
0110
0000
1100
0000
0110
0000
0011
0000
0120
0000
0000
0000
0000
,  // measure 38
0000
0000
0000
0030
0110
0000
0000
0000
1001
0001
0100
1000
0000
1200
0000
0000
,  // measure 39
0300
0000
0000
0000
0000
0000
1100
0000
0000
0000
0110
0000
0000
0000
0011
0000
0000
0000
0110
0000
0000
0000
1001
0000
MMMM
MMMM
MMMM
0000
1010
0000
0000
0000
,  // measure 40
0101
1001
0440
0000
0000
0000
0000
0000
,  // measure 41
0000
0000
0000
0000
0330
2000
0000
0000
,  // measure 42
3002
0103
4004
0000
0000
0000
0000
0000
,  // measure 43
0000
0000
0000
0000
3003
0020
0000
0000
,  // measure 44
0230
0000
0000
0300
0101
0000
0000
1100
0000
0000
0110
0000
1100
0000
0000
0011
,  // measure 45
0000
0000
0101
0000
1010
0000
0000
1001
0000
0000
0101
0000
1010
0000
0000
1100
,  // measure 46
0000
0000
0110
0000
0100
1000
0100
1000
0001
0010
0001
0010
0001
0100
0001
0100
,  // measure 47
0010
0100
0010
0100
0001
0000
0000
0000
1000
0100
0001
0000
0101
0000
0000
0110
,  // measure 48
0000
0100
1000
0000
1020
0000
0000
0000
0130
0001
0000
0010
0000
0100
0010
0001
,  // measure 49
0000
0000
2000
0000
0000
0000
3200
0000
0000
0000
0320
0000
0000
0000
0130
0010
,  // measure 50
0000
0100
1000
0010
0200
0000
0000
0000
0301
1000
0000
0010
0000
0010
0100
0010
,  // measure 51
1000
0000
2010
0000
0000
0000
3200
0000
0000
0000
0320
0000
0000
0000
0130
0010
,  // measure 52
0000
0010
0100
0000
1002
0000
0000
0000
1003
0100
0000
0010
0000
0100
0010
0001
,  // measure 53
0100
0000
0020
0000
0000
0000
0230
0000
0000
0000
0302
0000
0000
0000
1003
0010
,  // measure 54
0000
1000
0100
0000
0120
0000
0000
0000
0031
0010
0000
0001
0000
1000
0010
0100
,  // measure 55
0010
0000
1001
0000
1000
0010
1000
0010
0100
0001
0100
0001
0010
0000
0200
0000
,  // measure 56
1000
0000
0320
0000
0002
0033
2200
0000
3300
0000
1000
0100
0000
1010
0000
0010
,  // measure 57
0100
0001
1000
0000
0002
0000
0000
0000
2003
0000
0000
0000
3020
0000
0000
0000
,  // measure 58
1030
0100
0000
0010
0001
0000
2001
0000
0000
0000
3010
0100
0000
0001
0000
0010
,  // measure 59
0100
1000
0100
0000
0020
0000
0000
0000
0230
0000
0000
0000
2300
0000
0000
0000
,  // measure 60
3001
0100
0000
0001
0010
0000
1200
0000
0000
0000
0310
0100
0000
1000
0000
0001
,  // measure 61
0100
0010
1000
0000
0200
0000
0000
0000
2300
0000
0000
0000
3020
0000
0000
0000
,  // measure 62
0130
0001
0000
0010
0100
0000
0021
0000
0000
0000
0130
0010
0001
1000
0001
0000
,  // measure 63
0000
1000
0000
0001
0010
0000
1000
0100
1000
0010
0100
0001
0010
0100
0010
0001
,  // measure 64
0100
0010
1000
0001
0010
0000
2002
0000
0000
0000
3003
0000
0000
0000
0000
0000
;
