#VERSION:0.83;
#TITLE:Mind Meaning;
#SUBTITLE:;
#ARTIST:Ryu☆;
#TITLETRANSLIT:;
#SUBTITLETRANSLIT:;
#ARTISTTRANSLIT:;
#GENRE:ELECTRO-TECH;
#ORIGIN:;
#CREDIT:;
#BANNER:banner.png;
#BACKGROUND:background.png;
#PREVIEWVID:;
#JACKET:jacket.png;
#CDIMAGE:;
#DISCIMAGE:;
#LYRICSPATH:;
#CDTITLE:;
#MUSIC:Mind Meaning.ogg;
#OFFSET:1.146999;
#SAMPLESTART:30.707998;
#SAMPLELENGTH:14.999998;
#SELECTABLE:YES;
#BPMS:0.000=128.000;
#STOPS:;
#DELAYS:;
#WARPS:;
#TIMESIGNATURES:0.000=4=4;
#TICKCOUNTS:0.000=4;
#COMBOS:0.000=1;
#SPEEDS:0.000=1.000=0.000=0;
#SCROLLS:0.000=1.000;
#FAKES:;
#LABELS:0.000=Song Start;
#BGCHANGES:;
#KEYSOUNDS:;
#ATTACKS:
;

//---------------dance-single - ----------------
#NOTEDATA:;
#CHARTNAME:;
#STEPSTYPE:dance-single;
#DESCRIPTION:;
#CHARTSTYLE:;
#DIFFICULTY:Hard;
#METER:9;
#RADARVALUES:0.322316,0.494851,0.056205,0.417520,0.048175,281.000000,274.000000,7.000000,52.000000,0.000000,0.000000,0.000000,0.000000,0.000000,0.322316,0.494851,0.056205,0.417520,0.048175,281.000000,274.000000,7.000000,52.000000,0.000000,0.000000,0.000000,0.000000,0.000000;
#CREDIT:Pandemonium X;
#NOTES:
0000
0000
0000
0000
,
0000
0000
0000
0000
,
0000
0000
0000
0000
,
0000
0000
0000
0000
,
0000
0000
0000
0000
,
0000
0000
0000
0000
,
0000
0000
0000
0000
,
0000
0000
0000
0000
,
0000
0000
0000
0000
,
0001
1000
0010
0000
,
1000
0001
0100
1000
,
0100
0001
1000
0000
,
0001
1000
0010
0001
,
0010
0100
0010
0000
,
1000
0001
0010
0001
,
1000
0100
0010
0001
1000
0100
0010
0001
,
1000
0100
0000
0010
0001
0000
0001
0100
0000
0010
1000
0000
1001
0000
0000
0000
,
0001
0100
1000
0100
0010
0000
0000
1000
,
0000
0010
1000
0001
0010
0100
0010
0000
,
0100
1000
0100
0001
0100
0000
0000
0010
,
0000
0100
0010
0001
1000
0000
0001
0100
,
0010
1000
0100
0001
0100
0000
0000
0010
,
0000
0100
0010
0001
1000
0010
1000
0000
,
0010
1000
0001
0010
0100
0000
0010
0001
,
1000
0100
0000
0100
0010
0000
0010
0001
0000
0001
1000
0000
0110
0000
0000
0000
,
2000
3020
2030
3200
,
2300
3200
0302
0203
2300
0000
3200
2300
,
3020
0230
0302
2003
,
3200
0320
0230
0300
,
0020
0032
0203
2300
,
3200
2300
3200
0320
2030
0000
3020
0230
,
0302
0023
2030
3020
,
0230
0000
0000
0300
,
0001
0000
1000
0200
0300
0000
0010
0001
,
0000
0000
0020
1030
0020
0130
0020
0030
,
0100
0000
1000
0020
0030
0100
0001
1000
,
0000
0001
2000
3000
2000
0000
3000
0000
,
0001
0000
0100
0020
0030
0100
0001
1000
,
0000
0100
2000
3010
2000
3001
2000
3000
,
0010
0000
0100
0002
0003
0100
0010
2000
,
0000
0002
0000
3003
0000
0000
0000
0000
,
0102
0000
0000
0100
0000
0000
0000
0010
,
0000
1000
1000
1003
,
2001
0000
0000
0001
0000
0000
0000
0010
,
0000
0100
0100
3000
,
0120
0000
0000
1000
0000
0000
0000
0001
,
0000
0100
0100
0130
,
0210
0000
0000
0001
0000
0000
0000
0010
,
0000
0000
0000
0000
0000
0310
1000
0001
,
1000
0100
0001
0100
0010
0000
0000
0100
,
0000
0010
0001
1000
0010
1000
0001
0000
,
1000
0010
0001
0010
1000
0000
0000
0001
,
0000
0010
0100
0010
0001
0000
1000
0100
,
0001
0100
0010
0001
1000
0000
0000
0001
,
0000
1000
0001
0010
0100
0010
0001
0000
,
0100
0001
0010
0001
1000
0000
0000
0100
,
0010
0001
0000
0010
0100
0000
1000
0010
0000
0100
0001
0000
1001
0000
0000
0000
,
1000
0000
0001
0000
0010
0000
0000
0100
,
0000
0000
0010
0000
0001
0100
0001
0000
,
0100
0000
0010
0000
1000
0000
0000
0001
,
0000
0010
0100
1000
0001
0000
0010
0100
,
1000
0000
0001
0000
0100
0000
0000
0010
,
0000
0000
1000
0000
0100
0010
0001
0000
,
0010
0000
0001
0000
1000
0000
0000
0001
,
1000
0100
0001
0100
1000
0010
0001
0010
;

//---------------dance-single - ----------------
#NOTEDATA:;
#CHARTNAME:;
#STEPSTYPE:dance-single;
#DESCRIPTION:;
#CHARTSTYLE:;
#DIFFICULTY:Medium;
#METER:6;
#RADARVALUES:0.262670,0.312538,0.200731,0.168614,0.008029,229.000000,204.000000,25.000000,21.000000,0.000000,0.000000,0.000000,0.000000,0.000000,0.262670,0.312538,0.200731,0.168614,0.008029,229.000000,204.000000,25.000000,21.000000,0.000000,0.000000,0.000000,0.000000,0.000000;
#CREDIT:Pandemonium X;
#NOTES:
0000
0000
0000
0000
,
0000
0000
0000
0000
,
0000
0000
0000
0000
,
0000
0000
0000
0000
,
0000
0000
0000
0000
,
1000
0100
0010
0000
,
0100
0000
1000
0000
,
0001
0010
0100
0000
,
0020
0000
0000
0000
,
0031
0010
0100
0000
,
0010
0001
1000
0010
,
0100
0001
1000
0000
,
0100
1000
0010
0100
,
0010
1000
0001
0000
,
0010
0100
1000
0100
,
1000
0010
0100
0001
,
2000
0000
0000
3000
,
0001
0100
0110
0000
,
0010
1000
0100
1000
,
0001
0010
1100
0000
,
1000
0000
0010
0100
0010
0000
0100
0000
,
0001
1000
1010
0000
,
1000
0001
0010
0001
,
1000
0100
0110
0100
,
1000
0100
0010
0001
,
2000
3100
0002
0103
,
0001
0010
0100
1000
0200
0000
1300
0000
,
0020
1030
0020
0130
,
0002
0103
0020
0030
,
0200
0301
0020
0130
,
0010
0001
1000
0100
0020
0000
0230
0000
,
2300
3100
2000
3010
,
0200
0000
0000
0000
,
0310
0000
0000
1001
0000
0000
0000
0010
,
0000
1001
0110
1001
,
0100
0000
0000
0110
0000
0000
0000
0100
,
0000
1001
1001
0000
,
0100
0000
0000
0110
0000
0000
0000
0010
,
0000
0110
1001
0110
,
0100
0000
0000
0110
0000
0000
0000
0110
,
0000
0000
0000
0000
,
0002
0000
0000
1000
0000
0000
0000
1000
,
0000
1000
1000
1000
,
2003
0000
0000
0001
0000
0000
0000
0001
,
0000
0001
0001
0000
,
3020
0000
0000
0100
0000
0000
0000
0100
,
0000
0100
0100
0100
,
0230
0000
0000
0010
0000
0000
0000
0020
,
0000
0000
0000
0000
0330
0100
0010
1000
,
1001
0001
0011
0000
,
0001
1000
0100
1000
,
1010
0010
0110
0000
,
0100
0000
0001
1000
0010
0000
1000
0000
,
1100
0010
0110
0000
,
0100
1000
0001
0100
,
0101
0001
0011
0001
,
1000
0000
0000
1000
0000
0000
0001
0000
0000
0001
0000
0000
1000
0000
0000
0000
,
0001
1000
0010
0000
,
1000
0100
0001
0100
,
1000
0001
1000
0000
,
0001
0010
1000
0010
,
0100
0010
0001
0000
,
0001
0100
1000
0100
,
0001
0100
0010
1000
,
0001
0010
0100
1000
0100
0010
0100
1000
;

//---------------dance-single - ----------------
#NOTEDATA:;
#CHARTNAME:;
#STEPSTYPE:dance-single;
#DESCRIPTION:;
#CHARTSTYLE:;
#DIFFICULTY:Easy;
#METER:4;
#RADARVALUES:0.143379,0.234403,0.000000,0.152555,0.000000,125.000000,125.000000,0.000000,19.000000,0.000000,0.000000,0.000000,0.000000,0.000000,0.143379,0.234403,0.000000,0.152555,0.000000,125.000000,125.000000,0.000000,19.000000,0.000000,0.000000,0.000000,0.000000,0.000000;
#CREDIT:Pandemonium X;
#NOTES:
0000
0000
0000
0000
,
0000
0000
0000
0000
,
0000
0000
0000
0000
,
0000
0000
0000
0000
,
0000
0000
0000
0000
,
1000
0000
0000
0000
,
0001
0000
0000
0000
,
0100
0000
0000
0000
,
0020
0000
0000
0000
,
1030
0000
1000
0000
,
1000
0000
1000
0000
,
0001
0000
0001
0000
,
0001
0000
0001
0000
,
0100
0000
0100
0000
,
0100
0000
0100
0000
,
0010
0000
0010
0000
,
0020
0000
0000
0030
,
1000
0001
1000
0000
,
0010
0000
1000
0000
,
0001
0100
0001
0000
,
0010
0000
0100
0000
,
0010
0001
1000
0000
,
0100
0000
1000
0000
,
0010
0100
0010
0000
,
1000
0100
0010
0001
,
2000
3000
0002
0003
,
0100
0100
0100
0001
,
2000
3000
0020
0030
,
0200
0300
0002
0003
,
2000
3000
0200
0300
,
0010
0100
1000
0100
,
2000
3000
0002
0003
,
0200
0000
0000
0300
,
0010
0000
0000
0100
0000
0000
0000
0000
,
0000
0010
0010
0010
,
0000
0000
0000
0100
0000
0000
0000
0000
,
0000
0010
0010
0000
,
0000
0000
0000
1000
0000
0000
0000
0000
,
0000
0001
1000
0001
,
0000
0000
0000
1000
0000
0000
0000
0001
,
0000
0000
0000
0000
,
0200
0000
0000
0000
,
0000
0000
0000
0000
,
0320
0000
0000
0000
,
0000
0000
0000
0000
,
2030
0000
0000
0000
,
0000
0000
0000
0000
,
3002
0000
0000
0000
,
0000
0000
0003
0000
,
1000
0001
1000
0000
,
0010
1000
0100
1000
,
0001
0010
0100
0000
,
0010
0001
1000
0001
,
1000
0010
0100
0000
,
0010
0100
0001
1000
,
0100
1000
0001
0100
,
0020
0000
0000
0000
,
0130
0001
1000
0000
,
0001
0000
0001
0000
,
1000
0001
0010
0000
,
0100
0100
0100
0010
,
0100
1000
0001
0000
,
0100
0000
0001
0000
,
0010
0001
1000
0000
,
0200
0000
0000
0000
0000
0000
0000
0300
;

//---------------dance-single - ----------------
#NOTEDATA:;
#CHARTNAME:;
#STEPSTYPE:dance-single;
#DESCRIPTION:;
#CHARTSTYLE:;
#DIFFICULTY:Beginner;
#METER:2;
#RADARVALUES:0.088321,0.130475,0.000000,0.040146,0.000000,77.000000,77.000000,0.000000,5.000000,0.000000,0.000000,0.000000,0.000000,0.000000,0.088321,0.130475,0.000000,0.040146,0.000000,77.000000,77.000000,0.000000,5.000000,0.000000,0.000000,0.000000,0.000000,0.000000;
#CREDIT:Pandemonium X;
#NOTES:
// measure 0
0000
0000
0000
0000
,  // measure 1
0000
0000
0000
0000
,  // measure 2
0000
0000
0000
0000
,  // measure 3
0000
0000
0000
0000
,  // measure 4
0000
0000
0000
0000
,  // measure 5
0000
0000
0000
0000
,  // measure 6
0000
0000
0000
0000
,  // measure 7
0000
0000
0000
0000
,  // measure 8
0000
0000
0000
0000
,  // measure 9
1000
0000
0000
0000
,  // measure 10
0010
0000
0000
0000
,  // measure 11
0100
0000
0000
0000
,  // measure 12
0001
0000
0000
0000
,  // measure 13
0010
0000
0000
0000
,  // measure 14
0001
0000
0000
0000
,  // measure 15
1000
0000
0000
0000
,  // measure 16
0010
0000
0000
0000
,  // measure 17
0100
0100
0100
0000
,  // measure 18
0010
0000
0000
0000
,  // measure 19
1000
1000
1000
0000
,  // measure 20
0001
0000
0000
0000
,  // measure 21
0010
0010
0010
0000
,  // measure 22
0100
0000
0000
0000
,  // measure 23
0010
0010
0010
0000
,  // measure 24
0001
0000
0000
0000
,  // measure 25
1000
0000
1000
0000
,  // measure 26
1000
0000
0000
0000
,  // measure 27
0001
0000
0001
0000
,  // measure 28
0001
0000
0001
0000
,  // measure 29
0100
0000
0100
0000
,  // measure 30
0100
0000
0000
0000
,  // measure 31
0010
0000
0010
0000
,  // measure 32
0010
0000
0000
0000
,  // measure 33
1000
0000
0000
0000
,  // measure 34
1000
0000
0000
0000
,  // measure 35
0001
0000
0000
0000
,  // measure 36
0001
0000
0000
0000
,  // measure 37
0100
0000
0000
0000
,  // measure 38
0100
0000
0000
0000
,  // measure 39
0010
0000
0000
0000
,  // measure 40
0010
0000
0000
0000
,  // measure 41
2000
0000
0000
0000
,  // measure 42
0000
0000
0000
3000
,  // measure 43
2000
0000
0000
0000
,  // measure 44
0000
0000
0000
3000
,  // measure 45
2000
0000
0000
0000
,  // measure 46
0000
0000
0000
3000
,  // measure 47
2000
0000
0000
0000
,  // measure 48
0000
0000
3000
0000
,  // measure 49
0001
0001
0001
0000
,  // measure 50
0100
0000
0000
0000
,  // measure 51
0010
0010
0010
0000
,  // measure 52
0100
0000
0000
0000
,  // measure 53
0001
0001
0001
0000
,  // measure 54
1000
0000
0000
0000
,  // measure 55
0100
0100
0100
0000
,  // measure 56
0010
0000
0000
0000
,  // measure 57
0001
0000
1000
0000
,  // measure 58
0010
0000
0000
0000
,  // measure 59
1000
0000
0001
0000
,  // measure 60
0100
0000
0000
0000
,  // measure 61
0001
0000
1000
0000
,  // measure 62
0010
0000
0000
0000
,  // measure 63
1000
0000
0001
0000
,  // measure 64
0200
0000
0000
0000
,  // measure 65
0300
0000
0000
0000
;
