#TITLE:MUSIC TO YOUR HEAD;
#SUBTITLE:;
#ARTIST:SLAKE;
#TITLETRANSLIT:;
#SUBTITLETRANSLIT:;
#ARTISTTRANSLIT:;
#GENRE:TECHNO;
#CREDIT:;
#BANNER:banner.png;
#BACKGROUND:background.png;
#LYRICSPATH:;
#CDTITLE:;
#MUSIC:MUSIC TO YOUR HEAD.mp3;
#OFFSET:0.586000;
#SAMPLESTART:31.086666;
#SAMPLELENGTH:13.333332;
#SELECTABLE:YES;
#BPMS:0.000000=144.000000
;
#STOPS:
;
#BGCHANGES:;
#KEYSOUNDS:;
#ATTACKS:;

//---------------dance-single - ----------------
#NOTES:
     dance-single:
     :
     Hard:
     13:
     0.555488,0.664581,0.107324,0.305459,0.388016,471.000000,458.000000,13.000000,37.000000,0.000000,0.000000,0.555488,0.664581,0.107324,0.305459,0.388016,471.000000,458.000000,13.000000,37.000000,0.000000,0.000000:
// measure 0
0000
0000
0000
0000
,  // measure 1
0000
0000
0000
0000
,  // measure 2
0000
0000
0000
0000
,  // measure 3
0000
0000
0000
0000
,  // measure 4
0000
0000
0000
0000
,  // measure 5
1000
0000
0000
1000
0001
0000
0000
0000
0100
0000
0010
0000
1000
0000
0000
0000
,  // measure 6
0001
0000
0000
0001
1000
0000
0000
0000
0100
0000
0010
0000
0001
0000
0000
0000
,  // measure 7
0100
0100
0100
0100
,  // measure 8
0100
0000
0010
2000
0000
3002
0000
2000
,  // measure 9
3003
0000
0000
0000
,  // measure 10
1000
0000
0000
0001
0100
0000
0001
0000
0000
0000
1000
0000
0000
0100
0000
0000
,  // measure 11
1001
0000
0001
0000
0010
0000
0001
0000
1000
0000
0100
0000
0010
0100
0000
1000
,  // measure 12
0000
0000
0010
0000
1000
0000
0001
0000
0010
0000
0100
0000
0010
0001
0000
0100
,  // measure 13
0000
0000
0010
0000
1000
0000
0001
0000
0010
0000
0001
0000
1000
0100
0000
0010
,  // measure 14
0000
0000
0000
0100
0000
0000
0010
0000
0000
0001
0000
0000
1000
0000
0100
0000
1000
0000
0001
0000
0100
0000
0001
0000
,  // measure 15
0010
0000
0100
0000
0010
0000
0001
0000
0100
0000
0010
0000
1000
0001
0000
0010
,  // measure 16
0000
0000
0100
0000
1000
0000
0010
0000
0100
0000
0001
0000
0010
0100
0000
0010
,  // measure 17
0000
0000
0100
0000
1000
0000
0010
0000
1000
0000
0010
0000
0100
0010
0000
1000
,  // measure 18
0000
0000
0000
0001
0000
0000
0010
0000
0000
0100
0000
0000
0100
0000
0010
0000
0001
0000
0100
0000
0010
0000
1000
0000
,  // measure 19
0102
0000
0000
0000
0100
0000
0000
0000
0013
0000
0100
0000
1000
0100
0000
0001
,  // measure 20
0020
0000
0000
0000
0100
0000
0000
0000
0031
0000
1000
0000
0010
1000
0000
0100
,  // measure 21
0000
0000
0010
0000
0100
1000
0000
0010
0000
0000
0100
0000
0010
1000
0000
0001
,  // measure 22
0000
1000
1001
0000
0110
0000
1001
0000
,  // measure 23
0010
0000
0100
0000
0010
0000
1000
0000
0100
0000
0010
0000
0001
0010
0000
0100
,  // measure 24
2000
0000
0000
0000
0100
0000
0000
0000
3010
0000
0100
0000
0001
0010
0000
0100
,  // measure 25
0000
0000
1000
0000
0100
0010
0000
0001
0000
0000
0010
0000
0100
1000
0000
0020
,  // measure 26
0000
0000
0000
0000
,  // measure 27
1030
0100
0010
0001
1000
0100
0010
0001
,  // measure 28
1000
0100
0010
0001
1000
0100
0010
0001
,  // measure 29
1000
0100
0010
0001
1000
0100
0010
0001
,  // measure 30
1000
0100
0001
0100
1000
0010
0001
0010
,  // measure 31
1000
0100
0001
0100
1000
0010
0001
0010
,  // measure 32
1000
0100
0001
0100
1000
0010
0001
0010
,  // measure 33
1000
0000
0000
0001
0010
0000
0100
0000
0000
0000
0010
0000
0000
0001
0000
0000
,  // measure 34
1001
0000
0000
0000
0000
0000
0000
0000
0000
0000
0010
0000
0010
0100
0000
0001
,  // measure 35
0020
0000
0000
0000
0100
0000
0000
0000
0031
0000
0010
0000
0100
1000
0000
0001
,  // measure 36
0200
0000
0000
0000
0010
0000
0000
0000
0301
0000
1000
0000
0100
1000
0000
0010
,  // measure 37
0000
0000
0100
0000
0010
1000
0000
0001
0000
0000
0010
0000
0100
0010
0000
0001
,  // measure 38
0000
1000
1001
0000
0110
0000
1001
0000
,  // measure 39
0210
0000
0000
0000
0001
0000
0000
0000
0310
0000
0100
0000
0001
1000
0000
0100
,  // measure 40
0020
0000
0000
0000
0100
0000
0000
0000
0031
0000
0010
0000
0100
1000
0000
0010
,  // measure 41
0000
0000
0100
0000
0010
1000
0000
0001
0000
0000
0010
0000
0100
1000
0000
0001
,  // measure 42
0000
0000
0100
0000
0110
0000
0000
0000
1001
0000
0000
0000
0110
0000
0000
0002
,  // measure 43
0000
0000
0000
0000
0000
0000
0000
0000
0003
0000
1000
0001
1000
0000
0001
0000
,  // measure 44
1000
1000
0001
1000
0001
0001
1000
0001
,  // measure 45
1000
1000
0001
1000
0002
0200
0000
0303
,  // measure 46
0010
0010
1000
0010
0100
0100
0010
1000
,  // measure 47
0001
0001
0010
0100
0020
0002
0000
0033
,  // measure 48
0010
0010
0100
1000
0010
0010
1000
0001
,  // measure 49
0100
0100
0001
1000
0200
0020
0000
0330
,  // measure 50
0100
0100
1000
0010
0100
0100
0010
1000
,  // measure 51
0001
0001
1000
0010
0200
0002
0000
0303
,  // measure 52
1000
1000
0100
0001
0100
0100
0010
0001
,  // measure 53
0010
0010
0100
1000
0010
0010
0100
0001
,  // measure 54
0100
0100
0010
1000
0001
0001
0010
1000
,  // measure 55
0010
0010
0100
1000
0100
0100
0010
0001
,  // measure 56
0010
0010
0001
0100
1000
1000
0100
0010
,  // measure 57
1000
1000
0010
0100
0001
0001
0010
0100
,  // measure 58
0010
0010
0001
1000
0010
0010
0100
0001
,  // measure 59
1000
1000
0100
0010
0100
0100
1000
0001
,  // measure 60
2000
3200
0320
0032
1003
0100
0001
0100
,  // measure 61
2000
3020
0230
0302
0013
1000
0010
0001
,  // measure 62
0200
0302
0023
0230
0310
0001
1000
0100
,  // measure 63
0020
0230
2300
3020
0130
0010
1000
0001
,  // measure 64
0000
1000
0100
1000
0010
0100
0001
0010
0100
0010
0001
0100
,  // measure 65
0000
0010
0100
0001
0010
0001
1000
0100
0010
0100
1000
0001
,  // measure 66
0000
1000
0010
0001
0010
0100
0001
1000
0100
0010
0100
1000
,  // measure 67
0000
0100
0001
0100
1000
0010
0100
0001
1000
0100
0010
0001
,  // measure 68
0200
0000
0000
0000
,  // measure 69
0000
0000
0000
0000
,  // measure 70
0300
0000
0000
0000
;

//---------------dance-single - ----------------
#NOTES:
     dance-single:
     :
     Easy:
     5:
     0.188701,0.280692,0.115579,0.189880,0.000000,160.000000,146.000000,14.000000,23.000000,0.000000,0.000000,0.188701,0.280692,0.115579,0.189880,0.000000,160.000000,146.000000,14.000000,23.000000,0.000000,0.000000:
// measure 0
0000
0000
0000
0000
,  // measure 1
0000
0000
0000
0000
,  // measure 2
0000
0000
0000
0000
,  // measure 3
0000
0000
0000
0000
,  // measure 4
0000
0000
0000
0000
,  // measure 5
1000
0000
0001
0000
,  // measure 6
0100
0000
0001
0000
,  // measure 7
0010
0010
0100
0100
,  // measure 8
1000
1000
2000
0000
,  // measure 9
3000
0000
0000
0000
,  // measure 10
0000
0000
0000
0000
,  // measure 11
0001
0000
1000
0000
,  // measure 12
0010
0000
1000
0000
,  // measure 13
0100
0000
1000
0000
,  // measure 14
0010
0000
0100
0001
,  // measure 15
0010
0000
0001
0000
,  // measure 16
1000
0000
0100
0000
,  // measure 17
1000
0000
0010
0000
,  // measure 18
0100
0000
0010
0100
,  // measure 19
1001
0000
0001
0000
,  // measure 20
2000
0000
3100
0000
,  // measure 21
1000
0000
0010
0000
,  // measure 22
0100
0000
0001
0000
,  // measure 23
1001
0000
0001
0000
,  // measure 24
0020
0000
0130
0000
,  // measure 25
0010
0000
0001
0000
,  // measure 26
0200
0000
0000
0000
,  // measure 27
0310
0000
0010
0000
,  // measure 28
0010
0000
0010
0000
,  // measure 29
0010
0000
0010
0000
,  // measure 30
0110
0000
0110
0000
,  // measure 31
0110
0000
0110
0000
,  // measure 32
0110
0000
0110
0000
,  // measure 33
0100
0000
0000
0000
,  // measure 34
0000
0000
0000
0000
,  // measure 35
1001
0000
0001
0000
,  // measure 36
2000
0000
3100
0000
,  // measure 37
1000
0000
0010
0000
,  // measure 38
0100
0010
0010
0010
,  // measure 39
0110
0000
0010
0000
,  // measure 40
0200
0000
0301
0000
,  // measure 41
0010
0000
0001
0000
,  // measure 42
1000
0001
0001
0001
,  // measure 43
0200
0000
0000
0300
,  // measure 44
0010
1000
0010
1000
,  // measure 45
0010
1000
0020
0030
,  // measure 46
0100
0001
0100
0001
,  // measure 47
0100
0001
0200
0300
,  // measure 48
0001
1000
0001
1000
,  // measure 49
0001
1000
0002
0003
,  // measure 50
0010
0001
0010
0001
,  // measure 51
0010
0001
0020
0030
,  // measure 52
0001
0010
0100
1000
,  // measure 53
0100
0010
0100
1000
,  // measure 54
0010
0100
0001
0010
,  // measure 55
0100
0010
0001
0100
,  // measure 56
0010
1000
0001
0010
,  // measure 57
0100
0010
0001
0010
,  // measure 58
0100
1000
0010
0100
,  // measure 59
0001
0010
0100
1000
,  // measure 60
0200
0000
0000
0000
,  // measure 61
2300
0000
0000
0000
,  // measure 62
3020
0000
0000
0000
,  // measure 63
0230
0000
0000
0300
,  // measure 64
0202
0000
0000
0303
,  // measure 65
2020
0000
0000
3030
,  // measure 66
2200
0000
0000
3300
,  // measure 67
0022
0000
0000
0000
,  // measure 68
0033
0000
0000
0000
;

//---------------dance-single - ----------------
#NOTES:
     dance-single:
     :
     Medium:
     8:
     0.350276,0.505247,0.313715,0.140346,0.041278,297.000000,259.000000,38.000000,17.000000,0.000000,0.000000,0.350276,0.505247,0.313715,0.140346,0.041278,297.000000,259.000000,38.000000,17.000000,0.000000,0.000000:
// measure 0
0000
0000
0000
0000
,  // measure 1
0000
0000
0000
0000
,  // measure 2
0000
0000
0000
0000
,  // measure 3
0000
0000
0000
0000
,  // measure 4
0000
0000
0000
0000
,  // measure 5
1000
0000
0010
0000
0100
0001
0010
0000
,  // measure 6
0100
0000
1000
0000
0100
0010
0001
0000
,  // measure 7
1000
1000
1000
1000
,  // measure 8
1000
0000
1000
0002
0000
2003
0000
0020
,  // measure 9
0000
3030
0000
0000
,  // measure 10
0100
0000
0000
0000
0001
0000
0000
0000
0000
0000
1000
0000
0000
0001
0000
0000
,  // measure 11
1001
0000
0001
0000
1000
0000
0010
1000
,  // measure 12
0100
0000
0010
0000
0100
0000
1000
0010
,  // measure 13
0100
0000
0001
0000
0010
0000
0100
0010
,  // measure 14
0001
1000
1001
0101
,  // measure 15
0011
0000
0010
0000
0001
0100
0001
0000
,  // measure 16
0010
0000
0100
0000
1000
0100
0010
0000
,  // measure 17
0100
0000
1000
0000
0010
0100
0001
0000
,  // measure 18
0010
0100
1100
0011
,  // measure 19
1002
0100
0013
0100
,  // measure 20
0020
1000
0130
0010
,  // measure 21
1000
0100
0001
0100
,  // measure 22
0010
0011
1010
0011
,  // measure 23
1002
0103
0001
0010
,  // measure 24
0002
0100
0013
0100
,  // measure 25
0010
0000
0000
0000
0001
0000
0000
0000
0100
0000
0000
0000
0010
0000
0000
1001
,  // measure 26
0000
0000
0000
0000
,  // measure 27
1000
0100
0010
0001
,  // measure 28
1000
0100
0010
0001
,  // measure 29
1000
0100
0010
0001
,  // measure 30
1100
0110
0011
1100
,  // measure 31
0110
0011
1100
0110
,  // measure 32
0011
1100
0110
0011
,  // measure 33
1001
0000
0000
0000
0110
0000
0000
0000
0000
0000
1000
0000
0000
0001
0000
0000
,  // measure 34
1001
0000
0000
0000
,  // measure 35
1000
0000
0000
0000
0010
0000
0000
0000
0100
0000
0001
0000
0010
0000
0000
0100
,  // measure 36
0000
0000
0010
0000
0001
0000
0000
0000
1000
0000
0000
0000
0010
0000
0000
1000
,  // measure 37
0000
0000
0001
0000
0010
0000
0000
0000
0100
0000
0000
0000
0010
0000
0000
0001
,  // measure 38
0000
0100
0110
0000
1001
0000
0110
0000
,  // measure 39
1002
0000
0000
0000
1000
0000
0000
0000
1003
0000
0000
0000
0100
0000
0000
1000
,  // measure 40
0000
0000
0010
0000
0100
0000
0000
0000
0001
0000
0000
0000
0001
0000
0000
0100
,  // measure 41
0000
0000
0010
0000
1000
0000
0000
0000
0100
0000
0000
0000
0010
0000
0000
0100
,  // measure 42
0000
0000
0010
0000
0011
0000
0000
0000
1100
0000
0000
0000
0011
0000
0000
0200
,  // measure 43
0000
0000
0000
0300
,  // measure 44
1000
0001
1000
0000
0100
0010
0001
0000
,  // measure 45
0001
0010
0100
0000
2000
0000
3000
0000
,  // measure 46
0010
0100
0001
0000
0010
0100
1000
0000
,  // measure 47
0100
1000
0010
0000
0200
0000
0300
0000
,  // measure 48
0010
1000
0001
0000
0010
0100
1000
0000
,  // measure 49
0100
0010
0001
0000
0200
0000
0300
0000
,  // measure 50
0001
1000
0010
0000
1000
0100
0010
0000
,  // measure 51
0100
1000
0010
0000
0200
0000
0300
0000
,  // measure 52
0100
0001
0100
0010
,  // measure 53
1010
1000
1000
1000
,  // measure 54
0001
0010
0001
1000
,  // measure 55
0011
0010
0010
0010
,  // measure 56
0100
1000
0010
0100
,  // measure 57
0101
0001
0001
0001
,  // measure 58
1000
0001
0010
0100
,  // measure 59
1100
0100
0100
0100
,  // measure 60
1000
0100
0010
0001
1000
0000
0001
0000
,  // measure 61
1000
0001
1000
0001
0100
0000
0010
0000
,  // measure 62
1000
0010
0100
0001
0010
0000
0100
0000
,  // measure 63
0010
0001
1000
0100
0010
0000
0100
0000
,  // measure 64
2000
0000
0000
3000
,  // measure 65
0002
0000
0000
0003
,  // measure 66
0200
0000
0000
0300
,  // measure 67
0020
0000
0000
0000
,  // measure 68
0030
0000
0000
0000
;

//---------------dance-single - ----------------
#NOTES:
     dance-single:
     :
     Beginner:
     3:
     0.113221,0.195762,0.016511,0.033023,0.000000,96.000000,94.000000,2.000000,4.000000,0.000000,0.000000,0.113221,0.195762,0.016511,0.033023,0.000000,96.000000,94.000000,2.000000,4.000000,0.000000,0.000000:
// measure 0
0000
0000
0000
0000
,  // measure 1
0000
0000
0000
0000
,  // measure 2
0000
0000
0000
0000
,  // measure 3
0000
0000
0000
0000
,  // measure 4
0000
0000
0000
0000
,  // measure 5
1000
0000
0000
0000
,  // measure 6
0001
0000
0000
0000
,  // measure 7
0100
0000
0100
0000
,  // measure 8
0100
0000
0000
0000
,  // measure 9
0000
0000
0000
0000
,  // measure 10
0010
0000
0000
0000
,  // measure 11
1000
0000
0000
0000
,  // measure 12
0001
0000
0000
0000
,  // measure 13
1000
0000
0000
0000
,  // measure 14
0001
0000
0010
0000
,  // measure 15
0100
0000
0000
0000
,  // measure 16
0010
0000
0000
0000
,  // measure 17
0001
0000
0000
0000
,  // measure 18
1000
0000
0001
0000
,  // measure 19
0100
0000
0000
0000
,  // measure 20
0010
0000
0000
0000
,  // measure 21
1000
0000
0000
0000
,  // measure 22
0100
0000
0000
0000
,  // measure 23
1001
0000
0000
0000
,  // measure 24
0010
0000
0000
0000
,  // measure 25
0100
0000
0001
0000
,  // measure 26
1000
0000
0000
0000
,  // measure 27
0001
0000
0000
0000
,  // measure 28
0000
0000
0000
0000
,  // measure 29
0000
0000
0000
0000
,  // measure 30
1000
0000
1000
0000
,  // measure 31
1000
0000
1000
0000
,  // measure 32
0001
0000
0001
0000
,  // measure 33
0001
0000
0000
0000
,  // measure 34
0000
0000
0000
0000
,  // measure 35
0110
0000
0000
0000
,  // measure 36
0010
0000
0000
0000
,  // measure 37
0100
0000
0000
0000
,  // measure 38
0001
1000
1000
1000
,  // measure 39
0001
0000
0000
0000
,  // measure 40
0010
0000
0000
0000
,  // measure 41
0100
0000
0000
0000
,  // measure 42
1000
0001
0001
0001
,  // measure 43
1000
0000
0000
0000
,  // measure 44
0010
0000
1000
0000
,  // measure 45
0100
0000
0000
0000
,  // measure 46
0010
0000
0001
0000
,  // measure 47
1000
0000
0010
0000
,  // measure 48
0100
0000
0001
0000
,  // measure 49
0010
0000
0000
0000
,  // measure 50
0010
0000
0001
0000
,  // measure 51
1000
0000
0100
0000
,  // measure 52
1000
0000
0000
0000
,  // measure 53
0010
0010
0010
0010
,  // measure 54
0010
0000
0000
0000
,  // measure 55
0100
0100
0100
0100
,  // measure 56
0100
0000
0000
0000
,  // measure 57
0001
0001
0001
0001
,  // measure 58
0001
0000
0000
0000
,  // measure 59
1000
1000
1000
1000
,  // measure 60
1000
0000
0001
0000
,  // measure 61
0100
0000
0001
0000
,  // measure 62
0010
0000
0100
0000
,  // measure 63
1000
0000
0001
0000
,  // measure 64
2000
0000
0000
3000
,  // measure 65
0002
0000
0000
0003
,  // measure 66
2000
0000
0000
3000
,  // measure 67
0002
0000
0000
0003
;
