#TITLE:MAX SBY;
#SUBTITLE:-428-;
#ARTIST:Ω r;
#TITLETRANSLIT:;
#SUBTITLETRANSLIT:;
#ARTISTTRANSLIT:OMEGA r;
#GENRE:MAX TECHNO;
#CREDIT:;
#BANNER:banner.png;
#BACKGROUND:background.png;
#LYRICSPATH:;
#CDTITLE:cdtitle.png;
#MUSIC:MAX SBY -428-.ogg;
#OFFSET:-0.001000;
#SAMPLESTART:0.000000;
#SAMPLELENGTH:17.454546;
#SELECTABLE:YES;
#BPMS:0.000000=110.000000
,48.000000=220.000000
,147.000000=115.000000
,171.500000=240.000000
,267.000000=300.000000
,299.000000=428.000000
,315.000000=53.000000
;
#STOPS:266.500000=0.130000
;
#BGCHANGES:;
#KEYSOUNDS:;
#ATTACKS:;

//---------------dance-single - ----------------
#NOTES:
     dance-single:
     :
     Hard:
     16:
     0.720642,0.984698,0.245408,0.063624,0.527172,555.000000,528.000000,27.000000,7.000000,0.000000,0.000000,0.720642,0.984698,0.245408,0.063624,0.527172,555.000000,528.000000,27.000000,7.000000,0.000000,0.000000:
0000
0000
0000
0000
,
0000
0000
0000
0000
,
0000
0000
0000
0000
,
0000
0000
0000
0000
0000
0000
0010
0100
0010
0100
0000
0000
,
0010
0000
1000
0000
0100
0000
1000
0010
0000
0100
0000
0001
0010
0000
0100
0000
,
0010
0000
0001
0000
0100
0000
0010
0100
0000
0010
1000
0001
0010
1000
0010
0100
,
0010
0000
0100
0000
1000
0000
0100
0010
0000
0100
1000
0000
0001
0000
0000
0000
,
1000
0000
0000
0000
0010
0000
0000
0000
0100
0000
0000
0000
0001
0000
0010
0000
0000
0000
0100
0000
0010
0001
0010
0001
0010
0000
0001
0000
0100
0000
0000
0000
,
1001
0000
1000
0100
0000
0010
0010
0000
0100
0000
0010
0001
0100
0010
1000
0000
,
0001
0000
1000
0010
0000
0100
0001
0000
0010
0000
0100
0100
0000
0100
0010
0000
,
0001
0000
1000
0100
0000
0100
1000
0000
0010
0000
0100
0010
1000
0001
0010
0000
,
0100
0000
0010
0001
0000
0010
0100
0000
0010
0000
0001
0100
0010
1000
0001
0000
,
1000
0000
0010
0000
0100
0000
0001
0000
0010
0000
0100
1000
0000
0100
0010
0000
,
0100
0000
1000
0000
0010
0000
0100
0000
0001
0000
1000
0001
0000
0100
0001
0000
,
0010
0000
0100
0000
0010
0000
0001
0000
1000
0000
0001
0100
0000
0001
0010
0000
,
0100
0000
0010
0000
0001
0000
1000
0000
0010
0100
0010
0000
0000
0000
0000
0000
,
0100
0000
0001
0000
1000
0000
0100
0000
0010
0000
0100
1000
0000
0100
0010
0000
,
0100
0000
1000
0000
0010
0000
0100
0000
0001
0000
1000
0010
0000
0100
0010
0000
,
1000
0000
0100
0000
1000
0000
0001
0000
0100
0000
0010
1000
0000
0010
0100
0000
,
0010
0000
0100
0000
0001
0000
0010
0000
0100
0000
0010
0001
0000
0010
0100
0000
,
0010
0001
0010
0000
0001
0000
0100
0000
0010
0000
1000
0010
0000
0100
0010
0000
,
1000
0001
1000
0000
0001
0000
0010
0000
0100
0000
0010
0001
0000
0010
0100
0000
,
0010
0001
0010
0000
0100
0000
1000
0000
0010
0000
0100
0001
0000
0010
0100
0000
,
1000
0010
1000
0000
0001
0000
0010
0000
0100
0000
1000
0010
0000
0100
0001
0000
,
1000
0001
1000
0000
0001
0000
0010
0000
0100
0000
0010
0001
0000
0010
0100
0000
,
1000
0100
1000
0000
0100
0000
1000
0000
0010
0000
0100
0001
0000
0010
0100
0000
,
0010
0001
0010
0000
0001
0000
0100
0000
0010
0000
1000
0010
0000
0100
0010
0000
,
0100
0010
0100
0000
0010
0000
1000
0000
0001
0000
0010
0100
0000
0010
0001
0000
,
0110
1001
0110
2002
,
0000
0000
0000
0000
,
0000
0000
3003
2000
,
0000
0100
0000
0000
0010
0000
0000
0001
,
0000
0010
3010
1002
,
0000
0010
0000
0000
0100
0000
0000
0010
,
0000
1000
0000
1000
,
0000
0100
0000
0000
0010
0000
0000
0100
,
0000
0000
1000
0000
1000
0000
0003
0110
,
0000
0011
1100
0000
0000
0000
0010
1000
,
0100
0000
0010
0000
0000
0000
0100
1000
0001
0000
1000
0000
0000
1000
0100
0000
,
0100
0000
0000
0010
0001
0010
0100
0010
0001
1000
0100
0010
0100
1000
0001
0000
,
1000
0000
0010
0100
0001
0100
0010
1000
0100
0000
0010
0000
0100
0000
1000
0000
,
0001
1000
0001
0000
0000
0100
0001
0000
0000
0000
0010
0100
0010
0000
0000
0100
,
0000
0100
0100
0000
0000
0010
0010
0000
0001
0000
0001
0000
0001
0000
1000
0000
,
0010
1000
0000
0010
0000
0110
0000
0100
,
0001
0010
0000
0100
0000
1100
0000
0100
,
1000
0001
0000
0100
0000
0110
0000
0100
,
0010
0000
1000
0000
0000
0000
0001
1000
0001
0000
0000
0000
0000
0000
1000
0000
,
0001
0100
0000
0101
0000
0011
0000
0001
,
0010
0100
0000
0110
0000
1100
0000
0100
,
0010
0001
0000
0011
0000
1100
0000
0001
,
0100
0000
0010
0000
0000
0000
1000
0000
0000
0010
0000
0000
0100
0000
0010
0000
,
1000
0000
0100
0000
0010
0000
0100
0000
1000
0100
0000
0100
0010
0000
0100
0000
,
0010
0000
0001
0000
0100
0000
0010
0000
1000
0001
0000
1000
0001
0000
1000
0000
,
0010
0000
0100
0000
0001
0000
0010
0000
0100
0010
0000
0010
0001
0000
1000
0000
,
0001
0000
0100
0000
0010
0000
1000
0000
0001
0010
0000
0001
0100
0000
0001
0000
,
1000
0000
0100
0000
0010
0000
0100
0000
1000
0001
0000
0010
0100
0000
0010
0000
,
0001
0000
0100
0000
0010
0000
1000
0000
0100
0010
0000
0100
1000
0000
0100
0000
,
0100
0010
0010
0001
0100
1000
0100
0000
,
0010
1000
0100
0001
0100
0010
0001
0000
,
0010
0001
0100
1000
0100
0010
1000
0000
,
0100
0001
0100
0010
0001
1000
0001
0000
,
1000
0001
0100
0010
,
1000
0100
0010
1001
,
0110
1001
0110
1001
,
0110
0000
1001
0000
0110
0000
1000
0001
,
1000
0000
0001
0000
1000
0000
0001
0000
1000
0000
0001
0000
1000
0001
0000
0000
,
0010
0000
0000
0100
0000
0000
2000
0000
0000
0000
3000
0000
0001
0000
0100
0000
,
0001
0000
0010
0000
0100
0000
1000
0100
,
1000
0000
0100
0000
1000
0000
0010
0100
,
0010
0000
0100
0000
0001
0000
0010
0100
,
0010
0000
0100
0000
1000
0000
0001
0100
,
0010
0000
1000
0000
0010
0000
0100
0001
,
0010
0000
0100
0000
0010
0000
0100
1000
,
0010
0000
0100
0000
0001
0000
1000
0001
,
0010
0100
1000
0001
,
0000
0001
0000
0000
0010
0000
0000
0100
0000
0000
1000
0000
0000
0000
0001
0000
,
0000
0010
0000
0000
0100
0000
0000
1000
0000
0000
0100
0000
0000
0010
0000
0000
,
0001
0000
0000
0010
0000
0000
0100
0000
0000
1000
0000
0000
0100
0000
0000
1000
,
0000
0000
0010
0000
0000
0100
0000
0000
0001
0000
0000
1000
0000
0000
0000
0000
,
0000
0000
2002
0000
,
0000
3003
0000
0000
;

//---------------dance-single - ----------------
#NOTES:
     dance-single:
     :
     Medium:
     13:
     0.519381,0.903237,0.181783,0.099981,0.204506,400.000000,380.000000,20.000000,11.000000,0.000000,0.000000,0.519381,0.903237,0.181783,0.099981,0.204506,400.000000,380.000000,20.000000,11.000000,0.000000,0.000000:
0000
0000
0000
0000
,
0000
0000
0000
0000
,
0000
0000
0000
0000
,
0000
0000
0000
0000
,
1000
0000
0100
0000
0010
0000
0100
1000
0000
0010
0000
0000
0110
0000
0000
0000
,
0100
0000
0001
0000
0010
0000
0100
0010
0000
0100
1000
0100
0010
0100
1000
0001
,
0010
0000
0100
0000
1000
0000
0010
0100
0000
0001
0000
0000
1001
0000
0000
0000
,
0001
0000
0100
0000
0010
0000
1000
0010
0000
0000
0100
0100
0100
0000
0000
0000
,
1001
1000
0001
0010
,
0001
0100
0010
1000
,
0010
0100
0010
1000
,
0001
0010
0100
0010
,
0001
0000
0000
0000
1000
0000
0000
0000
0100
0000
0000
1000
0000
0000
0010
0000
,
0100
0000
0000
0000
0001
0000
0000
0000
0010
0000
0000
0001
0000
0000
0010
0000
,
0100
0000
0000
0000
0010
0000
0000
0000
0001
0000
0000
1000
0000
0000
0010
0000
,
1000
0000
0001
0000
1000
0001
0100
0000
,
0010
0000
0000
0000
1000
0000
0000
0000
0100
0000
0000
1000
0000
0000
0001
0000
,
0010
0000
0000
0000
0001
0000
0000
0000
0100
0000
0000
0001
0000
0000
1000
0000
,
0100
0000
0000
0000
0010
0000
0000
0000
0100
0000
0000
1000
0000
0000
0010
0000
,
0100
0000
0001
0000
1000
0010
0100
0000
,
0001
0000
0010
0000
0001
0000
0000
0000
0010
0000
0000
0100
0000
0000
1000
0000
,
0010
0000
0100
0000
0010
0000
0000
0000
0100
0000
0000
0001
0000
0000
1000
0000
,
0100
0000
0010
0000
0100
0000
0000
0000
0010
0000
0000
0001
0000
0000
0100
0000
,
0010
0000
1000
0000
0100
0000
0000
0000
0010
0100
0000
0000
0000
0000
0000
0000
,
0100
0000
1000
0000
0001
0000
0000
0000
0100
0000
0000
0010
0000
0000
1000
0000
,
0001
0000
0010
0000
0100
0000
0000
0000
0010
0000
0000
0001
0000
0000
1000
0000
,
0001
0000
0100
0000
0010
0000
0000
0000
0100
0000
0000
0001
0000
0000
1000
0000
,
0100
0000
1000
0000
0010
0000
0000
0000
0100
0000
0000
0010
0000
0000
1000
0000
,
1001
0110
1001
0220
,
0000
0000
0000
0000
,
0000
0000
0330
1000
,
0000
0100
0000
0000
0010
0000
0000
0100
,
0000
1000
0001
0120
,
0000
0130
0000
0000
0001
0000
0000
0100
,
0000
2000
0000
3100
,
0000
0010
0000
0000
0100
0000
0000
0010
,
0000
0000
0001
0000
0010
0000
0000
1001
,
0000
0010
1001
0000
0000
0000
0001
0010
,
0100
0000
1000
0000
0000
0100
1000
0000
0001
0000
0100
0000
0000
0010
0100
0000
,
0010
0000
1000
0010
0100
0001
0010
0110
,
0011
0001
1001
0101
0001
1100
0110
0100
,
1100
0000
0101
0000
0000
0001
0100
0000
0000
0000
0010
0000
0010
0000
0000
0100
,
0000
0100
0010
0000
0000
1000
0001
0000
0001
0000
0001
0000
0001
0000
0001
0000
,
1000
0000
0100
0000
0000
0000
0010
0000
0000
0100
0000
0000
1000
0000
0100
0000
,
1000
0000
0010
0000
0000
0000
0100
0000
0000
0010
0000
0000
1000
0000
0001
0000
,
0010
0000
0001
0000
0000
0000
0010
0000
0000
0100
0000
0000
1000
0000
0001
0000
,
0100
0010
0000
1001
0000
0000
0000
0001
,
0100
0000
0010
0000
0000
0000
1000
0000
0000
0010
0000
0000
0100
0000
0001
0000
,
0010
0000
0100
0000
0000
0000
0010
0000
0000
0100
0000
0000
1000
0000
0001
0000
,
1000
0000
0100
0000
0000
0000
1000
0000
0000
0010
0000
0000
0100
0000
0010
0000
,
1000
0000
0001
0000
0000
0000
0010
0000
0000
0001
0000
0000
1000
0000
0100
0000
,
0010
0100
1000
0020
0000
0130
0000
0010
,
1000
0001
0010
0200
0000
0310
0000
0100
,
0010
0001
1000
0020
0000
0130
0000
0010
,
1000
0000
0001
0000
0010
0000
0100
1000
0000
0000
0000
0000
0000
0000
0100
0000
,
1000
0001
0010
0200
0000
0310
0000
0100
,
1000
0010
0100
0002
0000
0013
0000
0010
,
0001
0100
0010
2000
0000
3001
0000
0000
,
0000
1000
0001
0010
0100
0000
1000
0000
,
0000
1000
0001
0010
0100
0000
1000
0000
,
0000
1000
0001
0010
0100
0000
1000
0000
,
0001
0100
0010
1000
,
0001
0010
0100
1000
,
1000
1000
1000
1000
,
1000
0000
1000
0000
1000
0000
0001
0100
,
0001
0100
0001
0100
0001
0100
0010
0000
,
0100
0000
0000
0010
0000
0000
1000
0000
0000
0000
0000
0000
1001
0000
0000
0000
,
0001
0100
0010
0100
,
0001
0100
0001
0010
,
0001
0100
0010
1000
,
0001
0000
0010
0100
1000
0000
0100
0000
,
1000
0010
0100
0001
,
0010
0001
1000
0100
,
1000
0010
0100
0010
,
1000
0000
0001
1000
0001
0000
0100
0000
,
0000
0000
0000
0000
0100
0000
0000
0010
0000
0000
1000
0000
0000
0000
0000
0000
,
0000
0000
0100
0000
0000
0010
0000
0000
0001
0000
0000
0000
0000
0000
0000
0000
,
0010
0000
0000
0100
0000
0000
1000
0000
0000
0000
0000
0000
0000
0000
0000
0000
,
0100
0000
0000
0010
0000
0000
0001
0000
0000
1000
0000
0000
0020
0000
0000
0000
,
0000
0000
0130
0000
;

//---------------dance-single - ----------------
#NOTES:
     dance-single:
     :
     Easy:
     9:
     0.412908,0.578071,0.109070,0.027268,0.059080,318.000000,306.000000,12.000000,3.000000,0.000000,0.000000,0.412908,0.578071,0.109070,0.027268,0.059080,318.000000,306.000000,12.000000,3.000000,0.000000,0.000000:
0000
0000
0000
0000
,
0000
0000
0000
0000
,
0000
0000
0000
0000
,
0000
0000
0000
0000
,
1000
0000
0000
0000
0001
0000
0000
0100
0000
0001
0000
0000
0100
0000
0000
0000
,
0010
0000
0000
0000
1000
0000
0000
0001
0000
1000
0000
0000
0001
0000
0100
0000
,
0010
1000
0000
0000
1000
0000
0000
0010
0000
0100
0000
0000
0010
0000
0000
0000
,
1000
0000
0001
0000
0100
0010
0000
1000
0000
0000
0001
0010
0100
0000
0000
0000
,
0010
0001
0100
0001
,
1000
0100
0010
0100
,
1000
0010
0100
0001
,
1000
0010
0100
0010
,
1000
0001
0010
0010
,
0001
1000
0100
0100
,
1000
0001
1000
1000
,
0100
0010
1001
0000
,
0001
0100
0010
0010
,
0100
0001
1000
1000
,
0100
1000
0010
0010
,
0100
0010
1000
0000
,
0001
0000
1000
0000
0010
1000
0010
0000
,
0100
0000
0001
0000
0010
0100
0010
0000
,
0100
0000
1000
0000
0001
0100
0001
0000
,
0100
0010
1001
0000
,
0001
0000
0010
0000
0100
1000
0100
0000
,
1000
0000
0010
0000
0100
0010
0100
0000
,
0001
0000
0100
0000
0010
1000
0010
0000
,
0100
0000
0001
0000
0010
0100
0010
0000
,
0110
1001
0110
2002
,
0000
0000
0000
0000
,
3003
0000
0000
1000
,
0000
1000
0000
0000
1000
0000
0000
1000
,
0000
1000
0001
1001
,
0000
0001
0000
0000
0001
0000
0000
0001
,
0000
0001
0000
0100
,
0000
0010
0000
0000
0100
0000
0000
0010
,
0000
0000
0100
0000
0100
0000
0000
0010
,
0000
1000
0001
0000
0000
0000
0010
0001
,
0100
0010
0000
0100
0010
1000
0000
0001
,
0001
0000
1000
0100
0010
0001
0010
0100
,
0100
1000
1000
0001
0100
0100
0010
1000
,
0100
0000
0010
0000
0000
0000
0100
0000
0000
0000
1000
0000
1000
0000
0000
0001
,
0000
0001
1000
0000
0000
0100
0010
0000
0100
0000
1000
0000
0001
0000
0100
0000
,
0000
0010
0000
1000
0000
0001
0000
0010
,
0000
0100
0000
0010
0000
0001
0000
1000
,
0000
0010
0000
1000
0000
0100
0000
0010
,
0000
0100
0000
1001
0000
0000
0000
0010
,
0000
1000
0000
0010
0000
0100
0000
0001
,
0000
0010
0000
0001
0000
1000
0000
0100
,
0000
0010
0000
0100
0000
1000
0000
0001
,
0000
0100
0000
0020
0000
1030
0000
0001
,
1000
0001
0000
0010
0000
0100
0000
1000
,
0100
1000
0000
0100
0000
1000
0000
0010
,
0100
0010
0000
0100
0000
0001
0000
0010
,
0100
0010
0000
1001
0000
0000
0000
0001
,
0010
0001
0000
1000
0000
0100
0000
0010
,
0100
0010
0000
0100
0000
1000
0000
0010
,
0100
0010
0000
0100
0000
0001
0000
0000
,
0000
1000
0000
0001
0100
0000
0010
0000
,
0000
1000
0000
0001
0100
0000
0010
0000
,
0000
1000
0000
0001
0100
0000
0010
0000
,
0100
0001
1000
0100
,
0010
0100
1000
0001
,
0100
0100
0100
0100
,
0100
0000
0100
0000
0100
0000
0010
1000
,
0010
1000
0010
1000
0010
1000
0001
0000
,
0000
0000
0000
1000
,
0001
0010
0100
0010
,
0001
0100
0010
1000
,
0010
0100
0001
0010
,
0100
1001
0000
1000
,
0001
0010
0001
0100
,
0010
1000
0100
0010
,
0100
1000
0010
0100
,
0001
1001
0000
0001
,
0000
1000
0000
0000
,
0000
0100
0000
0000
,
0000
0010
0000
0000
,
0000
0001
0000
0000
,
0000
0000
0110
0000
;

//---------------dance-single - ----------------
#NOTES:
     dance-single:
     :
     Beginner:
     6:
     0.184380,0.289036,0.090892,0.054535,0.000000,142.000000,132.000000,10.000000,6.000000,0.000000,0.000000,0.184380,0.289036,0.090892,0.054535,0.000000,142.000000,132.000000,10.000000,6.000000,0.000000,0.000000:
0000
0000
0000
0000
,
0000
0000
0000
0000
,
0000
0000
0000
0000
,
0000
0000
0000
0000
,
1000
0000
0000
0000
,
0001
0000
0000
0000
,
0100
0000
0000
0000
,
0010
0000
1000
0000
,
1001
0000
0000
0000
,
0001
0000
0000
0000
,
0100
0000
0000
0000
,
0010
0000
1000
0000
,
0100
0000
1000
0000
,
0001
0000
0000
0000
,
1000
0000
0001
0000
,
0100
0000
0110
0000
,
0010
0000
1000
0000
,
0100
0000
0000
0000
,
1000
0000
0001
0000
,
0100
0000
0010
0000
,
1000
1000
1000
0000
,
0001
0001
0001
0000
,
0100
0100
0100
0000
,
0010
0010
0110
0000
,
0100
0100
0100
0000
,
0001
0001
0001
0000
,
1000
1000
1000
0000
,
0001
0001
0001
0000
,
1000
0001
0100
0110
,
0000
0000
0000
0000
,
0000
0000
0000
0200
,
0000
0000
0000
0000
,
0000
0300
0000
0020
,
0000
0000
0000
0000
,
0000
0000
0030
2000
,
0000
0000
0000
0000
,
0000
0000
0000
0000
3000
0000
0000
0001
,
0000
1000
0000
0010
,
0000
0000
1000
0000
,
0100
0000
0000
0000
0000
0000
0000
1000
,
1000
1000
0000
0000
0001
0000
0000
0000
,
0000
0100
0000
0010
0000
1000
0000
0000
,
0000
0000
0000
0000
0000
0000
0000
1001
,
0000
0000
0000
0000
0000
0000
0000
0001
,
0000
0000
0000
0000
0000
0000
0000
1000
,
0000
0000
0000
0000
0000
0000
0000
0010
,
0000
0000
0000
0110
0000
0000
0000
0100
,
0000
0000
0000
0000
0000
0000
0000
0010
,
0000
0000
0000
0000
0000
0000
0000
1000
,
0000
0000
0000
0000
0000
0000
0000
0100
,
0000
0000
0000
1000
0000
0000
0000
0001
,
0000
0001
0000
0001
0000
0000
0000
1000
,
0000
1000
0000
1000
0000
0000
0000
0010
,
0000
0010
0000
0010
0000
0000
0000
0100
,
0000
0100
0000
0110
0000
0000
0000
0010
,
0000
0010
0000
0010
0000
0000
0000
1000
,
0000
1000
0000
1000
0000
0000
0000
0001
,
0000
1000
0000
0010
0000
0000
0000
1000
,
0000
0000
0000
0000
,
0000
1000
0000
0000
0000
0000
0000
0000
,
0000
1000
0000
0000
0000
0000
0000
0000
,
0000
1000
0000
0000
0000
0001
0000
0000
,
0000
1000
0000
0000
0000
0001
0000
0000
,
0100
0100
0010
0010
,
1000
1000
0001
0200
,
0000
0000
0000
0300
,
0020
0000
0000
0000
0000
0030
0100
0000
,
0000
0010
0000
1000
,
0000
0001
0000
0010
,
0000
0001
0000
1000
,
0000
1001
0000
0001
,
0000
1000
0000
0010
,
0000
1000
0000
0010
,
0000
0100
0000
0001
,
0000
1001
0000
0020
,
0000
0000
0000
0000
,
0000
0000
0000
0000
,
0000
0000
0000
0000
,
0000
0000
0000
0030
,
0000
0000
1001
0000
;

//---------------dance-single - ----------------
#NOTES:
     dance-single:
     :
     Challenge:
     18:
     0.854382,1.336790,0.508994,0.081803,0.772580,658.000000,602.000000,56.000000,9.000000,0.000000,0.000000,0.854382,1.336790,0.508994,0.081803,0.772580,658.000000,602.000000,56.000000,9.000000,0.000000,0.000000:
// measure 0
0000
0000
0000
0000
,  // measure 1
0000
0000
0000
0000
,  // measure 2
0000
0000
0000
0000
,  // measure 3
0000
0000
0000
0000
0000
0000
0001
0001
0001
1001
0000
0000
,  // measure 4
1000
0000
0001
0000
0101
0000
0001
0010
0000
0100
0010
0000
0001
0010
0100
0000
,  // measure 5
0100
0000
0000
0000
1000
0000
0000
0000
1010
0000
0000
0000
0100
0000
0010
0000
1000
0010
1000
0000
0001
0000
0010
0000
0100
1000
0100
0000
1000
0000
0001
0000
,  // measure 6
0100
0001
0010
0000
1100
0000
0100
1000
0000
0001
0100
0000
0001
0100
0001
0000
,  // measure 7
1000
0000
0001
0000
0010
0000
0000
0000
0110
0000
0000
0000
0010
0000
0001
0000
0000
0000
1000
0000
0100
0010
0001
0010
0100
0000
1000
0000
0001
0100
0001
0100
,  // measure 8
0001
0000
0000
0000
0100
0000
0001
0000
0010
0000
0010
0000
0100
0000
0000
0000
0000
0010
0100
0000
1000
0000
0001
0000
1000
0010
1000
0000
0001
0000
0010
0000
,  // measure 9
0200
0300
0200
0300
0010
0001
1000
0001
1000
0100
1000
0001
0000
1000
0001
0000
,  // measure 10
0100
0000
0000
0000
0001
0000
0010
0000
0000
0000
0100
1000
0100
0000
1000
0000
0001
0100
0001
0000
1000
0000
0100
0000
0010
0100
0010
0000
0001
0000
1000
0000
,  // measure 11
0010
1000
0010
0000
0100
0001
0100
0000
0001
0000
1000
0000
0110
0000
0000
0000
0100
0000
0000
0010
1000
0000
0001
0000
0010
0100
1000
0000
0100
0000
0010
0000
,  // measure 12
0001
0000
1000
0000
0010
0000
1000
0000
0100
0000
0010
0100
0000
0100
1000
0000
,  // measure 13
0100
0000
1000
0000
0010
0000
0100
0000
0001
0000
0010
0100
0000
0100
0010
0000
,  // measure 14
0100
0000
0010
0000
0001
0000
1000
0000
0010
0000
0100
0001
0000
0001
0010
0000
,  // measure 15
0100
0000
0010
0000
0001
0000
1000
0000
0010
0100
0010
0000
0000
0000
0000
0000
,  // measure 16
1000
0000
0001
0000
0010
0000
0001
0000
1000
0000
0001
0100
0000
0001
1000
0000
,  // measure 17
0100
0000
0010
0000
0100
0000
1000
0000
0100
0000
1000
0100
0000
0010
0001
0000
,  // measure 18
0010
0000
0001
0000
0100
0000
0010
0000
1000
0000
0001
0010
0000
0100
0010
0000
,  // measure 19
0100
0000
1000
0000
0001
0000
0100
0000
0010
0000
0000
1000
0000
0000
0001
0000
,  // measure 20
0010
0100
0010
0000
0100
1000
0100
0000
1000
0000
0001
0100
0000
0100
0010
0000
,  // measure 21
0100
0001
0100
0000
0010
0100
0010
0000
0100
0000
0001
1000
0000
0010
1000
0000
,  // measure 22
0100
1000
0100
0000
1000
0010
1000
0000
0010
0000
0100
0001
0000
0010
0100
0000
,  // measure 23
0010
0001
0010
0000
0001
1000
0001
0000
0100
0010
0100
0000
0000
0000
0000
0000
,  // measure 24
0001
0100
0001
0000
1000
0010
1000
0000
0001
0000
1000
0100
0000
0010
0001
0000
,  // measure 25
0010
0100
0010
0000
0100
1000
0100
0000
1000
0000
0001
0100
0000
0001
0010
0000
,  // measure 26
0100
0010
0100
0000
0010
0001
0010
0000
0001
0000
0100
0010
0000
1000
0010
0000
,  // measure 27
1000
0100
1000
0000
0001
0100
0001
0000
1000
0000
0001
0100
0000
0010
1000
0000
,  // measure 28
0110
1001
0110
2002
,  // measure 29
0000
0000
0000
0000
,  // measure 30
3000
0000
0000
1000
,  // measure 31
0000
0100
0000
0000
0010
0000
0000
0100
,  // measure 32
0000
0010
0100
2003
,  // measure 33
0000
0001
0000
0000
0010
0000
0000
0001
,  // measure 34
0000
0020
0030
0001
,  // measure 35
0000
0010
0000
0000
0100
0000
0000
0010
,  // measure 36
0000
0000
0001
0000
3001
0000
0000
0110
,  // measure 37
0000
1000
1001
0000
1001
0000
0000
0000
0000
0000
0000
0000
0011
0000
0110
0000
,  // measure 38
1100
0000
1001
0000
0000
0000
1000
0010
0010
0000
0100
0000
0000
0001
0001
0000
,  // measure 39
0001
0000
0000
1000
0100
0001
0100
1000
0010
0001
0010
1000
0010
0100
0101
0000
,  // measure 40
0011
0000
1000
1000
0100
1000
0001
1000
1010
0000
0110
0000
0101
0000
1001
0000
,  // measure 41
1000
0010
1010
0000
0000
0100
0001
0000
0000
0000
0011
0000
0011
0000
0000
0110
,  // measure 42
0000
0110
0110
0000
0000
1001
1001
0000
0110
0000
1001
0000
0110
0000
1001
0000
,  // measure 43
1000
0000
0100
0000
1000
0000
0010
0000
0100
0001
0000
0100
0010
0000
0100
0000
,  // measure 44
0010
0000
1000
0000
0001
0000
0010
0000
0100
0010
0000
0100
1000
0000
0100
0000
,  // measure 45
1000
0000
0010
0000
0100
0000
0001
0000
1000
0001
0000
0010
0100
0000
0010
0000
,  // measure 46
0001
0000
0100
0000
0010
0000
1000
0001
1000
0000
0000
0000
0000
0000
0001
0000
,  // measure 47
0010
0000
0001
0000
0100
0000
0010
0000
1000
0010
0000
0100
0010
0000
0100
0000
,  // measure 48
0010
0000
1000
0000
0001
0000
0010
0000
0100
0010
0000
0100
1000
0000
0100
0000
,  // measure 49
1000
0000
0010
0000
0100
0000
0001
0000
1000
0001
0000
0010
0100
0000
0010
0000
,  // measure 50
0001
0000
0100
0000
0010
0000
1000
0000
0000
0010
0000
0000
0100
0000
0001
1000
,  // measure 51
0001
0000
1000
0001
1000
0000
0001
0000
0100
0000
0010
0000
1000
0000
0100
1000
,  // measure 52
0100
0000
1000
0100
1000
0000
0100
0000
1000
0000
0001
0000
0100
0000
0010
1000
,  // measure 53
0010
0000
1000
0010
1000
0000
0010
0000
0100
0000
0001
0000
0010
0000
0100
0010
,  // measure 54
0100
0000
0010
0100
0010
0000
0100
1000
0001
0000
0000
0000
0000
0000
1000
0010
,  // measure 55
1000
0000
0001
0100
0001
0000
0100
0000
0000
0001
0000
0000
0010
0000
0100
1000
,  // measure 56
0100
0000
1000
0001
1000
0000
0001
0000
0000
0100
0000
0000
0001
0000
0010
0000
,  // measure 57
1000
0010
0001
0001
1000
0001
1000
0000
,  // measure 58
0000
1000
0100
0010
0001
0000
1001
0000
,  // measure 59
0000
1000
0100
0010
0001
0000
1001
0000
,  // measure 60
0000
1000
0100
0010
0001
0000
1001
0000
,  // measure 61
0110
1001
0110
1001
,  // measure 62
0110
0000
1001
0000
0110
0000
0100
0110
,  // measure 63
0000
0110
0000
0110
0000
0110
0000
0110
,  // measure 64
0000
0110
0000
0110
0000
0110
0100
0100
,  // measure 65
0100
0000
0100
0000
0100
0000
0100
0000
0100
0000
0100
0010
0100
0000
0000
0000
,  // measure 66
1001
0000
0000
1100
0000
0000
0022
0000
0000
0000
0000
0033
1000
0000
0001
0000
,  // measure 67
0100
0000
0001
0000
0010
0000
0000
0100
0000
0000
1000
0000
0100
0000
1000
0000
,  // measure 68
0010
0000
0100
0000
0001
0000
0000
0010
0000
0000
0001
0000
1000
0000
0010
0000
,  // measure 69
0100
0000
0001
0000
0010
0000
0000
0001
0000
0000
1000
0000
0100
0000
1000
0000
,  // measure 70
0010
0000
0100
0000
0001
1000
0001
0000
0000
0000
0000
0000
1000
0000
0001
0000
,  // measure 71
0010
0000
0100
0000
0010
0000
0000
0100
0000
0000
1000
0000
0010
0000
1000
0000
,  // measure 72
0001
0000
0010
0000
0100
0000
0000
0010
0000
0000
0001
0000
1000
0000
0010
0000
,  // measure 73
1000
0000
0100
0000
1000
0000
0000
0001
0000
0000
0010
0000
0001
0000
0100
0000
,  // measure 74
0010
0000
0100
0000
0001
0000
0000
1000
0000
0000
0100
0000
0010
0000
0000
0000
,  // measure 75
0000
0001
0000
0000
0010
0000
0000
0100
0000
0000
1000
0000
0000
0000
1000
0000
,  // measure 76
0000
0100
0000
0000
0010
0000
0000
0001
0000
0000
0100
0000
0000
0010
0000
0000
,  // measure 77
1000
0000
0000
0001
0000
0000
0100
0000
0000
0010
0000
0000
1000
0000
0000
0100
,  // measure 78
0000
0000
0001
0000
0000
0100
0000
0000
1000
0000
0000
0002
0000
0000
0000
0000
,  // measure 79
0000
0000
0013
0000
;
