#VERSION:0.83;
#TITLE:Lightning;
#SUBTITLE:;
#ARTIST:AJURIKA;
#TITLETRANSLIT:;
#SUBTITLETRANSLIT:;
#ARTISTTRANSLIT:;
#GENRE:DRUMSTEP;
#ORIGIN:;
#CREDIT:;
#BANNER:Lightning-banner.png;
#BACKGROUND:Lightning-background.png;
#PREVIEWVID:;
#JACKET:Lightning-jacket.png;
#CDIMAGE:;
#DISCIMAGE:;
#LYRICSPATH:;
#CDTITLE:cdtitle.png;
#MUSIC:Lightning.ogg;
#OFFSET:-0.201000;
#SAMPLESTART:66.407890;
#SAMPLELENGTH:11.034485;
#SELECTABLE:YES;
#BPMS:0.000=174.000,
96.000=87.000,
112.000=174.000,
272.000=87.000,
288.000=174.000,
352.000=87.000;
#STOPS:;
#DELAYS:;
#WARPS:;
#TIMESIGNATURES:0.000=4=4;
#TICKCOUNTS:0.000=4;
#COMBOS:0.000=1;
#SPEEDS:0.000=1.000=0.000=0;
#SCROLLS:0.000=1.000;
#FAKES:;
#LABELS:0.000=Song Start;
#BGCHANGES:;
#KEYSOUNDS:;
#ATTACKS:
;

//---------------dance-single - ----------------
#NOTEDATA:;
#CHARTNAME:;
#STEPSTYPE:dance-single;
#DESCRIPTION:;
#CHARTSTYLE:;
#DIFFICULTY:Hard;
#METER:12;
#RADARVALUES:0.466973,0.774588,0.128587,0.453438,0.209800,483.000000,464.000000,19.000000,67.000000,0.000000,0.000000,0.000000,0.000000,0.000000,0.466973,0.774588,0.128587,0.453438,0.209800,483.000000,464.000000,19.000000,67.000000,0.000000,0.000000,0.000000,0.000000,0.000000;
#CREDIT:Pandemonium X;
#NOTES:
0000
0000
0000
0000
,
0000
0000
0000
0000
,
0000
0000
0000
0000
,
0000
0000
0000
0000
,
0000
0000
0000
0000
,
0000
0000
0000
0000
,
0000
0000
0000
0000
,
0000
0000
0000
0000
,
0102
0000
0000
0103
0000
0001
1000
0020
,
0000
0000
0000
0030
0000
0100
0010
0100
,
0000
0000
0001
1000
0000
0100
0000
1000
,
0000
0001
0000
0200
0000
0000
0300
0000
,
2010
0000
0000
3010
0000
1000
0001
0200
,
0000
0000
0000
0300
0000
0010
0100
0001
,
1000
0000
0100
0010
0000
0100
0000
1000
,
0000
0001
0000
0200
0000
0000
0300
0000
,
2001
0000
0000
3001
0000
1000
0001
0020
,
0000
0000
0000
0030
0000
0100
1000
0001
,
0100
0000
0001
1000
0000
0010
0000
1000
,
0000
0001
0000
2000
0000
0000
3000
0000
,
0021
0000
0000
0031
0000
0010
0001
2000
,
0000
0000
0000
3000
0000
0100
0010
0001
,
1000
0000
0001
0100
0000
0001
0000
0010
,
0000
1000
0000
0010
0000
0001
1000
0000
,
0001
0001
0000
1000
1000
0000
0010
0010
0000
0100
0100
0010
0000
1000
0000
0001
,
0010
0010
0000
0100
0100
0000
1000
1000
0000
0100
0100
0010
0000
0100
0000
1000
,
0001
0001
0000
0100
0100
0000
0010
0010
0000
1000
1000
0001
0000
1000
0000
0010
,
0100
0100
0000
0001
0001
0000
1000
1000
0000
1001
0000
0110
0000
1001
0000
0000
,
0001
0000
0100
0000
0001
0000
1000
0100
0000
0100
1000
0000
0100
0000
1000
0000
,
0001
1000
0001
0020
0000
0031
0010
0100
,
1000
0000
0100
0000
1000
0000
0010
1000
0000
1000
0001
0000
1000
0000
0100
0000
,
1000
0001
1000
0020
0000
1030
0100
0010
,
0001
0000
0010
0000
0001
0000
0100
0001
0000
0001
0100
0000
0010
0000
0100
0000
,
0001
1000
0100
0020
0000
0130
0010
0001
,
1000
0000
0100
0000
1000
0000
0010
1000
0000
1000
0100
0000
1000
0000
0001
0000
,
0100
0001
0010
0200
0000
0310
0100
1000
,
0001
0000
1000
0000
0010
0000
0100
0001
0000
0001
0100
0000
0010
0000
1000
0000
,
0100
1000
0001
0020
0000
0130
1000
0001
,
0100
0000
0001
0000
1000
0000
0010
0100
0000
0100
0001
0000
0010
0000
0100
0000
,
0010
0001
1000
0002
0000
1003
0100
0010
,
0001
0000
0100
0000
0001
0000
1000
0100
0000
0100
1000
0000
0001
0000
0100
0000
,
0010
0100
0001
2000
0000
3001
0010
0100
,
1000
0000
0100
0000
1000
0000
0010
0100
0000
0100
0001
0000
0010
0000
0100
0000
,
1000
0100
0001
0100
0010
0001
0100
0010
,
2000
0000
0001
0000
0010
0000
3001
0200
,
0010
0001
0310
2000
,
3002
0000
0103
0020
0000
0130
0001
2000
,
0100
0100
3020
2030
,
3200
0000
0010
0000
0001
0000
0310
0002
,
0010
0100
0013
0200
,
0320
0000
0031
0020
0000
0130
0010
0002
,
1000
1000
2003
3200
,
2300
0000
0010
0000
0100
0000
3001
2000
,
0100
0010
3100
0020
,
0032
0000
0103
0020
0000
1030
0001
0020
,
0100
0032
2003
3002
,
0203
0000
0010
0000
0001
0000
0310
2000
,
0100
0001
3100
2000
,
3002
0000
0103
0020
0000
0130
0001
1000
,
0100
0010
0010
0100
0010
0010
0100
0000
,
1001
0000
0001
0100
0000
0001
0100
0000
,
0001
0100
0000
0001
0100
0000
0010
0000
,
1001
0000
1000
0100
0000
1000
0100
0000
,
1000
0100
0000
1000
0100
0000
0010
0000
,
1001
0000
0010
0100
0000
0010
0100
0000
,
0010
0100
0001
0010
0000
0010
0001
1000
,
0000
0001
0000
1000
0000
0100
0000
1000
,
0100
0010
0001
0010
0100
1000
0001
0000
,
1020
0000
0000
0000
0200
0000
0330
0000
0110
0000
0010
1000
0000
0100
0000
0000
,
0012
0000
0000
0000
2000
0000
3003
0000
1001
0000
1000
0010
0000
0100
0000
0000
,
0201
0000
0000
0000
0020
0000
0330
0000
0100
0010
1000
0100
0000
0100
1000
0001
,
0000
0010
0000
0000
0100
0000
0000
0000
1001
0000
1000
1100
0000
0101
0000
0000
,
1001
0000
0001
0100
0000
0100
0020
0000
,
0000
0000
0000
2030
,
3010
0000
1000
0010
0000
0100
0000
0010
,
0000
0000
1000
0000
0001
0010
0100
0010
,
0001
0000
1000
0010
0000
1000
0200
0000
,
0000
0000
0000
0000
0000
0310
0100
1000
,
0010
0000
0100
0010
0000
1000
0000
0001
,
0000
0000
1000
0000
0001
0200
0000
0000
,
0310
0000
1000
0100
0000
0010
0200
0000
,
0000
0000
0000
0320
,
0130
0000
1000
0100
0000
0010
0000
0001
,
0000
0000
0010
0000
0001
0100
0010
1000
,
0002
0000
0103
0020
0000
1030
0200
0000
,
0000
0000
0000
0000
0300
1000
0100
0010
,
0100
0000
0010
0002
0000
0203
0000
0000
,
0310
0000
0100
0002
0000
2003
0000
0000
,
3001
0000
0000
0001
0000
0000
0001
0000
0000
0001
0000
0000
0001
0000
0000
0000
,
1000
0000
0000
1000
0000
0000
1000
0000
0000
1000
0000
0000
1000
0000
0000
0000
,
0010
0000
0000
0010
0000
0000
0010
0000
0000
0010
0000
0000
0010
0000
0000
0000
,
0100
0000
0000
0100
0000
0000
0100
0000
0000
0100
0000
0000
0000
0000
0000
0000
;

//---------------dance-single - ----------------
#NOTEDATA:;
#CHARTNAME:;
#STEPSTYPE:dance-single;
#DESCRIPTION:;
#CHARTSTYLE:;
#DIFFICULTY:Medium;
#METER:10;
#RADARVALUES:0.357723,0.650654,0.142122,0.494044,0.131971,370.000000,349.000000,21.000000,73.000000,0.000000,0.000000,0.000000,0.000000,0.000000,0.357723,0.650654,0.142122,0.494044,0.131971,370.000000,349.000000,21.000000,73.000000,0.000000,0.000000,0.000000,0.000000,0.000000;
#CREDIT:Pandemonium X;
#NOTES:
0000
0000
0000
0000
,
0000
0000
0000
0000
,
0000
0000
0000
0000
,
0000
0000
0000
0000
,
0000
0000
0000
0000
,
0000
0000
0000
0000
,
0000
0000
0000
0000
,
0000
0000
0000
0000
,
1200
0000
0000
0300
0000
0010
0001
2000
,
0000
0000
0000
3000
0000
0001
0100
0001
,
0010
0000
0100
0010
0000
0001
0000
1000
,
0000
0001
0000
0200
0000
0000
0300
0000
,
1020
0000
0000
0030
0000
0100
0001
0020
,
0000
0000
0000
0030
0000
0100
0010
0001
,
1000
0000
0001
0010
0000
0001
0000
1000
,
0000
0100
0000
0020
0000
0000
0030
0000
,
1002
0000
0000
0000
0000
0103
0001
2000
,
0000
0000
0000
3000
0000
0100
0010
0100
,
1000
0000
0001
0010
0000
0100
0000
0010
,
0000
0001
0000
0200
0000
0000
0300
0000
,
0102
0000
0000
0000
0000
0013
0001
2000
,
0000
0000
0000
3000
0000
0100
0010
0001
,
0100
0000
0001
1000
0000
0100
0000
0010
,
0000
0100
0000
0020
0000
0000
0000
0000
,
0031
0000
0000
1000
0000
0000
0010
0000
0000
1000
0000
1000
0000
1000
0000
0000
,
0001
0000
0000
1000
0000
0000
0010
0000
0000
0100
0000
0100
0000
0100
0000
0000
,
0010
0000
0000
1000
0000
0000
0001
0000
0000
0010
0000
0010
0000
0010
0000
0000
,
0100
0000
0000
0010
0000
0000
0001
0000
0000
1001
0000
0110
0000
1001
0000
0000
,
0001
0000
1000
0000
0100
0000
0000
0010
0000
0000
0100
0000
1000
0000
0000
0000
,
0100
0010
0100
2000
0000
3010
0200
0000
,
0301
0000
1000
0000
0001
0000
0000
0010
0000
0000
0001
0000
0100
0000
0000
0000
,
0001
0010
0100
0020
0000
0130
0002
0000
,
1003
0000
0001
0000
0100
0000
0000
0001
0000
0000
0010
0000
0100
0000
0000
0000
,
0010
0001
1000
0020
0000
1030
0200
0000
,
0310
0000
0001
0000
1000
0000
0000
0001
0000
0000
0100
0000
0010
0000
0000
0000
,
1000
0010
1000
0200
0000
0310
0002
0000
,
0103
0000
0001
0000
0010
0000
0000
1000
0000
0000
0010
0000
0100
0000
0000
0000
,
0010
0001
1000
0200
0000
1300
0002
0000
,
0103
0000
0001
0000
1000
0000
0000
0100
0000
0000
1000
0000
0010
0000
0000
0000
,
0100
0010
0100
0002
0000
0013
0002
0000
,
0103
0000
0001
0000
0010
0000
0000
0100
0000
0000
0010
0000
0001
0000
0000
0000
,
1000
0001
0100
0002
0000
0013
0200
0000
,
0310
0000
0001
0000
0100
0000
0000
0010
0000
0000
1000
0000
0001
0000
0000
0000
,
1000
0100
0010
0001
0010
0100
0010
0001
,
2000
0000
0000
0000
0000
0000
3010
0200
,
0000
0000
0000
0320
,
1030
0000
0010
1000
0000
0010
0100
0002
,
0000
0000
0023
0230
,
2300
0000
0000
0000
0000
0000
3100
0020
,
0000
0000
0000
0230
,
0310
0000
0010
0100
0000
0100
0010
2000
,
0000
0000
3002
2003
,
3200
0000
0000
0000
0000
0000
0310
0002
,
0000
0000
0000
0203
,
0320
0000
1030
0100
0000
0010
0100
2000
,
0000
3200
0320
0230
,
2300
0000
0000
0000
0000
0000
3010
0200
,
0000
0000
0000
0320
,
1030
0000
0001
0100
0000
0010
1000
0001
,
0000
1001
0000
0110
0000
1001
0000
0000
,
0001
0000
0000
1000
0000
0000
0010
0000
,
0000
1000
0000
0000
0010
0000
0100
0000
,
0001
0000
0000
1000
0000
0000
0100
0000
,
0000
0001
0000
0000
0100
0000
0010
0000
,
0001
0000
0000
0010
0000
0000
1000
0000
,
0000
0010
0000
0000
0001
0000
0100
0000
,
0010
0000
0000
1000
0000
0000
0001
0000
,
1000
0100
0010
0001
0010
0100
1001
0000
,
0002
0000
0003
0000
1010
0000
0000
0000
1000
0000
0100
0010
0000
0100
0000
0000
,
2000
0000
3000
0000
0011
0000
0000
0000
0010
0000
0001
0100
0000
0001
0000
0000
,
2000
0000
3000
0000
0110
0000
0000
0000
0010
0100
0010
1000
0000
0010
0100
0001
,
0000
1000
0000
0000
0200
0000
0300
0000
0110
0000
1000
1001
0000
0110
0000
0000
,
0201
0000
0000
0320
0000
0000
2000
0000
,
0000
0000
0030
3002
,
0103
0000
0001
0010
0000
0100
0000
0010
,
0000
0000
0001
0000
1000
0100
0010
0001
,
0012
0000
0000
0203
0000
0000
0020
0000
,
0000
0000
0300
0000
0000
0130
0010
1000
,
0001
0000
1000
0100
0000
1000
0000
0010
,
0000
0000
0100
0000
0001
0010
0000
0000
,
2100
0000
0000
3020
0000
0000
0200
0000
,
0000
0000
0030
0302
,
0013
0000
0100
0010
0000
0001
0000
1000
,
0000
0000
0001
0000
0100
0001
0100
0010
,
1020
0000
0000
0230
0000
0000
0002
0000
,
0000
0000
0000
0300
0000
0103
0010
1000
,
0100
0000
0010
0200
0000
2300
0000
0000
,
3020
0000
0130
0002
0000
2003
0000
0000
,
3200
0000
0000
0000
,
0000
0000
0000
0000
,
1300
0000
0000
0010
0000
0000
1000
0000
0000
0010
0000
0000
1000
0000
0000
0000
,
0001
0000
0000
0100
0000
0000
0001
0000
0000
0100
0000
0000
0000
0000
0000
0000
;

//---------------dance-single - ----------------
#NOTEDATA:;
#CHARTNAME:;
#STEPSTYPE:dance-single;
#DESCRIPTION:;
#CHARTSTYLE:;
#DIFFICULTY:Easy;
#METER:5;
#RADARVALUES:0.179828,0.247361,0.040606,0.094748,0.000000,186.000000,180.000000,6.000000,14.000000,0.000000,0.000000,0.000000,0.000000,0.000000,0.179828,0.247361,0.040606,0.094748,0.000000,186.000000,180.000000,6.000000,14.000000,0.000000,0.000000,0.000000,0.000000,0.000000;
#CREDIT:Pandemonium X;
#NOTES:
0000
0000
0000
0000
,
0000
0000
0000
0000
,
0000
0000
0000
0000
,
0000
0000
0000
0000
,
0000
0000
0000
0000
,
0000
0000
0000
0000
,
0000
0000
0000
0000
,
0000
0000
0000
0000
,
1000
0000
0000
0000
0000
0000
0000
0010
,
0000
0000
0000
0000
,
0100
0000
0010
0000
,
1000
1000
1000
0000
,
0001
0000
0000
0000
0000
0000
0000
0010
,
0000
0000
0000
0000
,
0100
0000
0010
0000
,
0100
0100
0100
0000
,
0010
0000
0000
0000
0000
0000
0000
0001
,
0000
0000
0000
0000
,
1000
0000
0010
0000
,
0100
0100
0100
0000
,
0010
0000
0000
0000
0000
0000
0000
1000
,
0000
0000
0000
0000
,
0001
0000
1000
0000
,
0010
0010
0010
0000
,
1001
0000
0000
0001
0000
0000
0000
0000
,
1001
0000
0000
1000
0000
0000
0000
0000
,
0110
0000
0000
0010
0000
0000
0000
0000
,
0110
0000
0000
0100
0000
0000
0000
0000
,
0001
0000
1000
0000
,
0010
1000
0100
0000
,
0010
0000
0100
0000
,
0010
0001
1000
0000
,
0001
0000
0100
0000
,
0001
0010
0100
0000
,
0010
0000
0001
0000
,
1000
0100
0010
0100
,
1000
0000
0001
0000
,
0100
0010
1000
0000
,
0010
0000
0100
0000
,
0001
1000
0001
0000
,
0010
0000
0001
0000
,
1000
0100
0010
0000
,
0100
0000
0010
0000
,
0100
0010
0001
1000
,
0010
0000
0000
0000
0000
0000
0000
0100
,
0000
0000
0000
0010
,
1000
0000
0000
0100
0000
0000
0010
0000
,
0000
0000
0100
1000
,
0010
0000
0000
0000
0000
0000
0000
0100
,
0000
0000
0000
0010
,
1000
0000
0000
0001
0000
0000
1000
0000
,
0000
0000
0100
1000
,
0010
0000
0000
0000
0000
0000
0000
0100
,
0000
0000
0000
0010
,
1000
0000
0000
0001
0000
0000
0000
1000
,
0000
0100
1000
0010
,
0100
0000
0000
0000
0000
0000
0000
0001
,
0000
0000
0000
0010
,
0100
0000
0000
0010
0000
0000
0001
0000
,
1000
0000
0000
1000
0000
0000
1000
0000
,
0020
0000
0000
0000
,
0030
0000
0000
0100
0000
0010
0000
2000
,
0000
0000
0000
0000
,
3000
0000
0000
0001
0000
1000
0000
0002
,
0000
0000
0000
0000
,
0003
0000
0000
1000
0000
0000
0000
0010
,
0000
0100
0000
0010
0000
1000
0000
0200
,
0000
0000
0000
0300
,
0020
0030
0100
0000
,
2000
3000
0001
0000
,
0200
0300
0010
0000
,
2000
3000
1001
0000
,
0001
0000
0000
0100
0000
0000
0020
0000
,
0000
0000
0000
0130
,
0001
0000
0000
1000
0000
0100
0000
1000
,
0000
1000
0010
0100
,
0001
0000
0000
1000
0000
0000
0002
0000
,
0000
0000
0000
1003
,
0100
0000
0000
1000
0000
0010
0000
0100
,
0000
0010
1000
0000
,
0100
0000
0000
1000
0000
0000
0020
0000
,
0000
0000
0000
0130
,
0010
0000
0000
1000
0000
0001
0000
1000
,
0000
0100
1000
0010
,
0100
0000
0000
0001
0000
0000
0020
0000
,
0000
0000
0000
0130
,
0010
0000
0000
0100
0000
1000
0000
0000
,
0010
0000
0000
0100
0000
0001
0000
0000
,
2002
0000
0000
0000
,
0000
0000
0000
3003
,
1000
0000
0000
1000
0000
0000
0000
0000
,
0001
0000
0000
0001
0000
0000
0000
0000
;

//---------------dance-single - ----------------
#NOTEDATA:;
#CHARTNAME:;
#STEPSTYPE:dance-single;
#DESCRIPTION:;
#CHARTSTYLE:;
#DIFFICULTY:Beginner;
#METER:2;
#RADARVALUES:0.095715,0.277139,0.047374,0.033839,0.000000,99.000000,92.000000,7.000000,5.000000,0.000000,0.000000,0.000000,0.000000,0.000000,0.095715,0.277139,0.047374,0.033839,0.000000,99.000000,92.000000,7.000000,5.000000,0.000000,0.000000,0.000000,0.000000,0.000000;
#CREDIT:Pandemonium X;
#NOTES:
0000
0000
0000
0000
,
0000
0000
0000
0000
,
0000
0000
0000
0000
,
0000
0000
0000
0000
,
0000
0000
0000
0000
,
0000
0000
0000
0000
,
0000
0000
0000
0000
,
0000
0000
0000
0000
,
0010
0000
0000
0000
,
0000
0000
0000
0000
,
0100
0000
0000
0000
,
0000
0000
0000
0000
,
0001
0000
0000
0000
,
0000
0000
0000
0000
,
1000
0000
0000
0000
,
0000
0000
0000
0000
,
0010
0000
0000
0000
,
0000
0000
0000
0000
,
1000
0000
0000
0000
,
0000
0000
0000
0000
,
0001
0000
0000
0000
,
0000
0000
0000
0000
,
0010
0000
0000
0000
,
0100
0000
0000
0000
,
1001
0000
0000
0000
,
1000
0000
0000
0000
,
0010
0000
0000
0000
,
0100
0000
0001
0000
,
1000
0000
1000
0000
,
1000
0000
0000
0000
,
0010
0000
0100
0000
,
0010
0000
0000
0000
,
0001
0000
0001
0000
,
0001
0000
0000
0000
,
1000
0000
0001
0000
,
1000
0000
0000
0000
,
0010
0000
0100
0000
,
0010
0000
0000
0000
,
1000
0000
0010
0000
,
0100
0000
0000
0000
,
0001
0000
0010
0000
,
0001
0000
0000
0000
,
1000
0000
0001
0000
,
0100
0100
0000
0000
,
0001
0000
0000
0000
,
1000
0000
0000
0000
,
0010
0000
0000
0000
,
0100
0000
0000
0000
,
0010
0000
0000
0000
,
1000
0000
0000
0000
,
0100
0000
0000
0000
,
1000
0000
0001
0001
,
1000
0000
0000
0000
,
0010
0000
0000
0000
,
1000
0000
0000
0000
,
0100
0000
0000
0000
,
1000
0000
0000
0000
,
0001
0000
0000
0000
,
0100
0000
0000
0000
,
0010
0000
0000
0000
,
1001
0000
0000
0000
,
0000
0000
1000
0000
,
0000
0000
0000
0000
,
0000
0001
0000
0000
,
0000
0000
0000
0000
,
0000
0100
0000
0000
,
0010
0000
0000
0000
,
0000
0000
0000
0000
,
1001
0000
0010
0000
,
1001
0000
0100
0000
,
1001
0000
1000
0000
,
1001
0001
0110
0000
,
0100
0000
0000
2000
,
0000
0000
3000
0001
,
1000
0000
0000
0000
,
0010
0000
0000
0000
,
0100
0000
0000
0002
,
0000
0000
0003
0000
,
1000
0000
0000
0000
,
0010
0000
0100
0000
,
0001
0000
0000
0020
,
0000
0000
0030
0000
,
0100
0000
0000
0000
,
0010
0000
0001
0000
,
1000
0000
0000
0002
,
0000
0000
0003
0000
,
1000
0000
0000
0000
,
0001
0000
0000
0000
,
0020
0000
0000
0000
,
0000
0000
0000
0000
,
0030
0000
0000
0000
,
0100
0000
0000
0000
;

//---------------dance-single - ----------------
#NOTEDATA:;
#CHARTNAME:;
#STEPSTYPE:dance-single;
#DESCRIPTION:;
#CHARTSTYLE:;
#DIFFICULTY:Challenge;
#METER:14;
#RADARVALUES:0.549153,0.836555,0.426367,0.832431,0.345154,568.000000,505.000000,63.000000,123.000000,0.000000,0.000000,0.000000,0.000000,0.000000,0.549153,0.836555,0.426367,0.832431,0.345154,568.000000,505.000000,63.000000,123.000000,0.000000,0.000000,0.000000,0.000000,0.000000;
#CREDIT:;
#NOTES:
// measure 0
0000
0000
0000
0000
,  // measure 1
0000
0000
0000
0000
,  // measure 2
0000
0000
0000
0000
,  // measure 3
0000
0000
0000
0000
,  // measure 4
0000
0000
0000
0000
,  // measure 5
0000
0000
0000
0000
,  // measure 6
0000
0000
0000
0000
,  // measure 7
0000
0000
0000
0000
,  // measure 8
0201
0000
0310
2010
0000
3001
0010
0002
,  // measure 9
0000
0000
0000
0000
0003
1000
0100
0010
,  // measure 10
0100
0000
1000
0020
0000
0001
0000
0100
,  // measure 11
0000
0001
0000
0200
0000
0000
0000
0330
,  // measure 12
2010
0000
3001
0021
0000
0130
0010
0002
,  // measure 13
0000
0000
0000
0000
0003
0010
0001
1000
,  // measure 14
0100
0000
1000
0200
0000
0010
0000
1000
,  // measure 15
0000
1000
0000
0020
0000
0000
0330
0000
,  // measure 16
1002
0000
0013
0012
0000
0103
0010
2000
,  // measure 17
0000
0000
0000
0000
3000
0001
0010
0100
,  // measure 18
0010
0000
0100
1200
0000
0001
0000
1000
,  // measure 19
0000
0001
0000
0020
0000
0000
0330
0000
,  // measure 20
2100
0000
3010
2010
0000
3010
0100
0002
,  // measure 21
0000
0000
0000
0000
0003
0010
0001
0010
,  // measure 22
0100
0000
0010
0012
0000
0100
0000
0010
,  // measure 23
0000
0000
0100
0000
0000
0000
2000
0000
0000
0000
3003
0000
0001
0100
0001
0100
,  // measure 24
0001
0100
0000
0100
1000
0000
1000
0100
0000
0100
0001
0010
0000
0100
0000
0010
,  // measure 25
0001
0010
0000
0010
1000
0000
1000
0010
0000
0010
0001
0100
0000
0010
1001
0000
,  // measure 26
1000
0010
0000
0010
0001
0000
0001
0010
0000
0100
0010
1000
0000
0001
0000
0010
,  // measure 27
1000
0100
0000
0001
0100
0000
0100
1000
0000
1100
0000
0011
0000
1001
0110
0000
,  // measure 28
1000
0000
0010
0000
0100
0000
0001
0010
0000
0100
0010
0000
0001
0000
1000
0000
,  // measure 29
0002
0000
0203
0000
0320
0000
2000
0000
0000
3030
1000
0010
0100
0001
0010
0100
,  // measure 30
1000
0000
0100
0000
0010
0000
0100
1000
0000
0100
0010
0000
0100
0000
1000
0000
,  // measure 31
0002
0000
2003
0000
3020
0000
2000
0000
0000
3030
0010
0100
0001
0010
0100
0010
,  // measure 32
0001
0000
1000
0000
0100
0000
1000
0010
0000
0100
0001
0000
0010
0000
0100
0000
,  // measure 33
0020
0000
0230
0000
2300
0000
0002
0000
0000
3003
0001
0100
0010
1000
0100
0010
,  // measure 34
0001
0000
0010
0000
0001
0000
0100
0001
0000
0010
0100
0000
0010
0000
0001
0000
,  // measure 35
2000
0000
3002
0000
0203
0000
0020
0000
0000
0330
0100
0010
1000
0100
0010
0100
,  // measure 36
1000
0000
0001
0000
0010
0000
0100
0010
0000
0100
1000
0000
0010
0000
0100
0000
,  // measure 37
0002
0000
0023
0000
0032
0000
0200
0000
0000
0303
0001
0100
0010
0100
0001
0010
,  // measure 38
0100
0000
0010
0000
0001
0000
1000
0100
0000
0010
0100
0000
1000
0000
0010
0000
,  // measure 39
0200
0000
0320
0000
2030
0000
0200
0000
0000
3300
1000
0100
0010
0001
0010
0100
,  // measure 40
0010
0000
0001
0000
0100
0000
0010
1000
0000
0001
0010
0000
0100
0000
0010
0000
,  // measure 41
0002
0000
2003
0000
3020
0000
2000
0000
0000
3030
0010
0100
0001
0010
0100
0010
,  // measure 42
0001
0000
1000
0000
0010
0000
1000
0100
0000
0010
0001
0000
0010
0000
0001
0000
,  // measure 43
1000
0001
1000
0001
0100
0010
0100
0010
1000
0100
0010
0001
1000
0100
0010
0001
,  // measure 44
2000
0000
0100
0000
0010
0000
3001
0201
,  // measure 45
0010
0000
0001
0000
0310
0000
0102
0003
,  // measure 46
0021
0000
0130
2100
0000
3010
0100
0102
,  // measure 47
0100
0000
0013
0000
1002
0003
2010
3000
,  // measure 48
0201
0000
0010
0000
0001
0000
0310
2010
,  // measure 49
0100
0000
0010
0000
3001
0000
0201
0300
,  // measure 50
1020
0000
0130
0102
0000
0013
0100
2100
,  // measure 51
0001
0000
3010
0000
2001
3001
0120
1030
,  // measure 52
0201
0000
0010
0000
0001
0000
0310
2010
,  // measure 53
0100
0010
3100
0021
,  // measure 54
0230
0000
1300
1002
0000
0103
0001
0021
,  // measure 55
0100
0030
0021
0030
0210
0300
2100
3000
,  // measure 56
1002
0000
0100
0000
0010
0000
1003
1020
,  // measure 57
0100
0000
1000
0000
0130
0000
2010
3000
,  // measure 58
1200
0000
0310
0021
0000
0130
0010
0001
,  // measure 59
1001
0010
0010
1001
0010
0010
1001
0000
,  // measure 60
1200
0000
0000
1000
0000
0000
0010
0000
,  // measure 61
0000
0001
0000
0001
0000
0010
0000
1300
,  // measure 62
0020
0000
0000
1000
0000
0000
0001
0000
,  // measure 63
0000
0100
0000
1000
0000
0100
0000
1030
,  // measure 64
0002
0000
0000
0010
0000
0000
0100
0000
,  // measure 65
0000
0013
0100
1000
0000
1000
0100
0010
,  // measure 66
0000
0100
0000
1000
0000
0010
0000
0100
,  // measure 67
0001
0000
1000
0010
0001
0000
0010
0000
1000
0000
0010
0100
0101
0000
0000
0000
,  // measure 68
0012
0000
0000
0000
2000
0000
3000
0000
0100
0000
1000
1000
0000
0013
0000
0000
,  // measure 69
2100
0000
0000
0000
0020
0000
0030
0000
0001
0000
0010
0010
0000
3001
0000
0000
,  // measure 70
1020
0000
0000
0000
0100
0000
0000
0000
1030
0100
0010
0001
0000
0100
0001
0010
,  // measure 71
0200
0010
0000
0000
2000
0000
3300
0000
1001
0000
0010
0011
0000
2002
0000
3003
,  // measure 72
0201
0000
0000
0000
0001
0300
0200
0000
0000
0000
1000
0300
0200
0000
0000
0000
,  // measure 73
0000
0000
0000
0320
,  // measure 74
1030
0000
0100
2100
0000
3020
0000
0230
,  // measure 75
0000
0000
0000
0000
0302
0000
0000
0000
1003
0100
0010
0001
0010
0100
0010
0100
,  // measure 76
0020
0000
0000
0000
1030
0000
0020
0000
0000
0000
0001
0030
0020
0000
0000
0000
,  // measure 77
0000
0000
0000
0000
0000
0130
0010
0001
,  // measure 78
2000
0000
3010
0200
0000
1000
0000
0020
,  // measure 79
0000
0030
0301
0000
1000
0021
0000
0000
,  // measure 80
0230
0000
0000
0000
1000
0300
0200
0000
0000
0000
0001
0300
0200
0000
0000
0000
,  // measure 81
0000
0000
0000
0320
,  // measure 82
0031
0000
1000
0020
0000
0230
0000
0302
,  // measure 83
0000
0000
0000
0000
0010
0000
0000
0000
0103
0010
1000
0100
1000
0100
0010
0001
,  // measure 84
0020
0000
0000
0000
1000
0030
0020
0000
0000
0000
0001
0030
0020
0000
0000
0000
,  // measure 85
0000
0000
0000
0000
0030
0100
0010
0001
,  // measure 86
2002
3003
0001
1020
0000
0200
0000
0330
,  // measure 87
2010
0000
3100
0021
0000
0230
0000
0000
,  // measure 88
0320
0000
0000
0001
0000
0000
1000
0000
0000
0001
0000
0000
0100
0000
0000
0000
,  // measure 89
0001
0000
0000
1000
0000
0000
0001
0000
0000
1000
0000
0000
0100
0000
0000
0000
,  // measure 90
0130
0000
0000
0010
0000
0000
0001
0000
0000
1000
0000
0000
0110
0000
0000
0000
,  // measure 91
0001
0000
0000
0100
0000
0000
0010
0000
0000
1001
0000
0000
0000
0000
0000
0000
;
