#TITLE:Lighting Shower;
#SUBTITLE:;
#ARTIST:TAG;
#TITLETRANSLIT:;
#SUBTITLETRANSLIT:;
#ARTISTTRANSLIT:;
#GENRE:TRANCE POP;
#CREDIT:;
#BANNER:banner.png;
#BACKGROUND:background.png;
#LYRICSPATH:;
#CDTITLE:cdtitle.png;
#MUSIC:Lighting Shower.ogg;
#OFFSET:0.660000;
#SAMPLESTART:14.134814;
#SAMPLELENGTH:11.851851;
#SELECTABLE:YES;
#BPMS:0.000000=162.000000
;
#STOPS:
;
#BGCHANGES:;
#KEYSOUNDS:;
#ATTACKS:;

//---------------dance-single - ----------------
#NOTES:
     dance-single:
     :
     Hard:
     11:
     0.521743,0.637233,0.684788,0.275817,0.114131,384.000000,312.000000,72.000000,29.000000,0.000000,0.000000,0.521743,0.637233,0.684788,0.275817,0.114131,384.000000,312.000000,72.000000,29.000000,0.000000,0.000000:
// measure 0
0000
0000
0000
0000
,  // measure 1
0000
0000
0000
0000
,  // measure 2
0000
0000
0000
0000
,  // measure 3
0000
0000
0000
0000
,  // measure 4
0000
0000
0000
0000
,  // measure 5
1001
0000
0001
0100
0000
0001
1000
0200
,  // measure 6
0000
0000
0000
0000
0000
0000
0310
0001
,  // measure 7
2000
0000
0000
3002
0000
0000
0203
0000
,  // measure 8
0320
0000
2030
0000
,  // measure 9
0200
0000
0000
3300
,  // measure 10
0010
0000
0100
0000
1000
0000
0001
0000
1000
0000
0000
1000
0000
0000
1000
0000
,  // measure 11
0001
0000
0010
0000
0100
0000
0010
0000
0001
0000
0000
0100
0000
0000
0001
0000
,  // measure 12
1000
0000
0000
1000
0000
0000
0010
0000
0100
0000
0000
0000
0100
0000
0010
0000
,  // measure 13
1000
0000
0000
0001
0000
0000
0010
0000
0100
0000
0010
0000
0001
0000
1000
0000
,  // measure 14
0010
0000
0100
0000
0001
0000
0010
0000
0100
0000
0000
0100
0000
0000
0010
0000
,  // measure 15
0001
0000
1000
0000
0010
0000
1000
0000
0100
0000
0000
0010
0000
0000
0100
0000
,  // measure 16
1000
0000
0000
1000
0000
0000
0001
0000
0010
0000
0000
0000
0100
0000
0010
0000
,  // measure 17
0001
0010
0100
1000
0001
0010
0100
0010
,  // measure 18
0011
0000
0000
0000
0101
0000
0000
0000
1010
0000
0000
1010
0000
0000
1001
0000
,  // measure 19
0000
0010
0100
0100
0010
1000
0001
0010
,  // measure 20
0110
0000
0000
0000
1100
0000
0000
0000
1010
0000
0000
1010
0000
0000
0101
0000
,  // measure 21
0000
0001
0010
0010
0001
1000
0100
0010
,  // measure 22
0110
0000
0000
0000
1100
0000
0000
0000
1001
0000
0000
1001
0000
0000
0101
0000
,  // measure 23
0000
0001
1000
1000
0100
1000
0010
0100
,  // measure 24
0101
0000
0000
0000
0011
0000
0000
0000
0110
0000
0000
0110
0000
0000
0011
0000
,  // measure 25
0001
0000
0000
0100
0000
0000
0010
0000
2000
0000
0000
0000
3000
0000
0000
0000
,  // measure 26
1001
0010
1001
0100
,  // measure 27
1001
0010
1001
0110
,  // measure 28
1001
0010
1001
0100
,  // measure 29
1001
0010
1001
0000
,  // measure 30
0110
0001
0110
1000
,  // measure 31
0110
0001
0110
1001
,  // measure 32
0110
0001
0110
1000
,  // measure 33
0110
0001
0110
1000
,  // measure 34
0200
2300
3010
0100
,  // measure 35
0002
2003
3100
1000
,  // measure 36
0020
1030
0020
0130
,  // measure 37
0020
0031
0020
0130
,  // measure 38
0002
0203
0310
1000
,  // measure 39
0002
0023
0130
0010
,  // measure 40
0002
1003
0002
0103
,  // measure 41
0002
0013
0002
1003
,  // measure 42
0001
1000
0010
1000
,  // measure 43
0100
1000
0010
0100
,  // measure 44
0001
0010
0100
0010
,  // measure 45
0001
1000
0010
0100
,  // measure 46
1001
0001
0011
0010
,  // measure 47
0110
0100
1100
1000
,  // measure 48
1001
0110
1001
0110
,  // measure 49
0101
1010
1100
0110
,  // measure 50
0022
0000
0000
0033
,  // measure 51
1000
0000
0001
0000
0010
0000
0100
0000
1000
0000
0000
1000
0000
0000
0100
0000
,  // measure 52
1000
0000
0010
0000
0100
0000
0001
0000
0010
0000
0000
0010
0000
0000
0100
0000
,  // measure 53
0010
0000
0000
0010
0000
0000
0001
0000
1000
0000
0000
0000
0010
0000
1000
0000
,  // measure 54
0100
0010
0100
1000
0001
0100
0001
0010
,  // measure 55
0100
0000
0010
0000
0001
0000
1000
0000
0010
0000
0000
0010
0000
0000
0100
0000
,  // measure 56
0002
0000
0000
0000
2003
0000
0000
0000
3100
0000
0000
0100
0000
0000
0100
0000
,  // measure 57
1000
0000
0000
0001
0000
0000
0100
0000
0001
0000
0000
0000
0010
0000
0001
0000
,  // measure 58
0100
0001
1000
0100
1000
0010
0100
0001
,  // measure 59
0011
0000
0000
0000
0110
0000
0000
0000
1100
0000
0000
1100
0000
0000
1001
0000
,  // measure 60
0000
0010
0100
0100
0010
1000
0001
0010
,  // measure 61
0110
0000
0000
0000
0011
0000
0000
0000
0101
0000
0000
0101
0000
0000
1001
0000
,  // measure 62
0000
1000
0001
0001
0010
0001
1000
0100
,  // measure 63
0110
0000
0000
0000
1100
0000
0000
0000
1010
0000
0000
1010
0000
0000
0101
0000
,  // measure 64
0000
0001
0010
0010
0001
1000
0100
0010
,  // measure 65
0110
0000
0000
0000
1100
0000
0000
0000
1001
0000
0000
1001
0000
0000
0101
0000
,  // measure 66
0001
0000
0100
0010
0000
1000
0100
0000
0020
0000
0000
0000
0000
0000
0000
0000
,  // measure 67
0130
0000
0000
0000
;

//---------------dance-single - ----------------
#NOTES:
     dance-single:
     :
     Medium:
     8:
     0.366851,0.573510,0.285328,0.190219,0.042799,270.000000,240.000000,30.000000,20.000000,0.000000,0.000000,0.366851,0.573510,0.285328,0.190219,0.042799,270.000000,240.000000,30.000000,20.000000,0.000000,0.000000:
0000
0000
0000
0000
,
0000
0000
0000
0000
,
0000
0000
0000
0000
,
0000
0000
0000
0000
,
0000
0000
0000
0000
,
1001
0000
0001
0010
0000
0010
0001
2000
,
0000
0000
0000
0000
0000
0000
3001
0100
,
0001
0000
0000
0010
0000
0000
0100
0000
,
0020
0000
0032
0000
,
0200
0000
0000
0303
,
0010
0000
1000
0100
0010
0000
0100
0000
,
1000
0000
0001
0010
0100
0000
0010
0000
,
0001
1000
0001
0100
,
0010
0100
0010
1000
,
0010
0000
1000
0100
0010
0000
0100
0000
,
1000
0000
0001
0010
0100
0000
0010
0000
,
0001
1000
0010
1000
,
0001
0100
0001
1000
,
0100
0000
0000
0000
1000
0000
0000
0000
0010
0000
0000
0100
0000
0000
0010
0000
,
0000
0100
0001
0000
0010
0000
0100
0000
,
1000
0000
0000
0000
0100
0000
0000
0000
0010
0000
0000
0001
0000
0000
0100
0000
,
0000
0010
1000
0000
0001
0000
0010
0000
,
0001
0000
0000
0000
1000
0000
0000
0000
0100
0000
0000
1000
0000
0000
0010
0000
,
0000
0100
0010
0000
1000
0000
0001
0000
,
0010
0001
0100
0010
,
1000
0000
0000
0001
0000
0000
0100
0000
0020
0000
0000
0000
0030
0000
0000
0000
,
1010
0000
0101
0000
,
0011
0000
0100
1000
,
1010
0000
0101
0000
,
1001
0000
0011
0000
,
1001
0000
1100
0000
,
1010
0000
0010
1000
,
1010
0000
0101
0000
,
0011
0000
1100
0000
,
0100
2000
3010
0100
,
0001
0020
0130
0010
,
0002
1003
0020
0130
,
0002
0103
0020
1030
,
0100
0020
0130
1000
,
0010
0200
0301
1000
,
0200
1300
0020
0130
,
0002
0013
0200
1300
,
0001
1000
0010
1000
,
0001
0010
0100
0010
,
0001
1000
0010
0100
,
0001
0010
0100
0010
,
1001
0010
1001
0100
,
1001
0010
1001
0100
,
1001
0110
1001
0110
,
1001
1010
0011
1100
,
2002
0000
0000
3003
,
0001
0000
0010
0100
1000
0000
0100
0000
,
0010
0000
0001
0010
0100
0000
0010
0000
,
0001
1000
0010
1000
,
0100
0010
0100
1000
,
0010
0000
0100
0010
1000
0000
0001
0000
,
0011
0000
0000
0000
1010
0000
0000
0000
0001
0000
0000
0100
0000
0000
0001
0000
,
0010
0100
0010
0001
,
0100
0010
0100
0001
,
1000
0000
0000
0000
0001
0000
0000
0000
0100
0000
0000
0001
0000
0000
0010
0000
,
0000
0100
0010
0000
0001
0000
0100
0000
,
0010
0000
0000
0000
1000
0000
0000
0000
0010
0000
0000
0100
0000
0000
0001
0000
,
0000
0010
0100
0000
0010
0000
0001
0000
,
1000
0000
0000
0000
0100
0000
0000
0000
0010
0000
0000
0100
0000
0000
1000
0000
,
0000
0100
1000
0000
0010
0000
0100
0000
,
0001
1000
0010
0100
,
0001
0000
0000
0100
0000
0000
0010
0000
2000
0000
0000
0000
0000
0000
0000
0000
,
3001
0000
0000
0000
;

//---------------dance-single - ----------------
#NOTES:
     dance-single:
     :
     Easy:
     5:
     0.270383,0.350478,0.389949,0.171197,0.000000,199.000000,158.000000,41.000000,18.000000,0.000000,0.000000,0.270383,0.350478,0.389949,0.171197,0.000000,199.000000,158.000000,41.000000,18.000000,0.000000,0.000000:
0000
0000
0000
0000
,
0000
0000
0000
0000
,
0000
0000
0000
0000
,
0000
0000
0000
0000
,
0000
0000
0000
0000
,
1001
0000
0000
0000
,
0110
0000
0000
0000
,
1001
0000
0110
0000
,
1001
0000
0110
0000
,
2000
0000
0000
0000
,
3001
0020
0130
0010
,
0001
2000
3100
1000
,
0010
1000
0010
0100
,
0010
0001
0010
0100
,
0001
0020
0130
0010
,
0001
2000
3100
1000
,
0100
1000
0010
0100
,
0001
0010
0100
1000
,
1001
0000
0110
0000
,
1001
0000
0110
0000
,
1010
0000
0101
0000
,
1010
0000
0101
0000
,
0011
0000
0110
0000
,
1100
0000
0110
0000
,
0011
0000
1100
0000
,
1001
1000
1001
0000
,
0001
0000
0100
0000
,
0010
0000
1000
0010
,
0100
0000
0001
0000
,
0010
0000
0100
0000
,
0010
0000
0001
0000
,
1000
0000
0100
1000
,
0010
0000
0100
0000
,
0001
0000
1000
0000
,
0100
2000
0010
0000
,
0010
0000
3010
0000
,
0100
0000
0010
0000
,
1000
0000
0001
0000
,
0010
0200
1000
0000
,
1000
0000
1000
0000
,
1300
0000
0100
0000
,
0010
0000
0001
0000
,
2000
0000
0000
3000
,
0002
0000
0000
0003
,
0200
0000
0000
0300
,
0020
0000
0000
0030
,
0100
0000
0010
0000
,
1000
0000
0100
0000
,
1000
0100
0010
0001
,
0010
1000
0010
0001
,
2002
0000
0000
3003
,
0001
0020
0130
0010
,
0001
2000
3100
1000
,
0010
1000
0010
0100
,
0010
0001
0010
0100
,
0001
0020
0130
0010
,
0011
1100
0100
1000
,
0010
0100
0001
1000
,
0100
0010
0100
1000
,
1001
0000
0110
0000
,
1010
0000
0110
0000
,
0101
0000
0011
0000
,
0110
0000
1100
0000
,
1001
0000
1010
0000
,
0101
0000
0011
0000
,
0110
0000
1100
0000
,
0110
0001
2002
0000
,
3003
0000
0000
0000
;

//---------------dance-single - ----------------
#NOTES:
     dance-single:
     :
     Beginner:
     4:
     0.116849,0.223032,0.057066,0.009511,0.000000,86.000000,80.000000,6.000000,1.000000,0.000000,0.000000,0.116849,0.223032,0.057066,0.009511,0.000000,86.000000,80.000000,6.000000,1.000000,0.000000,0.000000:
0000
0000
0000
0000
,
0000
0000
0000
0000
,
0000
0000
0000
0000
,
0000
0000
0000
0000
,
0000
0000
0000
0000
,
1000
0000
0000
0000
,
0001
0000
0000
0000
,
1000
0000
0001
0000
,
0100
0000
0010
0000
,
1001
0000
0000
0000
,
1000
0000
0000
0000
,
0010
0000
0000
0000
,
0100
0000
0000
0000
,
0001
0000
1000
0000
,
0001
0000
0000
0000
,
0010
0000
0000
0000
,
0001
0000
0000
0000
,
0100
0000
0001
0000
,
1001
0000
0010
0000
,
0100
0000
0000
0000
,
0110
0000
1000
0000
,
0001
0000
0000
0000
,
1001
0000
0001
0000
,
1000
0000
0000
0000
,
0110
0000
0100
0000
,
0010
0000
0000
0000
,
1000
0000
0000
0000
,
0001
0000
0000
0000
,
0010
0000
0000
0000
,
0001
0000
0000
0000
,
0100
0000
0000
0000
,
0010
0000
0000
0000
,
1000
0000
0000
0000
,
0100
0000
0000
0000
,
1000
0000
0000
0000
,
0000
0000
0000
0000
,
0001
0000
0000
0000
,
0000
0000
0000
0000
,
0100
0000
0000
0000
,
0000
0000
0000
0000
,
0010
0000
0000
0000
,
1000
0000
0000
0000
,
0001
0000
0000
0000
,
0001
0000
0000
0000
,
1000
0000
0000
0000
,
1000
0000
0000
0000
,
0010
0000
0100
0000
,
0001
0000
1000
0000
,
0001
0000
1000
0000
,
0010
0000
0100
0000
,
0020
0000
0000
0030
,
1000
0000
0000
0000
,
0001
0000
0000
0000
,
0010
0000
0000
0000
,
0001
0000
1000
0000
,
0001
0000
0000
0000
,
0100
0000
0000
0000
,
0010
0000
0000
0000
,
1000
0000
0010
0000
,
0100
0000
0001
0000
,
1000
0000
0000
0000
,
0001
0000
1000
0000
,
0010
0000
0000
0000
,
0100
0000
0001
0000
,
0010
0000
0000
0000
,
0100
0000
1000
0000
,
0001
1000
0010
0000
,
1001
0000
0000
0000
;
