#VERSION:0.83;
#TITLE:Last Kingdom;
#SUBTITLE:;
#ARTIST:USAO;
#TITLETRANSLIT:;
#SUBTITLETRANSLIT:;
#ARTISTTRANSLIT:;
#GENRE:HARDSTYLE;
#ORIGIN:;
#CREDIT:;
#BANNER:banner.png;
#BACKGROUND:background.png;
#PREVIEWVID:;
#JACKET:jacket.png;
#CDIMAGE:;
#DISCIMAGE:;
#LYRICSPATH:;
#CDTITLE:;
#MUSIC:Last Kingdom.mp3;
#OFFSET:-0.564000;
#SAMPLESTART:86.953690;
#SAMPLELENGTH:19.200005;
#SELECTABLE:YES;
#BPMS:0.000=150.000;
#STOPS:148.000=1.200;
#DELAYS:;
#WARPS:;
#TIMESIGNATURES:0.000=4=4;
#TICKCOUNTS:0.000=4;
#COMBOS:0.000=1;
#SPEEDS:0.000=1.000=0.000=0;
#SCROLLS:0.000=1.000;
#FAKES:;
#LABELS:0.000=Song Start;
#BGCHANGES:;
#KEYSOUNDS:;
#ATTACKS:
;

//---------------dance-single - ----------------
#NOTEDATA:;
#CHARTNAME:;
#STEPSTYPE:dance-single;
#DESCRIPTION:;
#CHARTSTYLE:;
#DIFFICULTY:Hard;
#METER:14;
#RADARVALUES:0.577447,0.793215,0.671357,0.258752,0.374142,578.000000,482.000000,96.000000,37.000000,0.000000,0.000000,0.000000,0.000000,0.000000,0.577447,0.793215,0.671357,0.258752,0.374142,578.000000,482.000000,96.000000,37.000000,0.000000,0.000000,0.000000,0.000000,0.000000;
#CREDIT:Pandemonium X;
#NOTES:
// measure 0
0000
0000
0000
0000
,  // measure 1
0000
0000
0000
0000
,  // measure 2
1001
0000
0000
2000
0200
0000
3300
0000
,  // measure 3
1001
0000
0000
2000
0020
0000
3030
0000
,  // measure 4
1001
0000
0000
0001
0020
0000
0230
0000
,  // measure 5
0310
0001
0100
0000
1010
0000
0101
0000
,  // measure 6
1001
0000
0000
0002
0200
0000
0303
0000
,  // measure 7
1001
0000
0000
0002
0020
0000
0033
0000
,  // measure 8
1001
0000
0000
1000
0020
0000
0230
0000
,  // measure 9
0301
0010
0100
0000
1100
0000
0011
0000
,  // measure 10
1001
1000
0001
0001
,  // measure 11
0100
0100
0010
0010
,  // measure 12
1000
1000
0010
0010
,  // measure 13
0100
0100
0100
1001
,  // measure 14
0010
0000
0000
1000
0000
0000
0100
0000
0001
0000
0000
0100
0000
0000
0010
0000
,  // measure 15
0001
0000
0000
0100
0000
0000
1000
0000
0100
0000
0000
0010
0000
0000
1000
0001
,  // measure 16
1000
0000
0100
0000
0010
0000
0001
0000
1000
0010
1000
0010
1000
0010
1000
0010
,  // measure 17
0200
0300
0000
0000
,  // measure 18
0000
0000
0000
0000
,  // measure 19
0001
1000
0001
1000
0001
1000
0001
1000
,  // measure 20
0001
1000
0001
1000
0001
1000
0001
1000
,  // measure 21
0001
1000
0001
1000
0001
1000
0001
1000
,  // measure 22
0001
0000
1000
0000
0001
0000
1000
0000
0001
0000
0000
0010
0000
0010
0000
0000
,  // measure 23
0001
1000
0001
0010
0001
1000
0001
1000
,  // measure 24
0001
0000
0100
0000
0010
0100
0000
0100
0001
0000
1000
0000
0001
0000
1000
0001
,  // measure 25
0010
0000
0000
0010
0000
0000
0010
0100
1000
0000
0000
0000
0001
0000
0000
0000
,  // measure 26
0100
0010
1000
0100
0001
0100
0010
0000
,  // measure 27
1100
0011
0101
1010
,  // measure 28
1001
0000
0000
0000
0110
0000
0000
0000
1010
0000
0000
0000
0101
0000
0001
0010
,  // measure 29
0100
0000
0000
1100
0000
0000
1000
0001
0100
0000
0000
0000
0101
0000
0000
0000
,  // measure 30
0011
0000
0000
0000
0110
0000
0000
0000
1100
0000
1000
0100
0000
1000
0000
0010
,  // measure 31
0100
0110
0110
0000
0101
0000
0011
0000
,  // measure 32
0110
0000
0000
0000
0011
0000
0000
0000
1001
0000
0000
0000
1010
0000
1000
0001
,  // measure 33
0100
0000
0000
0110
0000
0000
0010
1000
0001
0000
0000
0000
1001
0000
0000
0000
,  // measure 34
1100
0000
0000
0000
0011
0000
0000
0000
0110
0000
0100
1000
0000
0010
0000
0100
,  // measure 35
0002
0000
0000
0000
,  // measure 36
0000
0000
0000
0000
,  // measure 37
0003
0000
0000
0000
1001
0000
1000
0000
0010
0000
1000
0000
0001
0000
0000
1000
,  // measure 38
0000
0010
1000
0100
1000
0100
0010
0001
,  // measure 39
0010
0000
0001
0000
0100
0000
0000
0100
0000
0000
0001
0000
2000
0000
0000
0000
,  // measure 40
0000
0000
0000
0000
3100
0000
0000
0010
0000
0000
0100
0000
0020
0000
0000
0000
,  // measure 41
0031
0000
0000
0000
1100
0000
0000
0000
1000
0000
0100
0000
0010
0000
0000
0100
,  // measure 42
0000
0010
0001
0100
0001
1000
0100
1000
,  // measure 43
0001
0000
0010
0000
0100
0000
0000
0010
0000
0000
0001
0000
0200
0000
0000
0000
,  // measure 44
0000
0000
0000
0000
0310
0000
0000
1000
0000
0000
0010
0000
0200
0000
0000
0000
,  // measure 45
0300
1001
0001
1000
,  // measure 46
0010
1000
0001
0010
,  // measure 47
0001
1000
1000
1000
,  // measure 48
1000
1000
1000
1000
,  // measure 49
0000
0000
0000
0000
1001
0000
0000
1000
0000
0001
0000
0010
0100
0000
0000
0010
,  // measure 50
0000
0100
1000
0000
0001
0100
0000
0010
0000
0100
0010
1000
0001
0000
0000
1000
,  // measure 51
0000
0100
0010
0001
0200
0000
0000
0000
0300
0000
0000
0000
0000
0000
0000
0000
,  // measure 52
0000
0000
0000
0000
0000
0000
0000
0010
,  // measure 53
0100
0001
1001
0000
0011
0000
1001
0000
,  // measure 54
1010
1001
0110
1001
,  // measure 55
0110
1001
1100
1001
,  // measure 56
0101
1001
0110
2002
,  // measure 57
3003
1001
1010
0011
,  // measure 58
0110
0000
1100
0000
0110
0010
0011
0000
,  // measure 59
0101
1010
0000
1100
,  // measure 60
0000
0000
0000
0000
1001
0000
0000
1001
0000
0000
0100
0000
2002
0000
0000
0000
,  // measure 61
3003
0000
0000
0000
0101
0000
0000
0000
1010
0000
1000
0001
0010
0000
0000
0100
,  // measure 62
0000
0000
0010
0000
0001
0000
0000
0000
1010
0000
0010
1000
0100
0000
0000
0010
,  // measure 63
0000
0010
0100
0010
0001
0000
0000
1001
0000
0000
1000
0010
0100
0000
0000
0101
,  // measure 64
0000
0000
0001
0010
0100
0000
0000
0110
0000
0000
0010
0001
2000
0000
0000
0000
,  // measure 65
3100
0010
0001
1000
0001
0000
0000
0000
1010
0000
1001
0000
1100
0000
0000
1001
,  // measure 66
0000
0000
0101
0000
1001
0000
0000
0000
0110
0000
1000
0010
1000
0000
0000
0101
,  // measure 67
0000
0000
0001
0010
0100
0000
0000
1000
0000
0000
0100
0000
1100
0000
0000
0010
,  // measure 68
0000
0000
0100
0000
1001
0000
0000
1010
0000
0000
0110
0000
0201
0000
0000
0000
,  // measure 69
0300
0000
0001
1000
0010
0100
0002
0000
,  // measure 70
1000
0000
0013
1000
0010
0100
2000
0000
,  // measure 71
0001
0000
3100
0001
0100
0010
0002
0000
,  // measure 72
0013
0000
0110
0110
0110
0000
2000
0000
,  // measure 73
3002
0000
0103
0001
0010
0001
2000
0000
,  // measure 74
0010
0000
3001
0100
0010
1000
0200
0000
,  // measure 75
0010
0000
1300
0100
1000
0001
0200
0000
,  // measure 76
0301
0000
0010
0100
1000
0000
1001
0000
,  // measure 77
0110
0000
0000
0000
0001
1000
0001
1000
0001
0000
0000
0010
0000
0010
0100
1000
,  // measure 78
0001
0000
0100
0010
1000
0001
0000
1000
0000
0100
1000
0001
0100
0000
0000
0100
,  // measure 79
0000
0000
0100
0000
2001
0000
0000
0000
3010
1000
0100
1000
0001
0000
0000
0001
,  // measure 80
0000
0001
0100
0010
0200
0000
0000
0010
0000
0000
0310
0100
0010
0000
0000
1000
,  // measure 81
0000
0100
0010
0000
0001
0010
0001
0010
0001
0000
0000
0001
0000
1000
0010
0100
,  // measure 82
0001
0000
1000
0100
0010
0000
0000
0100
0000
0010
0001
1000
0001
0000
0000
1000
,  // measure 83
0000
0010
1000
0000
0001
0010
0100
0010
0001
1000
0100
0010
0001
1000
0100
0010
,  // measure 84
0001
0010
0100
0010
0001
0000
1000
0000
0010
0000
0000
0000
1000
0000
0001
0000
,  // measure 85
0010
2002
0000
0000
,  // measure 86
0000
0000
0000
0000
,  // measure 87
0000
3003
0000
0000
;

//---------------dance-single - ----------------
#NOTEDATA:;
#CHARTNAME:;
#STEPSTYPE:dance-single;
#DESCRIPTION:;
#CHARTSTYLE:;
#DIFFICULTY:Medium;
#METER:11;
#RADARVALUES:0.441577,0.579657,0.461558,0.216792,0.150356,442.000000,376.000000,66.000000,31.000000,0.000000,0.000000,0.000000,0.000000,0.000000,0.441577,0.579657,0.461558,0.216792,0.150356,442.000000,376.000000,66.000000,31.000000,0.000000,0.000000,0.000000,0.000000,0.000000;
#CREDIT:Pandemonium X;
#NOTES:
// measure 0
0000
0000
0000
0000
,  // measure 1
0000
0000
0000
0000
,  // measure 2
1001
0000
0000
0010
0200
0000
0300
0000
,  // measure 3
1001
0000
0000
0010
0200
0000
0300
0000
,  // measure 4
1001
0000
0000
0010
0200
0000
0310
0000
,  // measure 5
0100
0001
0010
0000
0100
0000
1000
0000
,  // measure 6
1001
0000
0000
1000
0002
0000
0003
0000
,  // measure 7
1001
0000
0000
0001
2000
0000
3000
0000
,  // measure 8
1001
0000
0000
0100
0010
0000
1000
0000
,  // measure 9
0010
0100
0001
0000
0010
0000
0100
0000
,  // measure 10
1001
0001
1000
0010
,  // measure 11
1000
0001
0010
0001
,  // measure 12
1000
0010
1000
0001
,  // measure 13
0100
0100
0100
0000
,  // measure 14
0001
0000
0000
1000
0000
0000
1000
0000
0001
0000
0000
0001
0000
0000
0010
0000
,  // measure 15
0100
0000
0000
0100
0000
0000
0010
0000
0001
0000
0000
1000
0000
0000
1000
0000
,  // measure 16
0001
0000
0100
0000
0010
1000
0100
0010
,  // measure 17
0022
0033
0000
0000
,  // measure 18
0000
0000
0000
0000
,  // measure 19
1100
0100
1000
1000
,  // measure 20
0001
0001
0010
0010
,  // measure 21
0001
0001
0100
0100
,  // measure 22
0010
0000
0000
0000
0010
0000
0000
0000
1000
0000
0000
0001
0000
0001
0000
0000
,  // measure 23
1000
0000
0001
0010
0100
0000
1000
0000
,  // measure 24
0001
0000
0010
0000
0100
0000
0000
2000
0000
0000
0000
0000
0000
0000
3001
0000
,  // measure 25
1000
0000
0000
0001
0000
0000
1000
0000
0010
0000
0000
1000
0000
0000
0000
0000
,  // measure 26
0100
0000
0010
0000
0001
0010
0001
0000
,  // measure 27
1001
1001
0110
0110
,  // measure 28
1001
0000
1001
0000
0110
0000
0110
0100
,  // measure 29
0001
0000
0000
0010
0000
0000
0100
0000
1000
0000
0000
0000
1100
0000
0000
0000
,  // measure 30
0011
0000
0000
0000
0101
0000
0000
0000
1010
0000
0000
1000
0000
0010
0000
0100
,  // measure 31
0001
0001
0001
0000
1100
0000
0101
0000
,  // measure 32
0011
0000
1010
0000
1001
0000
0110
0100
,  // measure 33
0001
0000
0000
0010
0000
0000
0001
0000
1000
0000
0000
0000
0010
0000
1000
0000
,  // measure 34
0001
0000
0000
0000
1000
0000
0000
0000
0010
0000
0000
0100
0000
0001
0000
0010
,  // measure 35
0200
0000
0000
0000
,  // measure 36
0000
0000
0000
0000
,  // measure 37
0300
1100
0100
1000
,  // measure 38
1000
0001
0100
0001
,  // measure 39
0010
0000
0000
0000
0100
0000
0000
0100
0000
0000
0010
0000
0002
0000
0000
0000
,  // measure 40
0000
0000
0000
0000
1003
0000
0000
1000
0000
0000
0001
0000
0200
0000
0000
0000
,  // measure 41
0310
0000
0110
0000
0010
0100
0001
0000
,  // measure 42
1000
0000
0100
0000
0010
0100
1000
0000
,  // measure 43
0100
0000
0010
0000
0001
0000
0000
0001
0000
0000
0010
0000
0200
0000
0000
0000
,  // measure 44
0000
0000
0000
0000
0310
0000
0000
0001
0000
0000
1000
0000
0020
0000
0000
0000
,  // measure 45
0000
0130
0001
0010
,  // measure 46
0001
1000
0100
0010
,  // measure 47
0001
1000
1000
1000
,  // measure 48
1000
1000
1000
1000
,  // measure 49
0000
0000
0000
0000
0001
0000
0000
1000
0000
0000
0010
0000
1000
0000
0000
0001
,  // measure 50
0000
0000
0010
0000
0100
0000
0000
0010
0000
0000
0001
0000
0100
0000
0000
0010
,  // measure 51
0000
1000
2002
0000
3003
0000
0000
0000
,  // measure 52
0000
0000
0000
0000
0000
0000
0000
1000
,  // measure 53
0100
0010
0011
0000
0011
0000
1100
0000
,  // measure 54
1100
0101
0101
1010
,  // measure 55
1010
1100
1100
0101
,  // measure 56
0101
1001
0110
2002
,  // measure 57
3003
1010
0101
0011
,  // measure 58
0110
0000
0011
0000
1001
1000
1010
0000
,  // measure 59
0101
1001
0000
0110
,  // measure 60
0000
0000
0000
0000
1001
0000
0000
1000
0000
0000
0001
0000
0200
0000
0000
0000
,  // measure 61
0000
0000
0000
0000
0310
0000
0000
0000
1000
0000
0001
0000
0010
0000
0000
0100
,  // measure 62
0000
0000
0010
0000
0001
0000
0000
0000
1000
0000
0001
0000
0100
0000
0000
0001
,  // measure 63
0000
0000
0010
0000
1000
0000
0000
0010
0000
0000
0100
0000
0010
0000
0000
0001
,  // measure 64
0000
0000
1000
0000
0010
0000
0000
1000
0000
0000
0001
0000
0020
0000
0000
0000
,  // measure 65
0130
0000
0010
0000
0001
0000
0000
0000
1000
0000
0001
0000
0100
0000
0000
0001
,  // measure 66
0000
0000
0010
0000
0100
0000
0000
0000
0010
0000
0001
0000
1000
0000
0000
0001
,  // measure 67
0000
1000
1010
0000
0000
0000
0101
0000
,  // measure 68
0000
0000
0000
0000
1001
0000
0000
0100
0000
0000
0010
0000
2000
0000
0000
0000
,  // measure 69
3000
0000
0100
0010
0001
1000
0020
0000
,  // measure 70
0000
0000
0130
1000
0100
0001
2000
0000
,  // measure 71
0000
0000
3001
0010
1000
0010
0200
0000
,  // measure 72
2300
0000
3010
0010
0010
0000
0110
0000
,  // measure 73
1001
0000
0001
1000
0100
0010
0200
0000
,  // measure 74
0000
0000
0310
0001
1000
0010
0200
0000
,  // measure 75
0000
0000
0310
1000
0100
0010
0002
0000
,  // measure 76
2003
0000
3100
1000
0010
0000
0101
0000
,  // measure 77
1010
0000
0000
0000
0001
0000
0001
0000
0001
0000
0000
1000
0000
0000
0010
0000
,  // measure 78
0100
0000
0010
0000
1000
0000
0000
0001
0000
0000
0010
0000
0001
0000
0000
1000
,  // measure 79
0000
0000
0100
0000
1000
0000
0000
0000
0001
0000
0100
0000
1000
0000
0000
0100
,  // measure 80
0000
0010
2000
0000
0100
0000
0010
0000
,  // measure 81
3001
0000
0000
0000
1000
0000
0001
0000
0010
0000
0000
0100
0000
0010
0000
0001
,  // measure 82
0000
0000
1000
0000
0001
0000
0000
1000
0000
0000
0001
0000
0010
0000
0000
0001
,  // measure 83
0000
1000
0100
1000
0010
0001
0010
0100
,  // measure 84
0001
1000
0100
1000
1100
0000
0001
0100
,  // measure 85
0101
2002
0000
0000
,  // measure 86
0000
0000
0000
0000
,  // measure 87
0000
3003
0000
0000
;

//---------------dance-single - ----------------
#NOTEDATA:;
#CHARTNAME:;
#STEPSTYPE:dance-single;
#DESCRIPTION:;
#CHARTSTYLE:;
#DIFFICULTY:Easy;
#METER:8;
#RADARVALUES:0.336677,0.487433,0.314699,0.223786,0.000000,337.000000,292.000000,45.000000,32.000000,0.000000,0.000000,0.000000,0.000000,0.000000,0.336677,0.487433,0.314699,0.223786,0.000000,337.000000,292.000000,45.000000,32.000000,0.000000,0.000000,0.000000,0.000000,0.000000;
#CREDIT:Pandemonium X;
#NOTES:
// measure 0
0000
0000
0000
0000
,  // measure 1
0000
0000
0000
0000
,  // measure 2
1001
0000
0020
0030
,  // measure 3
1001
0000
0200
0300
,  // measure 4
1001
0000
0020
0230
,  // measure 5
0301
0010
0001
0000
0100
0000
0001
0000
,  // measure 6
0110
0000
2000
3000
,  // measure 7
0110
0000
0002
0003
,  // measure 8
0110
0000
2000
3002
,  // measure 9
0103
0010
1000
0000
0110
0000
0011
0000
,  // measure 10
1001
0001
1000
0010
,  // measure 11
1000
0001
0010
0001
,  // measure 12
1000
0100
0010
0100
,  // measure 13
1000
1000
1000
0000
,  // measure 14
1001
0000
1010
0000
,  // measure 15
0101
0000
0011
0000
,  // measure 16
0110
0011
1100
0110
,  // measure 17
2002
3003
0000
0000
,  // measure 18
0000
0000
0000
0000
,  // measure 19
1000
1000
0001
0001
,  // measure 20
0100
0100
0010
0010
,  // measure 21
1000
1000
0010
0010
,  // measure 22
0100
0100
0010
0000
,  // measure 23
0100
0001
0010
0001
,  // measure 24
1000
0100
0001
0100
,  // measure 25
1000
0010
0001
0010
,  // measure 26
0100
0000
0010
0000
0100
0001
1000
0000
,  // measure 27
0001
0001
1000
1000
,  // measure 28
0010
0010
0100
0100
,  // measure 29
0010
1000
0010
0100
,  // measure 30
0001
0010
0100
1000
,  // measure 31
0100
1000
0100
0000
1000
0000
0010
0000
,  // measure 32
0100
0001
1000
0010
,  // measure 33
0100
0010
1000
0001
,  // measure 34
0010
0000
0100
0000
0010
0000
0001
0100
,  // measure 35
0110
0000
0000
0000
,  // measure 36
0000
0000
0000
0000
,  // measure 37
0000
1001
0000
0001
,  // measure 38
0000
1000
0000
0010
,  // measure 39
0000
0100
0100
0200
,  // measure 40
0300
0010
0010
0020
,  // measure 41
0030
1001
0000
1000
,  // measure 42
0000
0001
0000
0010
,  // measure 43
0000
0100
0100
0200
,  // measure 44
0300
1100
1000
2000
,  // measure 45
3000
1001
0001
1000
,  // measure 46
0010
1000
0001
0010
,  // measure 47
0100
1000
1000
1000
,  // measure 48
1000
1000
1000
1000
,  // measure 49
0000
1001
0000
1010
,  // measure 50
0000
0101
0000
0011
,  // measure 51
0000
0220
0330
0000
,  // measure 52
0000
0000
0000
0000
,  // measure 53
0000
1001
0001
1000
,  // measure 54
0010
1000
0100
1000
,  // measure 55
0010
0100
0001
0010
,  // measure 56
0100
0010
0001
1000
,  // measure 57
0000
0001
1000
0010
,  // measure 58
1000
0000
0100
0000
0010
0100
1000
0000
,  // measure 59
0100
1100
0000
0101
,  // measure 60
0000
1001
0110
2002
,  // measure 61
3003
0000
0101
0000
0001
0100
0001
0000
,  // measure 62
0100
0000
0010
0000
1000
0010
1000
0000
,  // measure 63
0010
0100
0001
0010
,  // measure 64
0100
0010
0001
1000
,  // measure 65
0001
0010
0100
0000
0010
0001
0010
0000
,  // measure 66
0001
0000
0100
0000
0010
1000
0010
0000
,  // measure 67
0100
0110
0000
1001
,  // measure 68
0000
0110
1001
0220
,  // measure 69
0330
0001
0100
0020
,  // measure 70
0000
0130
0001
2000
,  // measure 71
0000
3100
1000
0020
,  // measure 72
0230
0000
0301
1000
0010
0000
0200
0000
,  // measure 73
0302
0013
0100
2000
,  // measure 74
0000
3100
1000
0002
,  // measure 75
0000
0103
0001
0020
,  // measure 76
0230
0000
1300
0100
0010
0000
0110
0000
,  // measure 77
1001
0000
0010
1000
0010
0000
1000
0000
,  // measure 78
0001
0010
0100
0110
,  // measure 79
0100
0000
1100
0000
0100
0100
0100
0000
,  // measure 80
1000
0000
0010
0000
0100
0000
0001
0100
,  // measure 81
0010
0000
1000
0001
1000
0000
0001
0000
,  // measure 82
0100
0000
0010
1000
0010
0000
0100
0000
,  // measure 83
0010
0000
1000
0100
0010
0001
1000
0100
,  // measure 84
0010
0001
1000
0001
0100
0000
0001
1000
,  // measure 85
0010
2002
0000
0000
,  // measure 86
0000
0000
0000
0000
,  // measure 87
0000
3003
0000
0000
0000
0000
0000
0000
;

//---------------dance-single - ----------------
#NOTEDATA:;
#CHARTNAME:;
#STEPSTYPE:dance-single;
#DESCRIPTION:;
#CHARTSTYLE:;
#DIFFICULTY:Beginner;
#METER:5;
#RADARVALUES:0.160846,0.298526,0.125879,0.034967,0.000000,161.000000,143.000000,18.000000,5.000000,0.000000,0.000000,0.000000,0.000000,0.000000,0.160846,0.298526,0.125879,0.034967,0.000000,161.000000,143.000000,18.000000,5.000000,0.000000,0.000000,0.000000,0.000000,0.000000;
#CREDIT:Pandemonium X;
#NOTES:
// measure 0
0000
0000
0000
0000
,  // measure 1
0000
0000
0000
0000
,  // measure 2
0000
0010
0000
0000
0000
0000
0000
0000
,  // measure 3
0000
0100
0000
0000
0000
0000
0000
0000
,  // measure 4
0000
0010
0000
0000
0000
0000
0000
0000
,  // measure 5
0000
0100
0000
0000
0000
0010
0000
0000
,  // measure 6
0000
1001
0000
0000
0000
0000
0000
0000
,  // measure 7
0000
1000
0000
0000
0000
0000
0000
0000
,  // measure 8
0000
0001
0000
0000
0000
0000
0000
0000
,  // measure 9
0000
1000
0000
0000
0000
0001
0000
0000
,  // measure 10
0000
0100
0000
0000
0000
0000
0000
0000
,  // measure 11
0000
0000
0000
0000
,  // measure 12
0000
0000
0000
0000
,  // measure 13
0000
0000
0000
0000
,  // measure 14
0000
0010
0000
0000
0000
1000
0000
0000
,  // measure 15
0000
0001
0000
0000
0000
0010
0000
0000
,  // measure 16
0000
0100
0000
0000
0000
0010
0000
0000
,  // measure 17
0000
1001
0000
0000
0000
0000
0000
0000
,  // measure 18
0000
0000
0000
0000
,  // measure 19
0000
0010
0000
0000
0000
0000
0000
0000
,  // measure 20
0000
0100
0000
0000
0000
0000
0000
0000
,  // measure 21
0000
0001
0000
0000
0000
0000
0000
0000
,  // measure 22
0000
1000
0000
0000
0000
0001
0000
0000
,  // measure 23
0000
0010
0000
0000
0000
0000
0000
0000
,  // measure 24
0000
0100
0000
0000
0000
0000
0000
0000
,  // measure 25
0000
1000
0000
0000
0000
0001
0000
0000
,  // measure 26
0000
1000
0000
0000
0000
0000
0000
0000
,  // measure 27
0000
0010
0000
0000
0000
0010
0000
0000
,  // measure 28
0000
0010
0000
0000
0000
0010
0000
0000
,  // measure 29
0000
0100
0000
0000
0000
0010
0000
0000
,  // measure 30
0000
0100
0000
0000
0000
0010
0000
0000
,  // measure 31
0000
1000
0000
1000
0000
0001
0000
0000
,  // measure 32
0000
1000
0000
0000
0000
0001
0000
0000
,  // measure 33
0000
0100
0000
0000
0000
0010
0000
0000
,  // measure 34
0000
1000
0000
0000
0000
0001
0000
1000
,  // measure 35
0000
0110
0000
0000
0000
0000
0000
0000
,  // measure 36
0000
0000
0000
0000
,  // measure 37
0000
0000
0000
0110
0000
0000
0000
0010
,  // measure 38
0000
0000
0000
1000
0000
0000
0000
0001
,  // measure 39
0000
0000
0000
0010
0000
0000
0000
0000
,  // measure 40
0000
0000
0000
0100
0000
0000
0000
0000
,  // measure 41
0000
0000
0000
1001
0000
0000
0000
1000
,  // measure 42
0000
0000
0000
0001
0000
0000
0000
0010
,  // measure 43
0000
0000
0000
0001
0000
0000
0000
0000
,  // measure 44
0000
0000
0000
0100
0000
0000
0000
0000
,  // measure 45
0000
0000
0000
0110
0000
0000
0000
0000
,  // measure 46
0000
0000
0000
0000
,  // measure 47
0000
0000
0000
0010
0000
0000
0000
0000
,  // measure 48
0000
0000
0000
0000
,  // measure 49
0000
0000
0000
1000
0000
0000
0000
0001
,  // measure 50
0000
0000
0000
0100
0000
0000
0000
0010
,  // measure 51
0000
0000
0000
1001
0000
0000
0000
0000
,  // measure 52
0000
0000
0000
0000
,  // measure 53
0000
0000
0000
0100
0000
0000
0000
0010
,  // measure 54
0000
0000
0000
1000
0000
0000
0000
0001
,  // measure 55
0000
0000
0000
1000
0000
0001
0000
1000
,  // measure 56
0000
0000
0000
0010
0000
0100
0000
0010
,  // measure 57
0000
0000
0000
1000
0000
0000
0000
0010
,  // measure 58
0000
0000
0000
0100
0000
0001
0000
0100
,  // measure 59
0000
0000
0000
0001
0000
0000
0000
1000
,  // measure 60
0000
0000
0000
0010
0000
0100
0000
0110
,  // measure 61
0000
0000
0000
1001
0000
0000
0000
0001
,  // measure 62
0000
0000
0000
1000
0000
0000
0000
0010
,  // measure 63
0000
0000
0000
1000
0000
0000
0000
0100
,  // measure 64
0000
0000
0000
0010
0000
0000
0000
0001
,  // measure 65
0000
0000
0000
1000
0000
1000
0000
0001
,  // measure 66
0000
0000
0000
1000
0000
0000
0000
0001
,  // measure 67
0000
0000
0000
0100
0000
0000
0000
0010
,  // measure 68
0000
0000
0000
0010
0000
0100
0000
1001
,  // measure 69
0000
0000
0000
0010
0000
0000
0000
0200
,  // measure 70
0000
0300
0000
0010
0000
0000
0000
2000
,  // measure 71
0000
3000
0000
0001
0000
0000
0000
0020
,  // measure 72
0000
0030
0000
0110
0000
0110
0000
0100
,  // measure 73
0000
0010
0000
0001
0000
0000
0000
2000
,  // measure 74
0000
3000
0000
1001
0000
0000
0000
0002
,  // measure 75
0000
0003
0000
0110
0000
0000
0000
0100
,  // measure 76
0000
0100
0000
0010
0000
0000
0000
1000
,  // measure 77
0000
0000
0000
1001
0000
0000
0000
0010
,  // measure 78
0000
0000
0000
1001
0000
0000
0000
0100
,  // measure 79
0000
0000
0000
0110
0000
1000
0000
1000
,  // measure 80
0000
0000
0000
0001
0000
0000
0000
0100
,  // measure 81
0000
0000
0000
0010
0000
0010
0000
0010
,  // measure 82
0000
0000
0000
0100
0000
0100
0000
0100
,  // measure 83
0000
0000
0000
0001
0000
1000
0000
0001
,  // measure 84
0000
0100
0000
0000
0000
0000
0000
0000
,  // measure 85
0000
0000
0000
1001
0000
0000
0000
0000
;
