#TITLE:LIPSTICK;
#SUBTITLE:;
#ARTIST:ORANGE CARAMEL;
#TITLETRANSLIT:;
#SUBTITLETRANSLIT:;
#ARTISTTRANSLIT:;
#GENRE:;
#CREDIT:;
#BANNER:banner.png;
#BACKGROUND:background.png;
#LYRICSPATH:;
#CDTITLE:cdtitle.png;
#MUSIC:Lipstick.ogg;
#OFFSET:1.068000;
#SAMPLESTART:47.939621;
#SAMPLELENGTH:15.714287;
#LASTBEATHINT:0.142800;
#SELECTABLE:YES;
#BPMS:0.000000=125.999992
;
#STOPS:
;
#BGCHANGES:;
#KEYSOUNDS:;
#ATTACKS:;

//---------------dance-single - ----------------
#NOTES:
     dance-single:
     :
     Hard:
     12:
     0.476884,0.518929,0.147159,0.147159,0.348535,431.000000,412.000000,19.000000,19.000000,0.000000,0.000000,0.476884,0.518929,0.147159,0.147159,0.348535,431.000000,412.000000,19.000000,19.000000,0.000000,0.000000:
0000
0000
0000
0000
,
0000
0000
0000
0000
,
0000
0000
0000
0000
,
0000
0000
0000
0000
,
0000
0000
0000
0000
,
0000
0000
0000
0000
0000
0000
0001
0010
,
0001
0000
0100
0000
0010
0000
0100
0000
0010
0000
0100
0010
0000
1000
0000
0000
,
0001
0000
0010
0000
0001
0000
0010
0000
0001
0000
0010
0100
0000
0010
0000
0000
,
0100
0000
1000
0000
0100
0000
1000
0000
0100
0000
1000
0001
0000
1000
0000
0000
,
0010
0000
0110
0000
0000
0000
0100
0000
1001
0000
0001
0100
0000
1010
0000
0000
,
1100
0000
0000
0000
0100
0000
1000
0000
0010
0000
0100
0000
0001
1000
0000
0100
,
0000
0000
0000
0000
0010
0000
0100
0000
0010
0000
0001
1000
0000
0010
0000
1000
,
0000
0000
0000
0000
0001
0000
0010
0000
0001
0000
0100
0010
0000
1000
0000
0002
,
0000
0000
0000
0000
0013
0000
0001
0000
1000
0000
0100
1000
0000
0010
0000
0100
,
0000
0000
0010
0000
1000
0000
0001
0000
0010
0000
0001
0010
0000
0001
0000
1000
,
0000
0000
0000
0000
0100
0000
0010
0000
0001
0000
0100
0001
0000
1000
0000
0100
,
0000
0000
0000
0000
0010
0000
0100
0000
0010
0000
0001
0100
0000
0001
0000
0020
,
0000
0000
0000
0000
0030
0000
0100
0000
0010
0000
0100
1000
0000
0001
0000
0000
,
2000
0001
0010
3100
,
2000
0000
0000
0000
3010
0000
0100
0002
0000
0000
0000
0000
0003
0000
0000
0000
,
0010
0010
0100
0100
0010
0001
1000
0100
,
1000
0000
0010
0000
1000
0000
0001
1000
0000
0000
0000
0000
0100
0000
0010
0000
,
0002
0010
0100
1003
,
0010
0000
1000
0000
0001
0000
0010
0200
0000
0000
0000
0000
0300
0000
0000
0000
,
0010
0100
1000
0100
1000
0010
0100
0001
,
1000
0000
0100
0000
0001
0000
0100
0020
0000
0000
0000
0000
0130
0000
0100
0000
,
1001
0000
0000
0000
0010
0000
0000
1001
0000
0000
0000
0000
0001
0000
0100
0000
,
0010
0000
1000
0000
0100
0000
0010
0100
0000
0000
0000
0000
0010
0000
0001
0000
,
1000
0000
0010
0000
1000
0000
0001
0010
0000
0100
0010
0000
0001
0000
1000
0000
,
0010
0000
0100
0000
0001
0000
0010
0001
0000
0000
0000
0000
0010
0000
0100
0000
,
1001
0000
0000
0000
0100
0000
0000
1001
0000
0000
0000
0000
0010
0000
1000
0000
,
0001
0000
0010
0000
1000
0000
0010
0100
0000
0000
0000
0000
0010
0000
0001
0000
,
0100
1000
0100
0010
1000
0001
0010
0100
,
0010
0000
0001
0000
1000
0000
0001
0100
0000
0000
0001
0000
0010
0000
0010
0000
,
0010
0000
0100
1000
0000
0000
0100
0000
1000
0000
0001
1000
0000
0001
0000
0000
,
0000
0100
0010
0010
0010
0100
0010
0010
,
0100
0000
0010
1000
0000
0000
0001
0000
0010
0000
0001
0100
0000
0001
0000
0000
,
1000
0100
0001
0100
1000
0100
0010
0010
,
0110
0000
0001
1000
0000
0000
0010
0000
1000
0000
0001
0010
0000
0001
0000
0000
,
0000
1000
0100
0100
0100
0010
0100
0010
,
0010
0000
0100
1000
0000
0000
0100
0000
1000
0000
0010
0100
0000
0001
0000
0000
,
1000
0000
1100
0000
0000
0000
0011
0000
0100
0000
0010
0001
0000
1000
0000
0000
,
1001
0000
1000
0000
0001
0000
0100
0000
0010
0000
1000
0010
0000
1000
0000
0100
,
0000
0000
0000
0000
1000
0000
0100
0000
0010
0000
0100
1000
0000
0010
0000
0100
,
0000
0000
0000
0000
0010
0000
0100
0000
0001
0000
0010
0100
0000
0010
0000
0002
,
0000
0000
0000
0000
0003
0000
2000
0000
3200
0000
0301
0200
0000
0020
0000
0000
,
0330
0000
0100
0000
1000
0000
0010
0000
0100
0000
0010
1000
0000
0001
0000
0010
,
0000
0000
0000
0000
0100
0000
0010
0000
0001
0000
1000
0001
0000
0010
0000
0001
,
0000
0000
0000
0000
0100
0000
0001
0000
1000
0000
0100
1000
0000
0100
0000
0020
,
0000
0000
0000
0000
0030
0000
0100
0000
1001
0000
0001
0100
0000
0011
0000
0000
,
0020
0001
0100
1030
,
0010
0000
0001
0000
0100
0000
0010
1000
0000
0000
0000
0000
0000
0000
0000
0000
,
0100
0001
0100
1000
0100
0010
0001
0010
,
1000
0000
0010
0000
0001
0000
0100
0010
0000
0000
0000
0000
0100
0000
0001
0000
,
0200
0010
1000
0310
,
0100
0000
0010
0000
1000
0000
0001
1000
0000
0000
0000
0000
0000
0000
0000
0000
,
0001
0100
1000
0100
0010
1000
0010
0001
,
0010
0000
0100
0000
0001
0000
0100
0020
0000
0000
0000
0000
1000
0000
1030
0000
,
1001
0000
0000
0000
0100
0000
0000
1001
0000
0000
0000
0000
0001
0000
0010
0000
,
0100
0000
0010
0000
0001
0000
1000
0010
0000
0000
0000
0000
0100
0000
0001
0000
,
1000
0000
0100
0000
1000
0000
0010
1000
0000
0000
0010
0000
0100
0000
0001
0000
,
0010
0000
1000
0000
0010
0000
0100
0010
0000
0000
0000
0000
0100
0000
0010
0000
,
1001
0000
0000
0000
0010
0000
0000
1001
0000
0000
0000
0000
0001
0000
0010
0000
,
0100
0000
0010
0000
0001
0000
1000
0010
0000
0000
0000
0000
0100
0000
0001
0000
,
1000
0000
0100
0000
0001
0000
0100
0010
0000
0000
0100
0000
0010
0000
0001
0000
,
0010
0000
1000
0000
0010
0000
0100
1000
0000
0000
0001
0000
0100
0000
0100
0000
,
2002
0000
0000
0000
,
3003
0000
0000
0000
;

//---------------dance-single - ----------------
#NOTES:
     dance-single:
     :
     Medium:
     8:
     0.339683,0.357829,0.069707,0.015490,0.089070,307.000000,298.000000,9.000000,2.000000,0.000000,0.000000,0.339683,0.357829,0.069707,0.015490,0.089070,307.000000,298.000000,9.000000,2.000000,0.000000,0.000000:
0000
0000
0000
0000
,
0000
0000
0000
0000
,
0000
0000
0000
0000
,
0000
0000
0000
0000
,
0000
0000
0000
0000
,
0000
0000
0000
0000
0000
0000
1000
0100
,
0010
0100
1000
1001
,
0001
0010
0100
1001
,
0001
0100
0010
1001
,
0000
0000
0110
0000
0000
0000
0010
0000
1000
0000
0000
0001
0000
1000
0000
0000
,
1001
0000
0001
0000
1000
0000
0100
1000
,
0100
0000
1000
0000
0010
0000
0100
0001
,
0100
0000
0001
0000
1000
0000
0001
0100
,
0020
0030
0000
0000
,
1000
0000
0001
0000
0010
0000
0100
1000
,
0100
0000
1000
0000
0010
0000
0100
0010
,
0100
0000
0010
0000
1000
0000
0001
1000
,
0002
0000
0000
0000
0003
0000
1000
0000
0010
0000
0000
0100
0000
0001
0000
0000
,
0100
0100
0001
0001
,
0010
0000
0000
0000
0100
0000
0000
1000
0000
0000
0000
0000
0000
0000
0000
0000
,
0100
1000
0010
0100
,
0001
0000
0000
0000
1000
0000
0000
0001
0000
0000
0000
0000
0100
0000
0010
0000
,
1000
1000
0001
0001
,
1000
0000
0000
0000
0001
0000
0000
0100
0000
0000
0000
0000
0000
0000
0000
0000
,
0010
1000
0100
0010
,
0001
0010
0100
1000
0001
0000
1000
1000
,
0001
0000
0000
0000
1000
0000
0000
0010
0000
0000
0000
0000
1000
0000
0010
0000
,
0100
0000
0000
0000
0010
0000
0000
1000
0000
0000
0000
0000
0100
0000
1000
0000
,
0010
0000
0100
0000
0001
0000
1000
0001
,
0100
0000
0001
0010
0100
0000
0010
0001
,
0100
0000
0000
0000
0001
0000
0000
1000
0000
0000
0000
0000
0100
0000
1000
0000
,
0010
0000
0000
0000
0100
0000
0000
0001
0000
0000
0000
0000
0100
0000
0001
0000
,
1000
0100
1000
0010
,
0100
0001
0100
0001
0100
0001
0010
0100
,
1000
0100
1000
0010
,
0100
0001
1000
0001
1000
0001
0010
1000
,
0010
0010
0100
0100
,
0010
0000
0001
0000
0010
0000
0100
1000
,
0010
0100
0001
1000
,
0100
0000
1000
0010
0100
0010
0100
0010
,
1000
0001
1000
0100
,
0000
0000
1001
0000
0000
0000
0010
0000
0100
0000
0000
0001
0000
1000
0000
0000
,
1100
0000
1000
0000
0010
0000
0100
0001
,
0100
0000
0001
0000
0010
0000
0100
0010
,
0100
0000
1000
0000
0100
0000
1000
0010
,
1000
0000
0000
0000
0000
0000
0010
0000
1000
0000
0000
0001
0000
1000
0000
0000
,
1001
0000
0001
0000
0010
0000
0100
0010
,
0001
0000
0010
0000
0100
0000
0010
0100
,
1000
0000
0100
0000
1000
0000
0010
0100
,
0001
0000
0000
0000
0000
0000
1000
0000
0001
0000
0000
0100
0000
0001
0000
0000
,
0010
0100
1000
0100
,
1000
0000
0000
0000
0010
0000
0000
0100
0000
0000
0000
0000
0000
0000
0000
0000
,
0010
1000
0010
0000
0100
0001
0100
0000
,
0001
1000
0100
0010
0001
0000
0010
0001
,
0100
0100
0010
0010
,
1000
0010
0100
0001
1000
0000
0000
0000
,
0001
1000
0100
0010
,
0100
0000
0010
0000
0001
0000
0000
0010
0000
0000
0000
0000
0001
0000
0001
0000
,
1000
0000
0000
0000
0001
0000
0000
0100
0000
0000
0000
0000
0010
0000
1000
0000
,
0100
0000
0010
0000
0100
0000
0000
0100
0000
0000
0000
0000
0010
0000
0001
0000
,
1000
0000
0001
0000
0100
0000
0001
0100
,
0010
1000
0010
0100
0010
0000
0100
0010
,
1000
0000
0000
0000
0001
0000
0000
1000
0000
0000
0000
0000
0100
0000
1000
0000
,
0010
0000
0000
0000
0100
0000
0000
0001
0000
0000
0000
0000
0010
0000
0100
0000
,
1000
0100
1000
0010
,
0100
0001
0100
0010
1000
0010
0100
0100
,
1001
0000
0000
0000
;

//---------------dance-single - ----------------
#NOTES:
     dance-single:
     :
     Easy:
     6:
     0.263337,0.306710,0.123923,0.007745,0.000000,238.000000,222.000000,16.000000,1.000000,0.000000,0.000000,0.263337,0.306710,0.123923,0.007745,0.000000,238.000000,222.000000,16.000000,1.000000,0.000000,0.000000:
0000
0000
0000
0000
,
0000
0000
0000
0000
,
0000
0000
0000
0000
,
0000
0000
0000
0000
,
0000
0000
0000
0000
,
0000
0000
0000
0000
0000
0000
0001
1000
,
0001
0001
1000
0000
,
0010
1000
0010
0000
,
0100
0001
0100
0000
,
0000
0001
0000
1000
0001
0000
0100
0000
,
0110
0010
1000
0100
,
0000
1000
0001
0010
,
0000
0100
0010
0001
,
1000
0000
0000
0000
,
0001
1000
0010
0000
,
1000
0100
0010
0000
,
0100
0010
0001
1000
,
0010
0000
0000
0000
0110
0000
0100
0001
,
1000
0001
0010
0001
,
1000
0100
0010
0000
,
0100
0100
1000
1000
,
0001
0000
1000
0000
0010
0000
0100
0001
,
0010
0100
0010
0001
,
1000
0001
1001
0000
,
1000
1000
0001
0001
,
0100
0000
0010
0000
1000
0000
0010
0100
,
0010
1000
0001
0010
,
0100
0010
0001
1000
,
0100
1000
0010
0100
,
0001
0000
0010
0000
0100
0000
0010
0001
,
1000
0001
1000
0010
,
1000
0100
0010
0100
,
1000
0001
0100
0001
,
0010
0100
1000
1001
,
0110
0010
1000
0000
,
0000
1001
0110
1001
,
0110
0000
0100
0000
,
0001
0010
0100
0110
,
1001
0000
0001
0000
,
1000
0001
0100
0001
,
1001
0000
0110
0000
,
0010
0100
0010
1000
,
1001
0001
1000
0100
,
0100
1000
0010
0100
,
0100
0001
1000
0010
,
0010
0000
0000
0000
0200
0000
0000
0300
,
0001
1000
0010
1000
,
0100
1000
0010
0100
,
0001
0010
0100
0010
,
0001
0000
1001
0110
,
1000
1000
0001
0001
,
0100
0001
0010
0000
,
0100
0010
0001
0010
,
0100
1000
0001
1000
,
0010
0010
1000
1000
,
0001
1000
0100
0000
,
1000
0010
0100
0001
,
0010
0000
0010
0000
0010
0000
0100
0010
,
0100
0010
0001
1000
,
0001
0100
0001
0010
,
0100
0010
0001
1000
,
0010
0000
1000
0000
0100
0000
0010
0100
,
1000
0100
1000
0000
,
0010
0100
0001
0000
,
1000
0001
0010
0001
,
0100
0000
0010
0000
1000
0000
0001
1000
,
0001
0000
0000
0000
;

//---------------dance-single - ----------------
#NOTES:
     dance-single:
     :
     Beginner:
     2:
     0.094049,0.127796,0.015490,0.000000,0.000000,85.000000,83.000000,2.000000,0.000000,0.000000,0.000000,0.094049,0.127796,0.015490,0.000000,0.000000,85.000000,83.000000,2.000000,0.000000,0.000000,0.000000:
// measure 0
0000
0000
0000
0000
,  // measure 1
0000
0000
0000
0000
,  // measure 2
0000
0000
0000
0000
,  // measure 3
0000
0000
0000
0000
,  // measure 4
0000
0000
0000
0000
,  // measure 5
0000
0000
0000
1000
,  // measure 6
0001
0000
0000
0000
,  // measure 7
0100
0000
0000
0000
,  // measure 8
0010
0000
0000
0000
,  // measure 9
1000
0000
0001
0000
,  // measure 10
0100
0000
0000
0000
,  // measure 11
0010
0000
0000
0000
,  // measure 12
1000
0000
0000
0000
,  // measure 13
0001
0000
0000
0000
,  // measure 14
1000
0000
0000
0000
,  // measure 15
0001
0000
0000
0000
,  // measure 16
0100
0000
0000
0000
,  // measure 17
0010
0000
0000
0100
,  // measure 18
0001
0000
0001
0000
,  // measure 19
0001
0000
0000
0000
,  // measure 20
1000
0000
0001
0000
,  // measure 21
0100
0000
0000
0000
,  // measure 22
0010
0000
0010
0000
,  // measure 23
0010
0000
0000
0000
,  // measure 24
1000
0000
0001
0000
,  // measure 25
0100
0000
0000
0010
,  // measure 26
0100
0000
0000
0000
,  // measure 27
0001
0000
0000
0000
,  // measure 28
1000
0000
0000
0000
,  // measure 29
0100
0000
0000
1000
,  // measure 30
0001
0000
0000
0000
,  // measure 31
0100
0000
0000
0000
,  // measure 32
0010
0000
0000
0000
,  // measure 33
1000
0000
0000
0001
,  // measure 34
0001
0000
0000
0000
,  // measure 35
0000
1000
0000
1000
,  // measure 36
1000
0000
0000
0000
,  // measure 37
0010
0000
0000
0100
,  // measure 38
0100
0000
0000
0000
,  // measure 39
0010
0000
0100
0000
,  // measure 40
0100
0000
0000
0000
,  // measure 41
0001
0000
1000
0000
,  // measure 42
0110
0000
0000
0000
,  // measure 43
0100
0000
0000
0000
,  // measure 44
0001
0000
0000
0000
,  // measure 45
1000
0000
0000
0000
,  // measure 46
0010
0000
0000
0000
,  // measure 47
1000
0000
0000
0000
,  // measure 48
0100
0000
0000
0000
,  // measure 49
0010
0000
0000
0000
,  // measure 50
0001
0000
0001
0000
,  // measure 51
0001
0000
0000
0000
,  // measure 52
0100
0000
0010
0000
,  // measure 53
1000
0000
0000
0000
,  // measure 54
0100
0000
0100
0000
,  // measure 55
0100
0000
0000
0000
,  // measure 56
0010
0000
0001
0000
,  // measure 57
1000
0000
0000
0010
,  // measure 58
1000
0000
0000
0000
,  // measure 59
0001
0000
0000
0000
,  // measure 60
0010
0000
0001
0000
,  // measure 61
0100
0000
0000
0010
,  // measure 62
1000
0000
0000
0000
,  // measure 63
0100
0000
0000
0000
,  // measure 64
1000
0000
0000
0000
,  // measure 65
0001
0000
1000
0000
,  // measure 66
0110
0000
0000
0000
;
