#VERSION:0.83;
#TITLE:LIGHTNING STRIKES;
#SUBTITLE:;
#ARTIST:HuΣeR;
#TITLETRANSLIT:;
#SUBTITLETRANSLIT:;
#ARTISTTRANSLIT:;
#GENRE:Hi-GAIN ENERGY;
#ORIGIN:;
#CREDIT:;
#BANNER:banner.png;
#BACKGROUND:background.png;
#PREVIEWVID:;
#JACKET:jacket.png;
#CDIMAGE:;
#DISCIMAGE:;
#LYRICSPATH:;
#CDTITLE:cdtitle.png;
#MUSIC:LIGHTNING STRIKES.ogg;
#OFFSET:0.009000;
#SAMPLESTART:77.201378;
#SAMPLELENGTH:16.551727;
#SELECTABLE:YES;
#BPMS:0.000=174.000;
#STOPS:64.000=1.034,
92.750=1.379;
#DELAYS:;
#WARPS:;
#TIMESIGNATURES:0.000=4=4;
#TICKCOUNTS:0.000=4;
#COMBOS:0.000=1;
#SPEEDS:0.000=1.000=0.000=0;
#SCROLLS:0.000=1.000;
#FAKES:;
#LABELS:0.000=Song Start;
#BGCHANGES:;
#KEYSOUNDS:;
#ATTACKS:
;

//---------------dance-single - ----------------
#NOTEDATA:;
#CHARTNAME:;
#STEPSTYPE:dance-single;
#DESCRIPTION:;
#CHARTSTYLE:;
#DIFFICULTY:Hard;
#METER:15;
#RADARVALUES:0.637101,1.136769,0.034774,0.260802,0.469443,513.000000,509.000000,4.000000,30.000000,0.000000,0.000000,0.000000,0.000000,0.000000,0.637101,1.136769,0.034774,0.260802,0.469443,513.000000,509.000000,4.000000,30.000000,0.000000,0.000000,0.000000,0.000000,0.000000;
#CREDIT:Pandemonium X;
#NOTES:
0000
0000
0000
0000
,
0000
0000
0000
0000
,
0000
0000
0000
0000
,
0000
0000
0000
0000
,
0000
0000
0000
0000
,
0000
0000
0000
0000
,
0000
0000
0000
0000
,
0000
0000
0000
0000
,
0000
0000
0000
0000
,
2000
0000
0010
0000
3001
0000
0010
0200
,
0000
0001
0000
1000
0000
0310
0000
0000
,
0012
0000
0010
0000
1003
0000
0001
0200
,
0000
1000
0000
0001
0000
1300
0100
0010
,
0000
1000
0002
0000
0000
0000
0000
0000
,
0000
0003
0200
0000
,
0020
0000
0000
0330
,
0000
0000
1000
0100
0010
0000
0100
1000
,
0001
0100
0000
0001
0010
0000
0001
0010
,
0000
0100
0000
1000
0010
0000
0100
0001
,
1000
0100
0000
0010
0100
0010
0100
1000
,
0001
1000
0010
1000
0100
0000
0010
0100
,
1000
0001
0100
0001
0010
0000
0001
0010
,
0000
0000
0100
0000
1000
0001
1000
0001
1000
0010
0100
0010
0100
0010
1000
0001
,
0100
0010
1000
0001
1000
0000
0001
0000
1000
0000
0001
0000
1000
0000
0001
0000
,
1000
0001
1000
0010
1000
0001
0010
0001
,
1000
0000
1000
0001
1000
0001
1000
0001
,
1000
0001
1000
0100
1000
0001
0100
0001
,
0010
0100
1000
0100
0001
0100
1000
0010
,
0001
0010
1000
0010
0100
0001
0100
1000
,
0100
0000
0000
0010
0000
0000
1000
0000
0100
0000
0010
0000
0100
0000
1000
0000
0010
0000
0100
0000
0001
0000
0010
0000
,
0100
0010
0001
0100
0010
1000
0001
0010
0100
0010
0001
1000
,
0010
0000
0210
0000
0301
0010
0001
0100
,
0001
1000
0001
0010
0100
1000
0100
1000
,
0010
0100
0001
1000
0100
0010
0100
1000
,
0001
0100
0010
0010
0010
0010
0010
0010
,
0010
0010
0100
0001
0100
1000
0100
1000
,
0010
0001
0010
1000
0100
0001
0100
1000
,
0010
0000
0000
0001
0000
0000
0010
0000
0100
0000
1000
0000
0010
0000
0100
0000
0010
0000
1000
0000
0001
0000
0010
0000
,
0100
0010
0001
1000
0010
0100
0001
1000
0010
0100
0001
0010
,
0002
0000
0003
0000
0000
0200
0000
0000
,
0320
0000
2000
0000
0000
0000
3030
0001
,
0010
0001
1000
0100
0000
0010
0100
1000
,
0001
0000
1000
0000
0000
0000
0001
0010
0100
1000
0100
1000
0010
0100
0001
0010
,
0100
0000
0010
0000
0002
0000
0000
0000
0000
0000
0000
0000
0000
0000
1003
0100
,
1000
0010
0100
0001
0000
0000
0001
1000
0001
0000
1000
0000
0001
1000
0001
0010
,
0001
0010
0001
1000
0100
0010
0100
1000
0010
0100
0001
0010
0100
0010
0001
1000
,
0100
0010
0100
1000
0001
0100
0001
0100
0001
0100
0001
0100
0001
0100
0001
1000
,
0010
0100
0001
0100
0010
0000
0000
0000
1000
0000
0000
0000
0200
0000
0000
0000
,
0301
0200
0000
1000
0000
0001
0000
2000
,
0000
3300
1000
0000
0010
0000
0002
0000
,
0013
0200
0000
1000
0000
0001
0000
0310
,
1000
0001
0000
1000
0020
0000
0000
0000
,
0000
0000
0030
0200
,
0000
0002
0000
0000
,
0303
0000
0000
0000
1000
0000
0000
0100
0010
0000
0001
0000
1000
0000
0100
0000
,
1000
0000
0001
0000
1000
0000
0010
0000
1000
0000
0001
0000
0010
0000
0100
0010
,
0001
0000
1000
0000
0000
0000
0001
0200
0000
0000
0310
0000
0000
0000
0100
0010
,
1000
0001
0010
0100
1000
0000
0100
0000
0010
0000
0100
0000
1000
0000
0010
0000
,
0100
0001
0010
0010
0010
0010
0010
0010
,
0010
0010
0100
1000
0100
1000
0001
0100
,
0001
0000
0010
0000
0000
0100
1000
0000
0000
0000
0001
0000
0000
0000
0100
0010
,
1000
0010
0100
0001
0010
0000
0100
1000
0010
0000
0100
0000
0010
1000
0001
0000
,
0010
0000
0001
0000
1000
0100
1000
0100
0010
0100
0010
0001
0010
0001
0010
0001
,
1000
0001
1000
0010
0100
0000
0000
0010
1000
0000
0000
1000
0001
0000
0000
0001
,
0020
0100
0000
0001
0000
0100
0000
0031
,
0000
0000
0000
0001
0010
0000
0000
0010
0100
0000
0000
0100
1000
0000
0000
0000
,
0010
2000
0000
0100
0000
0010
0000
3001
,
1000
0010
0000
0100
0002
0000
0100
0000
,
0010
1000
0103
2000
,
0010
0000
0000
0000
3001
1000
0001
1000
0001
1000
0001
1000
0001
1000
0001
1000
,
0001
1000
0001
1000
0200
0000
0000
0000
0320
0000
0000
0000
0032
0000
0000
0000
,
0103
0000
0010
0000
1010
0000
0000
0000
0101
0000
0000
0000
0001
0000
0010
0100
,
1000
0100
0000
1000
0001
0000
1000
0001
,
0000
0100
0000
0010
1000
0000
0010
0100
,
0001
0010
0000
0100
0010
0001
1000
0010
,
0100
0001
1000
0001
0010
0000
0100
0010
,
0001
1000
0000
0010
0100
0000
0010
0100
,
0000
0000
0010
0000
1000
0001
1000
0001
1000
0010
0100
0010
0100
0010
1000
0001
,
0100
0010
1000
0001
0000
0000
1000
0000
0001
0000
0100
0000
1000
0000
0010
0000
,
0002
0003
0000
0000
;

//---------------dance-single - ----------------
#NOTEDATA:;
#CHARTNAME:;
#STEPSTYPE:dance-single;
#DESCRIPTION:;
#CHARTSTYLE:;
#DIFFICULTY:Medium;
#METER:10;
#RADARVALUES:0.399896,0.585608,0.208641,0.286882,0.000000,322.000000,298.000000,24.000000,33.000000,0.000000,0.000000,0.000000,0.000000,0.000000,0.399896,0.585608,0.208641,0.286882,0.000000,322.000000,298.000000,24.000000,33.000000,0.000000,0.000000,0.000000,0.000000,0.000000;
#CREDIT:Pandemonium X;
#NOTES:
0000
0000
0000
0000
,
0000
0000
0000
0000
,
0000
0000
0000
0000
,
0000
0000
0000
0000
,
0000
0000
0000
0000
,
0000
0000
0000
0000
,
0000
0000
0000
0000
,
0000
0000
0000
0000
,
0000
0000
0000
0000
,
1000
0000
0100
0000
1000
0000
0010
0100
,
0000
0001
0000
0010
0000
0100
0000
0000
,
0010
0000
0001
0000
0010
0000
0100
1000
,
0000
0100
0000
1000
0000
0100
1000
0010
,
0000
0100
0002
0000
0000
0000
0000
0000
,
0000
0003
2000
0000
,
0020
0000
0000
3030
,
0000
0101
0001
0010
,
0001
1000
0100
1000
,
0010
0100
0001
1000
,
0100
1000
0010
0100
,
0001
0010
0100
0010
,
0001
0100
0010
1000
,
0001
1001
0110
1001
,
0001
0100
0010
0000
0010
0000
0100
0000
,
0100
1001
0110
1001
,
0110
1000
1000
0001
,
0001
1000
0100
0020
,
0000
0130
1000
0010
,
0100
0001
0010
0100
,
0010
0002
0023
0230
,
2300
3200
0320
0032
,
2003
0000
3020
0000
0130
0001
0010
0000
,
0100
0010
0001
1000
,
0010
0100
0001
1000
,
0100
0000
0010
0001
0010
0001
0010
0001
,
0010
0001
0010
0000
0001
0000
0100
0000
,
0001
1000
0100
1000
,
0010
0200
0320
2030
,
3200
2300
3020
0230
,
0302
0000
1003
0000
0000
0002
0000
0000
,
2003
0000
0200
0000
0000
0000
3300
1000
,
0100
0010
0001
0010
0000
0100
0010
0001
,
0010
0100
0000
0010
0001
1000
0010
0100
,
1000
0001
2000
0000
0000
0000
3000
0001
,
0200
0301
0000
1000
0100
0000
0001
0100
,
0000
1000
0100
0000
0001
0100
0000
1000
,
0100
0010
0100
1000
0100
1000
0001
0100
,
0001
0100
0010
0000
0001
0000
0100
0000
,
0010
1000
0000
0001
0000
0010
0000
0100
,
0000
0010
0100
1000
,
0100
1000
0000
0010
0000
0100
0000
0010
,
0100
0001
0000
1000
0200
0000
0000
0000
,
0000
0000
0300
0020
,
0000
0002
0000
0000
,
0033
1100
0101
1010
,
0001
0100
0010
0000
0100
0000
0010
0000
,
1000
0010
0000
0100
0000
0001
0000
0010
,
1000
0010
0001
0000
0100
0000
0010
1000
,
0001
0000
1000
0100
1000
0100
1000
0100
,
1000
0100
1000
0000
0100
0000
0001
0100
,
0010
0001
0000
0010
0000
0100
0000
0010
,
0001
0100
0010
1000
0010
1000
0010
0100
,
0001
0100
0010
0100
0001
1000
0010
0100
,
0001
1100
0011
1100
,
0001
0100
0000
0010
0000
1000
0000
0100
,
0000
1100
0110
0011
,
0010
0001
0000
0101
0000
1010
0000
0001
,
0100
1000
0000
0100
0020
0000
0000
0000
,
0000
0000
0030
0200
,
0000
0020
0000
0000
,
0000
0330
1001
0000
0000
0000
0000
0000
,
0000
0000
0001
1000
0010
0000
1000
0000
,
0100
1000
0010
0100
,
0001
0100
0010
1000
,
0001
0010
0100
0010
,
0001
1000
0100
1000
,
0010
0100
0001
1000
,
0001
0101
1010
1100
,
0010
0011
0000
0001
0010
1000
0010
0001
,
0200
0300
0000
0000
;

//---------------dance-single - ----------------
#NOTEDATA:;
#CHARTNAME:;
#STEPSTYPE:dance-single;
#DESCRIPTION:;
#CHARTSTYLE:;
#DIFFICULTY:Easy;
#METER:7;
#RADARVALUES:0.307994,0.482266,0.139094,0.104321,0.000000,248.000000,232.000000,16.000000,12.000000,0.000000,0.000000,0.000000,0.000000,0.000000,0.307994,0.482266,0.139094,0.104321,0.000000,248.000000,232.000000,16.000000,12.000000,0.000000,0.000000,0.000000,0.000000,0.000000;
#CREDIT:Pandemonium X;
#NOTES:
0000
0000
0000
0000
,
0000
0000
0000
0000
,
0000
0000
0000
0000
,
0000
0000
0000
0000
,
0000
0000
0000
0000
,
0000
0000
0000
0000
,
0000
0000
0000
0000
,
0000
0000
0000
0000
,
0000
0000
0000
0000
,
1000
0000
0001
0000
,
0100
0000
0001
0000
,
0010
0000
0100
0000
,
0010
0000
0001
0000
,
1000
0200
0000
0000
,
0000
0300
1000
0000
,
0002
0000
0000
0000
,
0003
1000
0001
0100
,
0001
0010
0001
1000
,
0100
1000
0010
0100
,
0001
1000
0100
1000
,
0010
0100
0010
1000
,
0010
0100
0001
0010
,
0100
0110
1001
0110
,
0001
0100
0010
0000
0010
0000
0100
0000
,
0100
0001
0100
1000
,
0100
0001
0001
1000
,
1000
0001
0010
0200
,
0000
0310
0001
0010
,
0100
1000
0100
1000
,
0010
0220
0000
0000
,
0000
0000
0000
0000
,
0330
0000
0001
0000
1000
0001
0010
0000
,
0100
0010
0001
0100
,
0010
1000
0001
0010
,
0100
1100
0011
1100
,
0011
1000
0001
0100
,
0001
0010
0001
0100
,
0010
1000
0100
0010
,
0001
0010
0100
1000
,
0001
0000
1000
0000
0000
0001
0000
0000
,
0100
0000
0001
0000
0000
0010
0000
0000
,
0100
0000
0010
0000
0000
0001
0000
0000
,
1000
0000
0100
0000
0000
1000
0000
0000
,
0010
0000
0100
0000
0000
0001
0000
0000
,
1000
0000
0100
0000
0000
0001
0000
0000
,
0100
0000
0010
0000
0000
0001
0000
0000
,
1000
0000
0001
0100
0001
0000
0100
0000
,
0010
1000
0010
0100
,
0000
0010
0000
1000
0000
0001
0000
1000
,
0000
0001
0010
0100
,
0000
0010
0000
0001
0000
0100
0000
0010
,
0000
1000
0000
0001
0200
0000
0000
0000
,
0000
0000
0300
0020
,
0000
2000
0000
0000
,
3030
0101
0000
0000
,
0000
1001
0001
0010
,
0001
1000
0010
0100
,
1000
0100
0001
0010
,
0100
1100
0011
1100
,
0011
0010
0001
0010
,
1000
0010
0100
0010
,
0001
1000
1000
0001
,
0001
0100
0010
1000
,
0001
1000
0100
0010
,
0001
0010
0000
0001
0000
0100
0000
0010
,
0000
0100
0010
1000
,
0001
1000
0000
0100
0000
1000
0000
0010
,
0000
0100
0000
0001
0020
0000
0000
0000
,
0000
0000
0030
0200
,
0000
2000
0000
0000
,
0000
3300
0000
0000
,
0000
0001
1000
0010
,
1000
0001
0010
0100
,
0010
0001
1000
0100
,
0010
0100
1000
0010
,
0100
0001
0010
0001
,
0100
0010
1000
0001
,
0100
0101
1010
0001
,
0010
0100
0000
1000
0100
0010
0001
1000
,
0002
0003
0000
0000
;

//---------------dance-single - ----------------
#NOTEDATA:;
#CHARTNAME:;
#STEPSTYPE:dance-single;
#DESCRIPTION:;
#CHARTSTYLE:;
#DIFFICULTY:Beginner;
#METER:4;
#RADARVALUES:0.135368,0.274711,0.026080,0.026080,0.000000,109.000000,106.000000,3.000000,3.000000,0.000000,0.000000,0.000000,0.000000,0.000000,0.135368,0.274711,0.026080,0.026080,0.000000,109.000000,106.000000,3.000000,3.000000,0.000000,0.000000,0.000000,0.000000,0.000000;
#CREDIT:Pandemonium X;
#NOTES:
0000
0000
0000
0000
,
0000
0000
0000
0000
,
0000
0000
0000
0000
,
0000
0000
0000
0000
,
0000
0000
0000
0000
,
0000
0000
0000
0000
,
0000
0000
0000
0000
,
0000
0000
0000
0000
,
0000
0000
0000
0000
,
1000
0000
0000
0000
,
0000
0000
0000
0000
,
0001
0000
0000
0000
,
0000
0000
0000
0000
,
0100
0000
0000
0000
,
0000
0000
0010
0000
,
0010
0000
0000
0000
,
0000
1000
0000
1000
,
0000
1000
0000
0000
,
0000
0001
0000
0001
,
0000
0001
0000
0000
,
0000
0100
0000
0100
,
0000
0100
0000
0000
,
0000
0010
0010
0010
,
0000
1000
0000
1000
,
0000
1000
1000
1000
,
0000
0001
0000
0001
,
0000
0001
0001
0001
,
0000
0100
0000
0100
,
0000
0100
0000
0100
,
0000
0020
0000
0000
,
0000
0000
0000
0000
,
0030
1000
0000
0001
,
0000
1000
0000
0010
,
0000
1000
0000
0001
,
0000
0020
0000
0000
,
0030
0100
0000
0000
,
0010
0010
0000
0000
,
0001
0001
0000
1000
,
0000
0010
0000
0100
,
0000
0000
0000
0000
0000
0010
0000
0000
,
0000
0000
0000
0000
,
0000
1000
0000
0000
,
0000
0000
0000
0001
0000
0000
0000
0000
,
0000
1000
0000
0000
,
0010
0000
0000
0000
,
0000
0100
0000
0000
,
0000
0010
0000
0000
,
0000
1000
0000
0000
,
0000
0001
0000
0000
,
0000
0100
0000
0000
,
0000
0010
0000
0100
,
0000
0001
0000
0000
,
0000
0000
0000
1000
,
0000
1000
0000
0000
,
0000
0010
0000
0000
,
0000
0100
0000
0010
,
0000
1000
0000
0000
,
0000
0001
0000
1000
,
0000
0200
0000
0000
,
0300
0010
0000
0001
,
0000
0100
0000
0000
,
0000
0010
0000
1000
,
0000
1001
0000
0000
,
0000
0100
0100
0100
,
0000
0010
0000
0000
,
0000
1000
1000
1000
,
0000
0001
0000
0000
,
0010
0001
0100
0000
,
0000
0000
0000
0010
,
0000
1000
0000
0000
,
0000
1001
0000
0000
,
0000
0010
0000
0100
,
0000
0000
0000
0010
,
0010
0010
0000
1000
,
0000
0000
0000
0001
,
0001
0001
0000
0010
,
0000
0000
0000
0000
,
0000
0100
0100
0010
,
0001
0000
1000
0001
,
0110
0000
0000
0000
;

//---------------dance-single - ----------------
#NOTEDATA:;
#CHARTNAME:;
#STEPSTYPE:dance-single;
#DESCRIPTION:;
#CHARTSTYLE:;
#DIFFICULTY:Challenge;
#METER:16;
#RADARVALUES:0.767502,1.136769,0.234721,0.452056,0.747631,618.000000,591.000000,27.000000,52.000000,12.000000,0.000000,0.000000,0.000000,0.000000,0.767502,1.136769,0.234721,0.452056,0.747631,618.000000,591.000000,27.000000,52.000000,12.000000,0.000000,0.000000,0.000000,0.000000;
#CREDIT:Pandemonium X;
#NOTES:
// measure 0
0000
0000
0000
0000
,  // measure 1
0000
0000
0000
0000
,  // measure 2
0000
0000
0000
0000
,  // measure 3
0000
0000
0000
0000
,  // measure 4
0000
0000
0000
0000
,  // measure 5
0000
0000
0000
0000
,  // measure 6
0000
0000
0000
0000
,  // measure 7
0000
0000
0000
0000
,  // measure 8
0000
0000
0000
0000
,  // measure 9
1001
0000
0001
0011
0000
1000
1010
0000
,  // measure 10
1001
0000
0001
0101
0000
1000
1100
0000
,  // measure 11
1001
0000
0010
1001
0000
0100
1001
0000
,  // measure 12
0110
0000
0100
0101
0000
0001
0010
0100
,  // measure 13
0000
0010
0002
0000
1000
0000
0100
0000
,  // measure 14
1003
0100
0020
0031
,  // measure 15
0200
0010
1000
0310
,  // measure 16
MMMM
0000
0000
0000
0001
0000
0001
0000
1000
0000
0000
0000
0100
0000
1000
0010
,  // measure 17
0100
0000
0001
0000
0000
0000
0010
0100
0001
0000
0000
0000
0001
0100
0010
0000
,  // measure 18
0000
0001
0000
0100
0020
0000
0130
0001
,  // measure 19
1000
0000
0100
0000
0010
0100
0010
0100
1000
0010
0100
0001
1000
0001
1000
0001
,  // measure 20
1000
0100
0010
0001
1000
0000
0001
0000
0020
0000
0000
0000
0130
0000
0010
0001
,  // measure 21
1000
0010
0100
0001
0000
0000
1000
0001
0010
0000
0000
0000
0100
0010
0001
0000
,  // measure 22
1000
0000
0001
0000
1000
0010
0100
0001
0010
0100
0010
0001
1000
0010
1000
0001
,  // measure 23
0010
0100
1000
0001
1000
0000
1000
0000
0001
0000
0001
0000
0010
0000
0010
0000
,  // measure 24
0100
0000
0100
0000
0010
0000
0001
0100
0020
0000
1030
0001
0200
0000
0310
1000
,  // measure 25
0200
0000
0310
0001
1000
0000
1000
0000
0010
0000
0010
0000
0100
0000
0100
0000
,  // measure 26
0010
0010
0100
0001
0010
0100
2000
0000
,  // measure 27
0000
0000
0000
0000
3001
0100
0001
0000
0010
0000
0100
1000
0100
0000
1000
0000
,  // measure 28
0001
1000
0001
0000
1000
0010
1000
0000
0010
0000
0100
0001
0100
0000
0001
0000
,  // measure 29
0010
0000
0000
0100
0000
0000
0010
0000
0000
0000
0000
0000
0100
0000
0000
0000
0010
0000
0000
0000
0001
0000
0000
0000
0100
0000
0000
0000
1000
0000
0000
0000
0100
0000
0000
0000
0010
0000
0000
0000
1000
0000
0000
0000
0001
0000
0000
0000
,  // measure 30
0010
1000
0010
0100
0010
0001
0100
0010
1000
0001
0010
0100
,  // measure 31
1000
0000
2001
0000
3100
0010
0001
0100
,  // measure 32
0010
1000
0001
0010
0100
0010
0001
1000
,  // measure 33
0010
0100
0001
0010
0100
0010
0001
1000
,  // measure 34
0010
0100
1001
M001
1001
100M
1001
M001
,  // measure 35
1001
0000
100M
0000
0001
0100
0001
0000
0010
0000
0100
1000
0100
0000
1000
0000
,  // measure 36
0001
1000
0001
0000
0010
0001
0010
0000
0100
0000
1000
0100
1000
0000
0001
0000
,  // measure 37
0100
0000
0000
0010
0000
0000
0100
0000
0000
0000
0000
0000
0010
0000
0000
0000
1000
0000
0000
0000
0001
0000
0000
0000
0010
0000
0000
0000
1000
0000
0000
0000
0010
0000
0000
0000
0100
0000
0000
0000
0010
0000
0000
0000
0001
0000
0000
0000
,  // measure 38
0100
1000
0100
0010
1000
0010
0100
0001
0010
0100
1000
0001
,  // measure 39
1000
0000
1001
0000
0001
0020
0000
0130
,  // measure 40
2000
0000
3020
0000
0130
0001
0000
0010
,  // measure 41
0100
1000
0001
1000
0000
0001
0010
0100
,  // measure 42
0010
0000
0001
0000
0000
0000
1000
0100
0010
0001
1000
0010
1000
0000
0010
0000
,  // measure 43
0001
0000
0010
0000
0200
0000
0000
0000
0301
0000
0010
0000
0000
0000
0100
0010
,  // measure 44
0001
0010
0100
0000
0000
0010
0001
0100
0010
0000
1000
0100
1000
0001
0010
0001
,  // measure 45
1000
0100
0010
0001
0010
0100
0010
0001
0100
0010
1000
0010
0100
0001
0010
0100
,  // measure 46
1000
0100
0010
0100
1000
0010
0100
0001
0010
0100
0010
0001
1000
0010
0100
0001
,  // measure 47
0010
0100
0010
0001
2000
0000
0000
0000
3020
0000
0000
0000
0032
0000
0000
0000
,  // measure 48
0103
0020
0000
2030
0000
3200
0000
0020
,  // measure 49
0000
0330
0200
0000
2300
0000
3020
0000
,  // measure 50
0130
2000
0000
3200
0000
0302
0000
0013
,  // measure 51
0100
2000
0000
0001
0002
0000
0000
0000
,  // measure 52
0000
0000
3003
0200
,  // measure 53
0000
0020
0000
0000
,  // measure 54
0330
0000
0000
0000
1001
0000
0010
0100
0010
0000
1001
0000
1000
0100
0010
0001
,  // measure 55
1000
0100
0010
0001
1000
0000
0001
0100
0001
0000
0001
1000
0001
0000
0001
0010
,  // measure 56
0001
1000
0100
0000
0000
0000
0010
0100
0000
0000
1001
0000
0000
0000
0001
0010
,  // measure 57
0100
0010
0001
1000
0100
0000
1000
0010
0100
0000
0010
1000
0001
0000
0010
0100
,  // measure 58
1000
0010
1001
M001
1001
100M
1001
M001
,  // measure 59
1001
0000
100M
0000
1001
0000
1000
0100
1000
0000
1000
0100
1000
0000
0100
0010
,  // measure 60
0001
0100
0010
0000
0000
0000
0100
0001
0000
0000
1000
0000
0000
0000
0100
0010
,  // measure 61
0100
1000
0001
0100
0001
0010
0100
1000
0100
0010
0100
1000
0001
0010
0100
1000
,  // measure 62
0100
0010
0100
1000
0001
0100
0001
0100
0010
1000
0010
1000
0001
0010
0100
1000
,  // measure 63
0001
0010
0100
1000
0002
0000
0000
0000
0203
0000
0000
0000
2300
0000
0000
0000
,  // measure 64
3100
0020
0000
1000
0000
0100
0000
2030
,  // measure 65
0000
3002
0023
0230
,  // measure 66
0320
0001
0000
0100
0000
0001
0000
0130
,  // measure 67
0010
0002
0000
2003
0020
0000
0000
0000
,  // measure 68
0000
0000
3030
0102
,  // measure 69
0000
0000
0000
0000
0013
0100
0010
0100
0010
0100
0010
0100
0010
0100
0010
0100
,  // measure 70
0010
0100
0010
0100
0010
0000
0100
0010
0001
0000
1000
0000
0001
0100
0001
0000
,  // measure 71
0100
0001
0100
0000
0001
0000
1000
0000
0120
0000
0000
0000
1030
0000
0010
1000
,  // measure 72
0001
0010
0100
0000
0000
0000
0010
0001
0100
0000
0000
0000
0010
1000
0100
0000
,  // measure 73
0000
0000
0100
0000
0000
0000
1000
0000
0020
0000
0000
0000
0130
0001
0010
0100
,  // measure 74
0010
0001
1000
0010
1000
0001
0010
0100
0010
0001
1000
0010
0100
0001
0010
0100
,  // measure 75
1000
0100
0010
0100
1000
0000
0001
0000
0100
0000
0000
0000
0001
0000
0010
0000
,  // measure 76
0100
0000
1000
0000
0000
0000
0100
1000
0010
0000
0000
0000
0100
0001
1000
0000
,  // measure 77
0000
0000
0001
0000
1000
0010
0100
0001
0010
0100
0010
0001
0100
0010
1000
0001
,  // measure 78
0010
0100
1000
0000
0000
0000
0002
0000
0203
0000
2300
0000
3020
0000
0032
0000
,  // measure 79
2000
3003
0000
0000
;
