#TITLE:Indigo Vision;
#SUBTITLE:(full flavour hide around mix);
#ARTIST:TaQ;
#TITLETRANSLIT:;
#SUBTITLETRANSLIT:;
#ARTISTTRANSLIT:;
#GENRE:GOA TRANCE;
#CREDIT:;
#BANNER:banner.png;
#BACKGROUND:background.png;
#LYRICSPATH:;
#CDTITLE:cdtitle.png;
#MUSIC:Indigo Vision (full flavour hide around mix).ogg;
#OFFSET:0.160000;
#SAMPLESTART:69.517418;
#SAMPLELENGTH:12.387100;
#SELECTABLE:YES;
#BPMS:0.000000=155.000000
;
#STOPS:
;
#BGCHANGES:;
#KEYSOUNDS:;
#ATTACKS:;

//---------------dance-single - ----------------
#NOTES:
     dance-single:
     :
     Hard:
     11:
     0.476857,0.544109,0.176230,0.103665,0.025916,322.000000,305.000000,17.000000,10.000000,0.000000,0.000000,0.476857,0.544109,0.176230,0.103665,0.025916,322.000000,305.000000,17.000000,10.000000,0.000000,0.000000:
// measure 0
0000
0000
0000
0000
,  // measure 1
0000
0000
0000
0000
,  // measure 2
0000
0000
0000
0000
,  // measure 3
0000
0000
0000
0000
,  // measure 4
0000
0000
0000
0000
,  // measure 5
1000
0001
1000
0000
0001
0100
0001
0000
,  // measure 6
0100
0010
0100
0000
0010
1000
0100
0000
,  // measure 7
0010
0001
0010
0000
0001
0100
0001
0000
,  // measure 8
0100
0010
0100
0000
0010
1000
0001
0000
,  // measure 9
1000
0001
1000
0000
0001
0010
0001
0000
,  // measure 10
1000
0100
1000
0000
0100
0010
0001
0000
,  // measure 11
0010
0100
0010
0000
0100
1000
0100
0000
,  // measure 12
1000
0010
1000
0000
0010
0100
0001
0000
,  // measure 13
1000
0001
1000
0001
1000
0001
1000
0001
,  // measure 14
1000
0001
1000
0001
1000
0010
1000
0001
,  // measure 15
0100
0001
0100
0001
0100
0001
0100
0001
,  // measure 16
0100
0001
0100
0001
0100
0010
1000
0100
,  // measure 17
0010
0100
0010
0100
0010
0100
0010
0100
,  // measure 18
0010
0100
0010
0100
0010
0001
0010
0100
,  // measure 19
1000
0001
1000
0001
1000
0001
1000
0001
,  // measure 20
0000
0000
1000
0000
0000
0100
0000
0000
0010
0000
0000
0001
0000
0000
0100
0000
,  // measure 21
0020
0000
0000
0000
,  // measure 22
0000
0000
2030
0000
,  // measure 23
3002
0000
0000
0000
,  // measure 24
0000
0000
0000
0003
,  // measure 25
0200
0000
0000
0000
,  // measure 26
0000
0000
0302
0000
,  // measure 27
0023
0000
0000
0000
,  // measure 28
0000
0000
0000
0030
,  // measure 29
0200
1300
0010
0100
,  // measure 30
0002
1003
0200
1300
,  // measure 31
0210
0310
1000
0001
,  // measure 32
1001
0110
1001
0110
,  // measure 33
1001
1000
0010
0000
0100
0100
0001
0000
,  // measure 34
0010
0100
1000
0000
0100
0100
1000
0000
,  // measure 35
0010
0100
0001
0000
1000
1000
0100
0000
,  // measure 36
0010
0100
1000
0000
0100
0100
0010
0100
,  // measure 37
1000
0100
0010
0000
0001
0001
1000
0000
,  // measure 38
0010
1000
0100
0000
0010
0010
0100
0000
,  // measure 39
0010
0001
1000
0000
0001
0001
1000
0000
,  // measure 40
0001
0100
0001
0100
0010
1000
0010
1000
,  // measure 41
0001
0000
1010
0000
1000
0001
0010
0000
,  // measure 42
0100
0000
0011
0000
0001
1000
0100
0000
,  // measure 43
1000
0000
0101
0000
0001
1000
0100
0000
,  // measure 44
0010
0000
0110
0000
0100
1000
0001
0000
,  // measure 45
0100
0010
0100
0010
0100
0010
0100
0010
,  // measure 46
0100
0010
0100
0010
0100
0001
0100
0010
,  // measure 47
1000
0001
1000
0001
1000
0001
1000
0001
,  // measure 48
1000
0001
1000
0001
1000
0100
0010
0001
,  // measure 49
0100
0010
0100
0010
0100
0010
0100
0010
,  // measure 50
0100
0010
0100
0010
0100
0001
0100
0010
,  // measure 51
1000
0001
1000
0001
1000
0001
1000
0001
,  // measure 52
0000
0000
1000
0000
0000
0010
0000
0000
0100
0000
0000
0001
0000
0000
0010
0000
,  // measure 53
0100
0000
0000
0000
,  // measure 54
0010
0000
0011
0000
0001
0010
0001
0000
,  // measure 55
1000
0000
1100
0000
0100
1000
0100
0000
,  // measure 56
1000
0000
1001
0000
0001
1000
0001
0000
,  // measure 57
0100
0000
0110
0000
0010
0100
0010
0000
,  // measure 58
1000
0000
1001
0000
0001
0010
0001
0000
,  // measure 59
1000
0000
1001
0000
1000
0010
1000
0000
,  // measure 60
0010
0000
0101
0000
0001
0010
0001
0000
,  // measure 61
1000
0000
0001
0000
0100
0000
0010
0000
0000
0010
0000
0000
0010
0000
0000
0000
;

//---------------dance-single - ----------------
#NOTES:
     dance-single:
     :
     Medium:
     8:
     0.352459,0.512103,0.176230,0.155497,0.025916,238.000000,221.000000,17.000000,15.000000,0.000000,0.000000,0.352459,0.512103,0.176230,0.155497,0.025916,238.000000,221.000000,17.000000,15.000000,0.000000,0.000000:
0000
0000
0000
0000
,
0000
0000
0000
0000
,
0000
0000
0000
0000
,
0000
0000
0000
0000
,
0000
0000
0000
0000
,
1000
0010
1000
0000
0001
0100
0001
0000
,
1000
0001
0010
0100
,
0010
0001
0010
0000
1000
0100
1000
0000
,
0100
1000
0010
0100
,
0001
1000
0001
0000
0010
0100
0010
0000
,
0100
0010
0001
1000
,
0001
0100
0001
0000
0100
0010
0100
0000
,
0020
0000
0000
0030
,
1000
1000
1000
1000
,
1000
1000
1000
1001
,
0001
0001
0001
0001
,
0001
0001
0001
1001
,
0010
0010
0010
0010
,
0010
0010
0010
0110
,
0100
0100
0100
0100
,
0100
0000
0010
0000
0000
1000
0000
0000
0001
0000
0000
0010
0000
0000
0100
0000
,
2000
0000
0000
0000
,
0000
0000
0001
0000
,
3002
0000
0000
0000
,
0000
0000
0000
0003
,
0120
0000
0000
0000
,
0000
0000
0100
0000
,
0230
0000
0000
0000
,
0000
0000
0000
0300
,
1010
1000
0010
0100
,
0010
1000
0001
0010
,
0011
1000
1100
0001
,
0011
1010
0101
1001
,
0102
0100
0100
0100
,
2003
3001
0002
1003
,
2000
0010
0010
0010
,
3020
0130
0200
0301
,
2000
0100
0100
0100
,
3002
0103
0020
0130
,
2000
0100
0100
0100
,
3100
0000
1000
0000
0010
0100
0010
0100
,
0010
0000
1000
0000
1000
0100
0001
0000
,
0100
0000
1000
0000
0010
0100
0001
0000
,
1000
0000
0100
0000
0010
0100
1000
0000
,
0010
0000
0001
0000
0100
0010
1000
0000
,
0001
0001
0001
0001
,
0001
0001
0001
1001
,
1000
1000
1000
1000
,
1000
1000
1000
0110
,
0100
0100
0100
0100
,
0100
0100
0100
0110
,
0010
0010
0010
0010
,
0010
0000
0100
0000
0000
0010
0000
0000
1000
0000
0000
0001
0000
0000
0010
0000
,
0100
0000
0000
0000
,
1000
0001
0100
0000
0001
0000
0010
0000
,
1100
0000
0000
0000
0100
0100
0100
0000
,
1000
0010
0100
0000
0001
0000
1000
0000
,
0101
0000
0000
0000
0001
0001
0001
0000
,
1000
0001
0100
0000
0010
0000
1000
0000
,
0100
0010
0001
0000
0010
0010
0010
0000
,
0100
0010
0001
0100
,
0010
0000
1000
0000
0001
0000
0100
0000
0000
0100
0000
0000
0100
0000
0000
0000
;

//---------------dance-single - ----------------
#NOTES:
     dance-single:
     :
     Easy:
     5:
     0.198444,0.448090,0.114031,0.124397,0.000000,134.000000,123.000000,11.000000,12.000000,0.000000,0.000000,0.198444,0.448090,0.114031,0.124397,0.000000,134.000000,123.000000,11.000000,12.000000,0.000000,0.000000:
0000
0000
0000
0000
,
0000
0000
0000
0000
,
0000
0000
0000
0000
,
0000
0000
0000
0000
,
0000
0000
0000
0000
,
1000
0000
1000
0000
,
0001
0000
0001
0000
,
0100
0000
0100
0000
,
0010
0000
0010
0000
,
1000
0000
0010
0000
,
0100
0000
0001
0000
,
0010
0000
0100
0000
,
2000
0000
0000
3000
,
0001
1000
0001
1000
,
0001
1000
0001
0010
,
0001
0100
0001
0100
,
0001
0100
0001
0010
,
0100
1000
0100
1000
,
0100
1000
0100
0010
,
0001
1000
0001
1000
,
0020
0000
0000
0000
,
0230
0000
0000
0000
,
0000
0000
0001
0000
,
0002
0000
0000
0000
,
0000
0000
0000
0303
,
2010
0000
0000
0000
,
0000
0000
0001
0000
,
0002
0000
0000
0000
,
0000
0000
0000
3003
,
0120
0000
0000
0000
,
0100
0000
0100
0000
,
0230
0000
0010
0000
,
0020
0000
0000
0330
,
1001
0000
0001
0000
,
0010
0000
0001
0000
,
0100
0000
0010
0000
,
1000
0000
0010
0000
,
0110
0000
0100
0000
,
0010
0000
1000
0000
,
1001
0000
0110
0000
,
1001
0110
1001
0110
,
1001
0000
1000
0000
,
0001
0000
0010
0000
,
0200
0000
0000
0000
,
0000
0000
0000
0000
,
1300
1000
1000
1000
,
1000
1000
1000
0010
,
1000
1000
1000
1000
,
1000
1000
1000
0100
,
1000
1000
1000
1000
,
1000
1000
1000
0001
,
1000
1000
1000
1000
,
2000
0000
0000
0000
,
3000
0000
0000
0000
,
0001
0000
0100
0000
,
0010
0000
1000
0000
,
0100
0000
1000
0000
,
0001
0000
0100
0000
,
0010
0000
1000
0000
,
0100
0000
1000
0000
,
0001
0000
0100
0000
,
0020
0000
0000
0030
;

//---------------dance-single - ----------------
#NOTES:
     dance-single:
     :
     Beginner:
     3:
     0.111069,0.160032,0.020733,0.020733,0.000000,75.000000,73.000000,2.000000,2.000000,0.000000,0.000000,0.111069,0.160032,0.020733,0.020733,0.000000,75.000000,73.000000,2.000000,2.000000,0.000000,0.000000:
0000
0000
0000
0000
,
0000
0000
0000
0000
,
0000
0000
0000
0000
,
0000
0000
0000
0000
,
0000
0000
0000
0000
,
0010
0000
0000
0000
,
1000
0000
0000
0000
,
0001
0000
0000
0000
,
0100
0000
0000
0000
,
0010
0000
0000
0000
,
1000
0000
0000
0000
,
0100
0000
0000
0000
,
0010
0000
0000
0000
,
0100
0000
0100
0000
,
0100
0000
0100
0000
,
0100
0000
0100
0000
,
0100
0000
0100
0000
,
0010
0000
0010
0000
,
0010
0000
0010
0000
,
0010
0000
0010
0000
,
0010
0000
1000
0000
,
0001
0000
0000
0000
,
0000
0000
0000
0000
,
0000
0000
0000
0000
,
0000
0000
0000
0000
,
1001
0000
0000
0000
,
0000
0000
0000
0000
,
0000
0000
0000
0000
,
0000
0000
0000
0000
,
0110
0000
0000
0000
,
0010
0000
1000
0000
,
0001
0000
0001
0000
,
1000
0000
0001
0000
,
0100
0000
0000
0000
,
0010
0000
1000
0000
,
0100
0000
0000
0000
,
0010
0000
0100
0000
,
1000
0000
0000
0000
,
0001
0000
1000
0000
,
0010
0000
0000
0000
,
1000
0000
0001
0000
,
0010
0000
0000
0000
,
0010
0000
0000
0000
,
0200
0000
0000
0000
,
0000
0000
0000
0300
,
1000
0000
1000
0000
,
1000
0000
1000
0000
,
1000
0000
1000
0000
,
1000
0000
1000
0000
,
0001
0000
0001
0000
,
0001
0000
0001
0000
,
0001
0000
0001
0000
,
0001
0000
1000
0000
,
0010
0000
0000
0000
,
0100
0000
0000
0000
,
0010
0000
0000
0000
,
1000
0000
0000
0000
,
0001
0000
0000
0000
,
0010
0000
0000
0000
,
0001
0000
0000
0000
,
0100
0000
0000
0000
,
0020
0000
0000
0030
;

//---------------dance-single - ----------------
#NOTES:
     dance-single:
     :
     Challenge:
     14:
     0.654568,0.800161,0.269528,0.051832,0.482040,442.000000,416.000000,26.000000,5.000000,0.000000,0.000000,0.654568,0.800161,0.269528,0.051832,0.482040,442.000000,416.000000,26.000000,5.000000,0.000000,0.000000:
// measure 0
0000
0000
0000
0000
,  // measure 1
0000
0000
0000
0000
,  // measure 2
0000
0000
0000
0000
,  // measure 3
0000
0000
0000
0000
,  // measure 4
0000
0000
0000
0000
,  // measure 5
1000
0001
0010
0000
0100
1000
0010
0000
,  // measure 6
0100
0010
1000
0000
1001
0001
0010
0000
,  // measure 7
0100
1000
0010
0000
0101
0001
0010
0000
,  // measure 8
0100
0010
0001
1001
1000
0100
0010
0000
,  // measure 9
0100
1000
0010
0000
0101
0001
0010
0000
,  // measure 10
0100
0010
0001
0000
1100
0001
1000
0000
,  // measure 11
0010
1000
0001
0000
0011
0010
0100
0000
,  // measure 12
0010
0001
1000
1100
0100
0010
0001
0000
,  // measure 13
1000
0010
1000
0000
0001
0100
0001
0000
1000
0010
1000
0000
0001
0100
0001
0000
,  // measure 14
1000
0010
1000
0000
0001
0100
0001
0000
1000
0010
0100
0000
0010
1000
0100
0000
,  // measure 15
0001
0010
0001
0000
1000
0100
1000
0000
0001
0010
0001
0000
1000
0100
1000
0000
,  // measure 16
0001
0010
0001
0000
1000
0100
1000
0000
0001
0010
0100
0000
0010
0001
1000
0000
,  // measure 17
0010
0100
0001
0000
0010
0100
1000
0000
0100
1000
0010
0000
0100
0001
0010
0000
,  // measure 18
0001
1000
0100
0000
0010
0100
1000
0000
0100
0010
0001
0000
1000
0010
0000
0000
,  // measure 19
0100
0001
0010
0000
0100
1000
0001
0000
0100
0010
1000
0000
0001
0010
0100
0000
,  // measure 20
0010
0001
0010
0000
0010
0001
0000
0100
0010
0000
1000
0001
0000
0010
0100
0000
,  // measure 21
2000
0000
0100
0000
,  // measure 22
0010
0000
0002
0003
,  // measure 23
0100
0000
0010
0000
,  // measure 24
0100
0000
0001
0000
,  // measure 25
3001
0000
0000
0010
0001
0000
0000
0001
0100
0000
0000
0100
0010
0000
0000
0010
,  // measure 26
1000
0000
0000
1000
0001
0000
0000
0001
0010
0000
0000
0010
0100
0000
0000
0100
,  // measure 27
1000
0100
0000
0100
0010
0000
0000
0010
0001
0000
0000
0001
0100
0000
0000
0010
,  // measure 28
1000
0000
0000
1000
0001
0000
0000
0001
0010
0000
0000
0010
0100
0000
1000
0000
,  // measure 29
1200
0000
0000
0000
,  // measure 30
1000
0000
0000
0000
0000
0000
0000
0000
0010
0000
0000
0000
0000
0000
0300
0010
,  // measure 31
0001
0000
0000
0000
0000
0000
0000
0000
0000
0000
0000
0000
0000
1000
0001
0000
,  // measure 32
1001
0110
1001
0110
,  // measure 33
0001
1000
0010
1000
0100
0100
0010
0000
,  // measure 34
0100
0010
0100
1000
0010
0010
0100
0000
,  // measure 35
0001
1000
0010
1000
0001
0001
0010
0000
,  // measure 36
0100
0010
0001
0010
1000
0010
0100
1000
,  // measure 37
0100
1000
0010
0100
0001
0001
1000
0000
,  // measure 38
0001
0010
0100
0010
0001
0001
0010
0000
,  // measure 39
1100
1000
0010
0100
0101
0001
0100
0000
,  // measure 40
0101
0100
1010
1000
1001
0001
0011
0010
,  // measure 41
0110
0010
0001
0000
1000
0000
0000
0000
0001
0100
0001
0000
1000
0000
0000
0000
,  // measure 42
0100
0010
0001
0000
1000
0000
0000
0000
0010
0100
0001
0000
1000
0000
0000
0000
,  // measure 43
0220
0000
0000
0000
,  // measure 44
0000
0000
0000
0030
,  // measure 45
1300
0100
0001
0000
0001
0100
1000
0000
1000
0100
0001
0000
0001
0100
1000
0000
,  // measure 46
1000
0100
0001
0000
0001
0100
1000
0000
1000
0100
0010
0000
0010
0001
0100
0000
,  // measure 47
0001
0100
1000
0000
1000
0100
0001
0000
0001
0100
1000
0000
1000
0100
0001
0000
,  // measure 48
0001
0100
1000
0000
1000
0100
0001
0000
0001
0100
0010
0000
0100
0001
0000
0000
,  // measure 49
0001
1000
0010
0000
0100
0001
0010
0000
0001
1000
0100
0000
1000
0010
0100
0000
,  // measure 50
0001
0010
0100
0000
0010
0001
0100
0000
0010
1000
0100
0000
0010
0100
1000
0000
,  // measure 51
0100
1000
0010
0000
0100
0001
0010
0000
0100
0010
0001
0000
0010
0100
1000
0000
,  // measure 52
0100
1000
0010
0000
0100
0010
0000
1000
0001
0000
0100
0010
0000
1000
0001
0000
,  // measure 53
0010
0000
0000
0000
,  // measure 54
1000
0000
0010
0001
0101
0000
0001
0100
,  // measure 55
0100
0010
0000
0000
0000
0000
0000
0000
0101
0000
0001
0000
0010
0000
0100
0000
,  // measure 56
1000
0100
0110
0000
1100
0000
0100
1000
,  // measure 57
1001
0000
0000
0000
0010
1000
0100
0010
,  // measure 58
0001
0000
0010
0100
1100
0000
0100
1000
,  // measure 59
1000
0001
0000
0000
0000
0000
0000
0000
0100
0000
0001
0000
0010
0000
0000
0000
,  // measure 60
0100
0010
0001
0100
0010
1000
0100
0010
,  // measure 61
0001
1000
0100
0010
0001
0000
0001
0000
0000
0001
0000
0000
0001
0000
0000
0000
;
