#VERSION:0.83;
#TITLE:HELL FLAME;
#SUBTITLE:;
#ARTIST:DJ Myosuke;
#TITLETRANSLIT:;
#SUBTITLETRANSLIT:;
#ARTISTTRANSLIT:;
#GENRE:TERRORCORE;
#ORIGIN:;
#CREDIT:;
#BANNER:HELL FLAME-banner.png;
#BACKGROUND:HELL FLAME-background.png;
#PREVIEWVID:;
#JACKET:HELL FLAME-jacket.png;
#CDIMAGE:;
#DISCIMAGE:;
#LYRICSPATH:;
#CDTITLE:cdtitle.png;
#MUSIC:HELL FLAME.ogg;
#OFFSET:-1.520000;
#SAMPLESTART:87.880013;
#SAMPLELENGTH:14.399994;
#SELECTABLE:YES;
#BPMS:0.000=200.000,
186.000=100.000,
218.000=200.000,
311.000=100.000;
#STOPS:28.000=0.900,
121.000=0.900,
246.000=0.900;
#DELAYS:;
#WARPS:;
#TIMESIGNATURES:0.000=4=4;
#TICKCOUNTS:0.000=4;
#COMBOS:0.000=1;
#SPEEDS:0.000=1.000=0.000=0;
#SCROLLS:0.000=1.000;
#FAKES:;
#LABELS:0.000=Song Start;
#BGCHANGES:;
#KEYSOUNDS:;
#ATTACKS:
;

//---------------dance-single - ----------------
#NOTEDATA:;
#CHARTNAME:;
#STEPSTYPE:dance-single;
#DESCRIPTION:;
#CHARTSTYLE:;
#DIFFICULTY:Hard;
#METER:15;
#RADARVALUES:0.655065,0.853052,0.458545,0.308332,0.422968,580.000000,522.000000,58.000000,39.000000,0.000000,0.000000,0.000000,0.000000,0.000000,0.655065,0.853052,0.458545,0.308332,0.422968,580.000000,522.000000,58.000000,39.000000,0.000000,0.000000,0.000000,0.000000,0.000000;
#CREDIT:Pandemonium X;
#NOTES:
0000
0000
0000
0000
,
0000
0000
0000
0000
,
0000
0000
0000
0000
,
0000
0000
0000
0000
,
0001
0000
0001
0000
0001
1000
0010
0000
,
0000
0000
0010
1000
0001
0010
0100
0000
,
0010
0001
0010
0001
0010
0001
0010
0001
0010
0001
0010
0001
0010
0001
0010
0001
,
1000
0000
0001
1000
0001
0010
0100
0000
,
0010
0000
0001
0000
0100
0000
0010
1000
,
1100
0100
1000
0010
,
0100
0000
0001
0010
0100
0000
0100
0010
,
1001
0000
0110
0000
0100
0100
0100
0000
,
0001
0000
0000
0000
0010
0000
0000
0000
0100
0000
0000
0000
0010
0001
0010
0001
,
0010
0000
0100
2000
3010
0200
0301
0020
,
0130
0020
0031
0000
0001
0100
1000
0000
,
1100
0000
0210
0000
0301
0001
1000
1000
,
0010
0010
0100
0100
0010
0010
1000
1000
,
0100
0000
0021
0000
0130
0100
0010
0010
,
0001
0001
1000
1000
0010
0010
0100
0002
,
0010
0003
1200
0000
0310
0010
0100
0100
,
1000
1000
0001
0001
1000
1000
0010
0010
,
0100
0000
0102
0000
0013
0010
0001
0001
,
1000
0001
2002
0000
0000
0000
0000
0000
,
3003
0000
0010
0000
1000
0010
0000
0100
,
0001
0000
0010
0100
0000
0010
0001
0000
,
1000
0001
0100
0001
0010
0000
0100
0010
,
0000
0100
1000
0000
0100
0010
0000
0100
,
1000
0001
0000
1000
0010
0100
0000
0001
,
0010
0000
0001
1000
0000
0010
0100
0000
,
0010
1000
0000
0010
0100
0000
0001
0010
,
0000
0100
1001
0000
0010
0100
0001
0010
,
0100
0010
0001
1000
0001
0100
0001
0010
,
0100
1000
1100
0000
0100
1000
0010
0100
,
0001
0010
0001
1000
0010
1000
0010
0100
,
0001
0010
1000
0010
0001
0010
0001
0100
,
0010
0100
0010
1000
0010
0100
0001
1000
,
0010
0000
1001
0000
0001
1000
0001
1000
,
0010
1000
0010
0100
0002
0000
0023
0000
,
0230
1300
0001
0001
,
1000
0001
0101
0000
0000
0000
0001
0100
,
0001
0010
0110
0000
1001
0000
1000
0001
,
0010
0100
1100
0000
1001
0000
0001
0100
,
0110
0000
1001
1001
,
0001
0000
1000
0000
1010
0000
0000
0000
1000
0000
0000
0010
1000
0000
0001
0000
,
0010
0100
2000
3000
0001
0100
0010
1000
,
0100
0000
0010
0000
0001
1000
0001
1000
0002
0000
0000
0000
0203
0000
0320
0000
,
0200
0000
0000
0330
2002
0000
0000
0000
,
0000
0000
3003
0110
0110
0000
0000
0000
,
0001
0001
0100
0010
0010
1000
2002
0000
0000
0000
0000
0000
,
3003
0000
0000
0110
0110
0000
0000
0000
,
1000
0000
0000
0000
0000
0000
0000
0000
0000
0000
0000
0000
0000
0000
0000
0000
1000
0000
0000
0000
0000
0000
0000
0000
0000
0000
0000
0000
0000
0000
0000
0000
1000
0000
0000
0000
0000
0000
0000
0000
0000
0000
0000
0000
0000
0000
0000
0000
0001
0000
0000
0000
0000
0000
0000
0000
0000
0000
0000
0000
0000
0000
0000
0000
0001
0000
0000
0000
0000
0000
0000
0000
0000
0000
0000
0000
0000
0000
0000
0000
0001
0000
0000
0000
0000
0000
0000
0000
0000
0000
0000
0000
0000
0000
0000
0000
1001
0000
0000
0000
0000
0000
0000
0000
0000
0000
0000
0000
0000
0000
0000
0000
0000
0000
0000
0000
0000
0000
0000
0000
0001
0000
0000
0000
0000
0000
0000
0000
0000
0000
0000
0000
0000
0000
0000
0000
0000
0000
0000
0000
0000
0000
0000
0000
1000
0000
0000
0000
0000
0000
0000
0000
0000
0000
0000
0000
0000
0000
0000
0000
0000
0000
0010
0000
0000
0000
0000
0000
0000
0000
0000
0000
0000
0000
0000
0000
0000
0000
0000
0000
0100
0000
0000
0000
0000
0000
0000
0000
0000
0000
0000
0000
,
0001
0000
0010
0000
0000
0000
0100
0000
0010
0000
0000
0001
0000
0000
1000
0000
0001
0000
0100
0000
0000
0000
0100
0000
0001
0000
0000
0010
0000
0000
0001
0000
,
1000
0000
0001
0000
0000
0000
1000
0000
0100
0000
0000
0010
0000
0001
0100
0000
0020
0000
0000
0000
1030
0000
0000
0000
0001
0000
0000
1000
0000
0000
0100
0000
,
0010
0000
0100
0000
0000
0000
0010
0000
0100
0000
0000
1000
0000
0000
0010
0000
0100
0000
0001
0000
0000
0000
1000
0000
0100
0000
0000
1000
0000
0000
0010
0000
,
0200
0302
0023
0130
1001
0000
0110
0000
,
0001
1000
0110
0000
0000
0000
0010
0010
,
1000
0001
0110
0000
1001
0000
0010
0100
,
0110
0000
1001
0000
0010
0000
0100
0010
,
1001
0000
1002
0013
,
0001
0000
1000
0010
0000
0100
0001
0000
1000
0010
0000
0100
0001
0000
1000
0010
,
0000
0100
0001
0000
1000
0010
0000
0100
0001
0000
1000
0100
0000
0100
0010
0000
,
0010
0001
0000
0010
0100
0000
0100
1000
0010
0000
0000
0000
1001
0000
0000
0000
,
0110
0000
0000
0000
1010
0000
0000
0010
0000
1000
0010
0000
0100
0000
0001
0000
,
0000
0000
0010
0000
0100
0000
0000
0010
0000
0001
1000
0000
0001
0000
1000
0000
,
0000
0000
1000
0000
0010
0000
0000
0100
0000
0100
0001
0000
0010
0000
0100
0000
,
0000
0000
0010
0000
0001
0000
1000
0001
0000
0100
0010
0000
1000
0000
0000
0000
,
0010
0000
0000
0000
0100
0000
0000
0001
0000
0010
0001
0000
1000
0000
0001
0000
,
0000
0000
1000
0000
0010
0000
0000
0100
0000
0001
0100
0000
0010
0000
1000
0000
,
0000
0000
0100
0000
0010
0000
0000
0100
0000
1000
0100
0000
1100
0000
0001
0000
,
0000
0000
1001
0000
0000
0010
0000
0000
0011
0000
0001
0000
1001
0000
0000
0000
,
1100
0000
0000
0000
0110
0000
0000
0010
0000
0001
1000
0000
0001
0000
0100
0000
,
0000
0000
0100
0000
0001
0000
0000
0010
0000
0010
0001
0000
1000
0000
0010
0000
,
0000
0000
0100
0000
0001
0000
0000
1000
0000
1000
0100
0000
1000
0000
0001
0000
,
0000
1000
0002
0203
2000
3300
0101
0000
,
0011
0000
0000
0000
0110
0000
0000
0010
0000
0010
0001
0000
1000
0000
0100
0000
,
0000
0000
0010
0000
0100
0000
0000
1000
0000
0100
0010
0000
1001
0000
0000
0101
,
0000
0000
0011
0000
0000
0110
0000
0000
1000
0100
1000
0000
0200
0000
0310
2000
,
0000
3010
0200
0000
0301
0020
0000
0130
0010
0000
0001
0000
1001
0000
1000
0000
,
0100
0000
0000
1000
0000
0000
0010
0000
0100
0000
0001
0000
0000
0000
0010
0000
0001
0000
0000
0100
0000
0000
0001
0000
1000
0000
0100
0000
0000
0000
0010
0000
,
0100
0000
0000
1000
0000
0000
0010
0000
0100
0000
0001
0000
0000
0000
1000
0000
0100
0000
0000
1000
0000
0000
0010
0000
0110
0000
0000
0000
0100
0000
0000
0000
,
0010
0000
0000
1000
0000
0000
0001
0000
0010
0000
0000
0000
0000
0000
0000
0000
0000
0000
0000
0000
0110
0000
0000
0000
0110
0000
0000
0000
0000
0000
0000
0000
,
0000
0000
0000
0000
2000
0000
0000
0000
0002
0000
0000
3003
0220
0000
0000
0000
,
0000
0000
0000
0000
,
0330
0000
0000
0000
;

//---------------dance-single - ----------------
#NOTEDATA:;
#CHARTNAME:;
#STEPSTYPE:dance-single;
#DESCRIPTION:;
#CHARTSTYLE:;
#DIFFICULTY:Medium;
#METER:12;
#RADARVALUES:0.501463,0.787433,0.158119,0.205555,0.185790,444.000000,424.000000,20.000000,26.000000,0.000000,0.000000,0.000000,0.000000,0.000000,0.501463,0.787433,0.158119,0.205555,0.185790,444.000000,424.000000,20.000000,26.000000,0.000000,0.000000,0.000000,0.000000,0.000000;
#CREDIT:Pandemonium X;
#NOTES:
0000
0000
0000
0000
,
0000
0000
0000
0000
,
0000
0000
0000
0000
,
0000
0000
0000
0000
,
1000
0000
0010
0000
0100
0001
0010
0000
,
0000
0000
0100
0010
0001
1000
0010
0000
,
0100
0010
1000
0001
0100
0010
1000
0001
,
0010
0000
0100
0010
0001
1000
0010
0000
,
1000
0000
0001
0000
0010
0000
0100
0010
,
0001
0100
0001
1000
,
0010
0000
0100
0001
0010
0000
0200
0000
,
2300
0000
3001
0000
0100
0001
0010
0000
,
0100
0000
0010
0000
0001
0000
1000
0001
,
0100
0000
0010
1000
0010
1000
0001
0100
,
0001
0100
0010
0000
0010
1000
0100
0000
,
0000
0000
1001
0000
0001
0100
0001
0100
,
0010
0100
0010
1000
0010
1000
0001
1000
,
0100
0000
1001
0000
1000
0100
1000
0100
,
0010
0100
0010
0001
0010
0001
0200
0000
,
0300
0000
1001
0000
0100
0010
0100
0001
,
0100
0001
0010
0001
0010
0100
1000
0100
,
1000
0000
1001
0000
0001
0010
0001
1000
,
0100
1000
0020
0000
0000
0000
0000
0000
,
0030
0000
0100
0000
0001
0000
0000
1000
,
0000
0000
0100
0000
0000
1000
0000
0000
,
0010
0000
1000
0010
0000
0000
0100
0000
,
0000
0001
0000
0000
0010
0000
0000
0100
,
0010
0001
0000
0000
1000
0000
0000
0001
,
0000
0000
0010
0000
0000
0100
0000
0000
,
0010
0100
0000
0000
0010
0000
0000
0001
,
0000
0000
1001
0000
0001
0100
0010
0000
,
1000
0100
0010
0100
,
1000
0010
0100
0000
0001
0000
0010
0000
,
0001
0000
1000
0000
0010
0100
0010
0100
,
0001
1000
0200
0000
0310
0000
0100
0000
,
0010
0000
0001
0100
0010
0000
1000
0001
,
0100
1001
1000
0001
,
0010
0001
0021
0230
,
2300
3020
0130
0100
,
0010
1000
0001
0000
0000
0000
1000
0100
,
1000
0001
0100
0000
0010
0000
0100
0001
,
0010
0100
0010
0001
1000
0000
0001
0100
,
0010
0000
1000
1000
,
0001
1000
0010
0000
0000
0000
0100
0010
,
1000
0001
0010
0000
0100
0000
0010
0001
,
0100
0010
1000
0001
2000
0000
3200
0302
,
0200
0003
0320
0000
,
0000
0000
0000
0001
0031
0000
0000
0000
,
1000
0010
0100
0001
0010
0100
2000
0000
0000
0000
0000
0000
,
0000
0000
0000
0010
3010
0000
0000
0000
,
0100
0000
0010
0000
1000
0000
0001
0000
0010
0000
0100
0000
0010
0000
0000
0001
0000
0000
0100
0000
0000
0001
0000
0000
,
1000
0100
0001
0100
1000
0010
0100
0010
,
1000
0010
0001
0010
0100
0010
1000
0001
,
0010
1000
0010
0001
0100
0010
1000
0100
,
0002
0203
0320
0032
1003
0000
0001
0000
,
0100
0001
0010
0000
0100
0000
0010
0100
,
0010
0001
1000
0000
0001
0000
1000
0100
,
0001
0100
0010
0000
0010
0000
0001
0010
,
0100
0000
1002
0103
,
0010
0000
0000
1000
0000
0000
0100
0000
0000
0001
0000
0000
0100
0000
0000
0010
,
0000
0000
0001
0000
0000
0100
0000
0000
0010
0000
0000
1000
0000
0000
0001
0000
,
0000
0010
0000
0000
0100
0000
0010
0000
0001
0000
0000
0000
1001
0000
0000
0000
,
0101
0000
0000
0000
0001
0000
0000
0100
0000
0000
0001
0000
1000
0000
0100
0000
,
0000
0000
0010
0000
0100
0000
0000
0010
0000
0000
0001
0000
1000
0000
0100
0000
,
0000
0000
0010
0000
0100
0000
0000
1000
0000
0000
0001
0000
0100
0000
0010
0000
,
0000
0000
0100
0000
0001
0000
0000
1000
0000
0000
0001
0000
0010
0000
0000
0000
,
0110
0000
0000
0000
0100
0000
0000
0010
0000
0000
0100
0000
1000
0000
0010
0000
,
0000
0000
0100
0000
0001
0000
0000
1000
0000
0000
0100
0000
0010
0000
0001
0000
,
0000
0000
0010
0000
0001
0000
0000
0100
0000
0000
0010
0000
1000
0000
0100
0000
,
0000
0000
1100
0000
0000
0011
0000
0000
0001
0000
0100
0000
0010
0000
0000
0000
,
1001
0000
0000
0000
0001
0000
0000
0010
0000
0000
0100
0000
0010
0000
0001
0000
,
0000
0000
0100
0000
0010
0000
0000
1000
0000
0000
0010
0000
1000
0000
0001
0000
,
0000
0000
0010
0000
0100
0000
0000
0010
0000
0000
0001
0000
1000
0000
0100
0000
,
0000
0010
0100
1000
0020
0000
0130
0000
,
0101
0000
0000
0000
0001
0000
0000
1000
0000
0000
0001
0000
0010
0000
0100
0000
,
0000
0000
0010
0000
0001
0000
0000
0100
0000
0000
0010
0000
1010
0000
0000
1000
,
0000
0000
1001
0000
0000
0001
0000
0000
1000
0100
1000
0000
0001
0000
0000
0011
,
0000
0000
1000
0000
0000
1100
0000
0000
1000
0001
1000
0000
0001
0000
0100
0000
,
0010
0000
0000
1000
0000
0000
0100
0000
0010
0000
0100
0000
0000
0000
0010
0000
0001
0000
0000
0100
0000
0000
0001
0000
1000
0000
0100
0000
0000
0000
0010
0000
,
0100
0000
0000
0010
0000
0000
0001
0000
1000
0000
0010
0000
0000
0000
0100
0000
0001
0000
0000
1000
0000
0000
0100
0000
0020
0000
0000
0000
0000
0000
0000
0000
,
0000
0000
0000
0000
0000
0100
0130
0000
,
0000
0000
0002
0000
2000
3003
0220
0000
,
0000
0000
0000
0000
,
0330
0000
0000
0000
;

//---------------dance-single - ----------------
#NOTEDATA:;
#CHARTNAME:;
#STEPSTYPE:dance-single;
#DESCRIPTION:;
#CHARTSTYLE:;
#DIFFICULTY:Easy;
#METER:7;
#RADARVALUES:0.371580,0.484734,0.221367,0.094871,0.000000,329.000000,301.000000,28.000000,12.000000,0.000000,0.000000,0.000000,0.000000,0.000000,0.371580,0.484734,0.221367,0.094871,0.000000,329.000000,301.000000,28.000000,12.000000,0.000000,0.000000,0.000000,0.000000,0.000000;
#CREDIT:Pandemonium X;
#NOTES:
0000
0000
0000
0000
,
0000
0000
0000
0000
,
0000
0000
0000
0000
,
0000
0000
0000
0000
,
1000
1000
0100
0110
,
0000
0100
1000
0010
,
0100
0001
0010
0100
,
1001
0001
0010
0001
,
1000
0000
0100
0000
0010
0000
0100
1000
,
0001
1000
0001
0100
,
0001
0010
0100
0011
,
1100
0100
1000
0010
,
0100
0000
0001
0000
0010
0000
0100
0010
,
0001
1000
0001
0100
,
0001
0000
1000
0000
0001
0100
0010
0000
,
0000
1001
0010
1000
,
0001
0010
0100
0010
,
0001
1001
1000
0001
,
0100
0010
1000
0000
,
0000
1001
0010
1000
,
0010
0100
0001
0010
,
0100
1001
1000
0100
,
0010
0200
0000
0000
,
0300
0000
1000
0000
0000
0001
0000
0000
,
1000
0000
0000
0010
0000
0000
1000
0000
,
0010
0100
0000
0000
0010
0000
0000
1000
,
0000
0000
0001
0000
0000
0001
0010
0000
,
0100
0000
1000
0000
0000
0010
0000
0000
,
1000
0000
0000
0001
0000
0000
0010
0000
,
0001
0000
0100
0010
0000
0000
1000
0000
,
0000
0001
1001
0000
1000
0001
1000
0000
,
0100
1000
0010
0100
,
0001
1000
0100
0000
0010
0000
0100
0000
,
1000
0000
0001
0000
0100
0010
0100
0010
,
2000
0000
3100
0010
,
0100
0000
1000
0000
0010
0000
0100
0001
,
0010
1001
0001
0100
,
0010
1000
0200
2300
,
0002
3003
0010
0010
,
0100
0001
0000
0100
,
0010
1000
0100
0010
,
0100
0000
1000
0000
0001
0000
1000
0010
,
1000
0000
0001
0001
,
0010
0100
0000
0010
,
0001
0100
1000
0100
,
0010
0000
1000
0000
0001
0000
1000
0010
,
0200
0000
0000
0300
2002
0000
0000
0000
,
3000
0000
0003
1000
1000
0000
0000
0000
,
0110
0000
1001
0000
0220
0000
0000
0030
,
0000
0000
0300
0001
0001
0000
0000
0000
,
1001
0000
0110
0000
1001
1000
0001
0000
,
0100
0001
0010
0000
0100
0010
0001
0000
,
1000
0010
0100
0000
1001
0001
1000
0000
,
0010
1000
0100
0000
0010
0001
0100
0000
,
0010
1000
0001
0100
0001
0000
1000
0000
,
0100
0100
0000
1000
,
0010
0100
0001
0010
,
1000
0000
0010
0000
0001
0000
1000
0001
,
0100
0000
0001
1000
,
0010
1000
0010
0100
,
0001
0010
0100
0010
,
0001
1000
0110
1000
,
0010
1000
0001
0010
,
0100
0010
0001
0100
,
0010
1000
0100
0010
,
0001
0000
0100
0010
0001
0000
0010
0000
,
0001
0100
0010
1000
,
0001
1000
0100
1000
,
0010
0100
0010
1001
,
0000
0000
0000
1001
,
0001
1000
0010
1000
,
0100
0010
0100
1000
,
0010
0100
0001
0010
,
0100
0000
0010
0001
1000
0000
0010
0000
,
0100
0010
1000
0010
,
0100
0001
1000
1001
,
0000
0101
0000
0000
1010
0000
1001
0000
,
0000
1100
0000
0000
0011
0000
1000
0000
,
0001
0100
0001
0010
,
0100
1000
0100
1001
,
0001
0000
1000
0000
0000
0010
0010
0000
,
0000
0200
0020
0330
;

//---------------dance-single - ----------------
#NOTEDATA:;
#CHARTNAME:;
#STEPSTYPE:dance-single;
#DESCRIPTION:;
#CHARTSTYLE:;
#DIFFICULTY:Beginner;
#METER:3;
#RADARVALUES:0.133272,0.323156,0.118589,0.023718,0.000000,118.000000,103.000000,15.000000,3.000000,0.000000,0.000000,0.000000,0.000000,0.000000,0.133272,0.323156,0.118589,0.023718,0.000000,118.000000,103.000000,15.000000,3.000000,0.000000,0.000000,0.000000,0.000000,0.000000;
#CREDIT:Pandemonium X;
#NOTES:
0000
0000
0000
0000
,
0000
0000
0000
0000
,
0000
0000
0000
0000
,
0000
0000
0000
0000
,
0000
0000
0000
0000
,
0000
0000
0000
0000
,
0000
0000
0000
0000
,
0000
1000
0000
0000
,
0000
0001
0000
0000
,
0100
0010
0000
0000
,
0000
1000
0000
0001
,
1000
0001
0000
0000
,
0000
0100
0000
0000
,
0000
0010
0000
0000
,
0000
1000
0000
0000
,
0000
1001
0000
0000
,
0000
0000
0001
0000
,
0000
1001
0000
0000
,
0000
0000
1000
0000
,
0000
0110
0000
0000
,
0000
0000
0010
0000
,
0000
0110
0000
0000
,
0000
0100
0000
0000
,
0000
0001
0000
0000
,
0000
1000
0000
0000
,
0000
0010
0000
0000
,
0000
1000
0000
0000
,
0000
0100
0000
0000
,
0000
1000
0000
0000
,
0000
0001
0000
0000
,
0000
0000
0010
0000
,
0000
0000
1000
0000
,
0000
0000
0100
0000
,
0000
0000
1000
0000
,
0001
0000
1000
0000
,
0000
0000
0010
0000
,
0000
0000
1000
0000
,
0000
0000
0001
0000
,
1000
0000
0010
0000
,
0000
0000
0000
0100
,
0000
0000
0001
0000
,
0000
0000
1000
1000
,
1000
0000
0001
0000
,
0000
0000
0000
1000
,
0000
0000
0010
0000
,
0100
0000
0001
0001
,
0001
0000
1001
0000
,
0000
0000
0000
0000
,
0000
0000
0110
0000
,
0000
0000
0000
0000
,
0000
0000
2000
0000
,
3000
0000
0001
0000
,
0100
0000
0020
0000
,
0030
0000
0100
0000
,
0001
1000
0010
0000
,
1000
0000
0000
0001
,
1000
0000
0001
0000
,
0100
0000
0010
0010
,
0010
0000
0200
0000
,
0000
0000
0000
0000
,
0000
0000
0000
0000
,
0000
0000
0300
0010
,
0000
1000
0000
0001
,
0000
0010
0000
0001
,
0000
1000
0000
0010
,
0000
0100
0100
0010
,
0000
1000
0000
0001
,
0000
1000
0000
0100
,
0000
1000
0000
1001
,
0000
0000
0000
0010
,
0000
0000
0000
1000
,
0000
0001
0000
0100
,
0000
0000
0000
0001
,
0000
0010
0000
0110
,
0000
0000
0000
0010
,
0000
0000
0000
1001
,
0000
0110
0000
1001
,
0000
0110
0000
1001
,
0000
0000
0000
1000
,
0000
0000
0000
0110
,
0000
0000
0000
0001
,
0000
0100
0010
1001
;

//---------------dance-single - ----------------
#NOTEDATA:;
#CHARTNAME:;
#STEPSTYPE:dance-single;
#DESCRIPTION:;
#CHARTSTYLE:;
#DIFFICULTY:Challenge;
#METER:17;
#RADARVALUES:0.768007,1.098729,0.521793,0.403203,0.620617,680.000000,614.000000,66.000000,51.000000,0.000000,0.000000,0.000000,0.000000,0.000000,0.768007,1.098729,0.521793,0.403203,0.620617,680.000000,614.000000,66.000000,51.000000,0.000000,0.000000,0.000000,0.000000,0.000000;
#CREDIT:;
#NOTES:
// measure 0
0000
0000
0000
0000
,  // measure 1
0000
0000
0000
0000
,  // measure 2
0000
0000
0000
0000
,  // measure 3
0000
0000
0000
0000
,  // measure 4
0001
0000
0100
0000
0010
0000
1000
0000
0100
0000
0010
0000
0100
0000
1000
0010
,  // measure 5
0100
0010
1000
0100
0010
0100
1000
0001
,  // measure 6
0100
0010
0100
0010
0100
0010
0100
0010
0100
0010
0100
0010
0100
0010
0100
0010
,  // measure 7
0100
0000
0001
1000
0100
2000
0000
3010
,  // measure 8
2000
0000
0000
0000
3001
0000
0020
0000
0000
0000
0130
0000
0010
0001
0100
0000
,  // measure 9
1001
0000
2000
0000
3001
0020
0000
0130
,  // measure 10
0020
0000
0000
0000
0031
0000
2000
0000
0000
0000
3010
0000
1000
0010
0100
0000
,  // measure 11
0001
0010
0200
0000
0310
0010
0001
0100
,  // measure 12
0020
0000
0000
0000
1030
0000
0002
0000
0000
0000
0013
0000
0100
0010
0100
0000
,  // measure 13
1001
0000
0001
0020
0130
2000
3010
0200
,  // measure 14
0310
2000
3001
0000
0001
0100
1000
0000
,  // measure 15
1000
0000
0000
0000
1200
0000
0000
0000
0310
0100
0001
0000
0000
1000
0001
0000
,  // measure 16
0100
0000
0001
0000
0000
0000
0010
0000
0100
1000
0001
0000
1000
0000
0001
0000
,  // measure 17
0100
0000
0000
0000
0110
0000
0000
0100
0001
0000
0010
0000
0000
0100
0010
0000
,  // measure 18
0001
0000
1000
0000
0000
0000
0001
0000
0100
0010
1000
0000
0002
0000
0020
0000
,  // measure 19
0033
0000
0000
0000
0110
0000
0000
0000
0100
0010
0001
0000
0000
0001
1000
0000
,  // measure 20
0100
0000
1000
0000
0000
0000
0100
0000
1000
0010
0100
0000
0001
0000
0010
0000
,  // measure 21
0100
0000
0000
0000
0010
0100
1000
0000
0001
0000
0100
0000
0010
1000
0001
0010
,  // measure 22
0100
0010
0001
1000
0002
0000
0000
0000
0000
0000
0000
0000
0000
0000
0000
0000
,  // measure 23
0013
0000
0100
0010
0001
0001
0000
1000
,  // measure 24
0010
0000
0000
0100
0001
0000
1000
0000
0000
0000
0100
0000
0010
0000
0001
0000
,  // measure 25
0100
0100
0010
1000
0001
0000
1000
0010
,  // measure 26
0000
0000
0000
0100
0001
0000
0010
0000
0100
0000
0000
0000
0000
0000
0010
0000
,  // measure 27
0001
1000
0001
0000
1000
0000
0000
0000
0001
0000
0010
0000
0000
0000
0100
0000
,  // measure 28
0010
0000
0000
0100
1000
0000
0001
0000
0000
0000
1000
0000
0010
0000
0100
0000
,  // measure 29
0001
0010
0100
0000
0010
0000
0001
0000
0100
0000
0000
0000
0010
0000
1000
0000
,  // measure 30
0000
0001
1001
0000
0001
0100
1000
0100
,  // measure 31
0010
1000
0010
0001
0010
1000
0010
0001
,  // measure 32
0100
0010
1001
0000
1000
0100
0001
0100
,  // measure 33
0010
0001
0010
1000
0010
0100
0010
0001
,  // measure 34
2000
3020
0200
0330
0010
0100
0001
0010
,  // measure 35
0001
1000
0100
0001
0100
0010
0001
0010
,  // measure 36
0100
1000
1001
0000
0001
0100
0001
0010
,  // measure 37
1000
0010
0001
0100
0002
0000
0203
0000
,  // measure 38
0320
2030
3100
0010
,  // measure 39
0001
0001
1001
0000
0000
0000
0001
0100
,  // measure 40
1000
0100
0110
0000
0110
0000
0100
0001
,  // measure 41
0010
0010
1000
0010
0011
0000
0100
1000
,  // measure 42
1001
1001
0101
1010
,  // measure 43
1000
0100
0110
0000
0001
0000
0010
0001
,  // measure 44
0100
0100
1001
0000
0001
0100
0010
1000
,  // measure 45
0001
0000
0010
0000
0100
0000
0010
0000
0002
0003
0002
0003
0002
0000
2003
0000
,  // measure 46
0020
0000
0000
0000
3000
0000
0000
0030
2002
0000
0000
0000
0000
0000
0000
0000
,  // measure 47
0000
0000
3003
0110
0110
0000
0000
0000
,  // measure 48
0101
1010
0101
1010
0101
1010
2002
0000
0000
0000
0000
0000
,  // measure 49
0000
0000
3003
0110
0110
0000
0000
0000
,  // measure 50
1100
0000
0000
0000
0000
0000
0000
0000
0000
0000
0000
0000
0000
0000
0000
0000
0011
0000
0000
0000
0000
0000
0000
0000
0000
0000
0000
0000
0000
0000
0000
0000
1100
0000
0000
0000
0000
0000
0000
0000
0000
0000
0000
0000
0000
0000
0000
0000
0011
0000
0000
0000
0000
0000
0000
0000
0000
0000
0000
0000
0000
0000
0000
0000
1100
0000
0000
0000
0000
0000
0000
0000
0000
0000
0000
0000
0000
0000
0000
0000
0011
0000
0000
0000
0000
0000
0000
0000
0000
0000
0000
0000
0000
0000
0000
0000
1001
0000
0000
0000
0000
0000
0000
0000
0000
0000
0000
0000
0000
0000
0000
0000
0000
0000
0000
0000
0000
0000
0000
0000
1000
0000
0000
0000
0000
0000
0000
0000
0000
0000
0000
0000
0000
0000
0000
0000
0000
0000
0000
0000
0000
0000
0000
0000
0010
0000
0000
0000
0000
0000
0000
0000
0000
0000
0000
0000
0000
0000
0000
0000
0000
0000
0100
0000
0000
0000
0000
0000
0000
0000
0000
0000
0000
0000
0010
0000
0000
0000
0000
0000
1000
0000
0000
0000
0000
0000
0000
0000
0000
0000
0000
0000
,  // measure 51
0001
0000
0100
0000
0000
0000
0010
0000
1000
0000
0000
0100
0000
0010
0100
0000
0010
0000
0001
0000
0000
0000
1000
0000
0001
0000
0000
0010
0000
0100
0010
0000
,  // measure 52
0001
0000
0100
0000
0000
0000
0010
0000
1000
0000
0010
1000
0000
1000
0001
0000
0012
0000
0000
0000
0103
0000
0000
0000
0010
0000
0000
1000
0000
0010
0100
0000
,  // measure 53
0001
0000
1000
0000
0000
0000
0100
0000
1000
0000
0000
0010
0000
0100
0001
0000
0010
0000
0100
0000
0000
0000
0010
0000
0001
0000
0000
0100
0010
1000
0010
1000
,  // measure 54
0020
0230
0302
2003
3100
0000
0011
0000
,  // measure 55
0010
0100
1100
0000
0000
0000
0100
0010
,  // measure 56
0001
0010
0110
0000
1001
0000
0001
0100
,  // measure 57
1000
0100
0010
1000
1010
0000
0001
0010
,  // measure 58
0110
1001
0102
0013
,  // measure 59
0100
0000
0010
0001
0000
0010
0100
0000
1000
0010
0000
0100
0001
0000
1000
0100
,  // measure 60
0000
0010
0001
0000
0010
0100
0000
1000
0010
0000
0100
0001
0000
0010
0100
0000
,  // measure 61
0010
0001
0000
0100
0010
0100
0001
1000
0010
0000
0000
0000
1001
0000
0001
0000
,  // measure 62
1001
0000
1000
0000
0100
0000
0010
0001
0000
0010
0100
0000
1000
0000
0010
0000
,  // measure 63
0100
0000
0001
0000
0010
0000
0100
0010
0000
0100
1000
0000
0010
0000
0100
0000
,  // measure 64
0001
0000
1000
0000
0100
0000
1000
0010
0000
0100
0001
0000
0010
0000
0100
0000
,  // measure 65
0010
0001
1000
0020
0200
0330
1001
0000
,  // measure 66
1010
0000
1000
0000
0010
0000
1000
0001
0000
0010
0100
0000
0010
0000
0001
0000
,  // measure 67
1000
0000
0010
0000
0100
0000
0010
1000
0000
0001
0010
0000
0100
0000
0010
0000
,  // measure 68
0001
0000
1000
0000
0001
0000
0010
0100
0000
1000
0010
0000
1001
0000
0101
0000
,  // measure 69
0000
0000
0011
0000
0000
1100
0000
0000
1010
0000
1001
0000
0101
0000
0001
0000
,  // measure 70
0010
0000
0100
0000
0010
0000
0001
0010
0000
0100
1000
0000
0010
0000
0100
0000
,  // measure 71
0001
0000
0010
0000
0100
0000
0010
0001
0000
0100
0010
0000
1000
0000
0100
0000
,  // measure 72
0010
0000
0100
0000
1000
0000
0010
1000
0000
0001
0010
0000
0100
0000
0010
0000
,  // measure 73
0001
0000
1000
0000
0010
0000
1000
0010
0000
0100
0001
0000
0012
0000
0000
0000
,  // measure 74
0103
0000
0000
0000
0010
0000
1000
0010
0000
0100
0001
0000
0010
0000
0100
0000
,  // measure 75
0010
0000
0001
0000
1000
0000
0100
0010
0000
0010
0001
0000
1001
0000
0000
0101
,  // measure 76
0000
0000
1010
0000
0000
1001
0000
0000
0001
1000
1001
0000
0002
0100
0003
0200
,  // measure 77
1000
0300
2000
0100
3000
0200
0010
0300
0100
0020
1000
0030
1001
0000
1000
0000
,  // measure 78
0100
0000
1000
0010
0000
0100
0001
0000
0010
0000
0100
0000
0000
0000
0010
0000
0100
0000
1000
0010
0000
0100
0001
0000
0010
0000
0100
0000
0000
0000
0010
0000
,  // measure 79
0001
0000
0100
0001
0000
0010
0100
0000
1000
0000
0001
0000
0000
0000
1000
0000
0010
0000
1000
0010
0000
0100
0001
0000
1002
0000
0000
0000
0013
0000
0000
0000
,  // measure 80
0100
0000
0010
0001
0000
0010
0100
0000
0010
0000
0001
0000
0000
0000
1000
0000
0010
0000
0100
0010
0000
1000
0001
0000
1000
0000
0100
0000
0000
0000
0010
0000
,  // measure 81
0100
0000
1000
0010
0000
0100
0001
0000
0002
0000
0000
0000
0000
0000
0000
0000
2000
0000
0000
0000
3003
0000
0000
0000
0110
0000
0000
0000
0000
0000
0000
0000
;
