#VERSION:0.83;
#TITLE:Fizzy Lifting Drink;
#SUBTITLE:(feat. Big Gigantic & Jimi Tents);
#ARTIST:Kill Paris;
#TITLETRANSLIT:;
#SUBTITLETRANSLIT:;
#ARTISTTRANSLIT:;
#GENRE:GLITCH HOP;
#ORIGIN:;
#CREDIT:;
#BANNER:banner.png;
#BACKGROUND:background.png;
#PREVIEWVID:;
#JACKET:jacket.png;
#CDIMAGE:;
#DISCIMAGE:;
#LYRICSPATH:;
#CDTITLE:cdtitle.png;
#MUSIC:Fizzy Lifting Drink (feat. Big Gigantic & Jimi Tents).ogg;
#OFFSET:-0.201000;
#SAMPLESTART:38.580002;
#SAMPLELENGTH:25.599995;
#SELECTABLE:YES;
#BPMS:0.000=75.000;
#STOPS:;
#DELAYS:;
#WARPS:;
#TIMESIGNATURES:0.000=4=4;
#TICKCOUNTS:0.000=4;
#COMBOS:0.000=1;
#SPEEDS:0.000=1.000=0.000=0;
#SCROLLS:0.000=1.000;
#FAKES:;
#LABELS:0.000=Song Start;
#BGCHANGES:0.000=Kill Paris - Fizzy Lifting Drink (feat. Big Gigantic & Jimi Tents).mp4=1.000=1=0=1===CrossFade==,
99999=-nosongbg-=1.000=0=0=0 // don't automatically add -songbackground-
;
#KEYSOUNDS:;
#ATTACKS:
;

//---------------dance-single - ----------------
#NOTEDATA:;
#CHARTNAME:;
#STEPSTYPE:dance-single;
#DESCRIPTION:;
#CHARTSTYLE:;
#DIFFICULTY:Hard;
#METER:11;
#RADARVALUES:0.410304,0.478688,0.159563,0.362642,0.500446,396.000000,374.000000,22.000000,50.000000,0.000000,0.000000,0.000000,0.000000,0.000000,0.410304,0.478688,0.159563,0.362642,0.500446,396.000000,374.000000,22.000000,50.000000,0.000000,0.000000,0.000000,0.000000,0.000000;
#CREDIT:Pandemonium X;
#NOTES:
0000
0000
0000
0000
,
0000
0000
0000
0000
,
0000
0000
0000
0000
,
0000
0000
0000
0000
,
0101
0000
0000
0000
1000
0100
1000
0010
0100
0000
0000
0000
0010
0100
0001
1000
,
0100
0000
0000
0000
0010
0100
1000
0001
0100
0000
0000
0010
0000
0000
1000
0000
,
0001
0000
0000
0000
0010
0001
0100
0010
1000
0000
0000
0000
0100
1000
0001
0010
,
0100
0000
0000
0000
0010
0100
1000
0001
0100
0000
0000
0010
0000
0000
1000
0000
,
0001
0010
0100
1000
1001
0000
1000
0000
0010
0000
0100
0000
0101
0000
0001
0010
,
0001
1000
0010
0100
0011
0000
0001
0000
0010
0000
0100
0000
0110
0000
0100
0010
,
0001
1000
0010
0100
0001
0100
0001
0010
0100
1000
0100
1000
1001
0000
0001
1000
,
0010
0100
0001
0010
0110
0000
0100
0010
0001
1000
0010
0100
0010
0000
0000
0000
,
1002
0000
0000
0000
0020
0000
0033
0000
0100
0010
0010
0010
0000
0010
0010
0010
,
0100
0000
0010
0001
1000
0010
0100
0001
1000
0000
0001
0000
0120
0000
0000
0000
,
1030
0000
0001
1000
0200
0000
0000
0000
0310
0100
0100
0100
0000
0100
0100
0100
,
0010
0000
0001
0010
0100
1000
0010
0100
0001
1000
0001
1000
0001
0010
0200
0000
,
0310
0002
0000
0003
2020
0000
0000
3000
0130
0001
0001
0001
0000
0001
0001
0001
,
1000
0000
0100
0010
0100
1000
0001
0100
0010
1000
0010
0001
0010
1000
0010
0001
,
0010
0000
0100
0001
0021
0000
0000
0000
0130
1000
1000
1000
0000
1000
1000
1000
,
0100
0000
0100
1000
0010
0100
0001
1000
0001
0010
0100
0010
0001
1000
0020
0000
,
1030
0001
0020
0000
0031
1000
0020
0000
1030
0001
0020
0000
0031
1000
0020
0000
,
1030
0001
0200
0000
0301
1000
0200
0000
1300
0100
0020
0000
0130
1000
0002
0000
,
0103
0000
1000
0100
0001
0010
0100
0000
,
0000
0000
0000
0000
0000
0000
0000
0000
0010
0000
0001
0000
0010
0000
0100
0000
2000
0000
0000
0000
0000
0000
0000
0000
3200
0000
0000
0000
0000
0300
1000
0001
,
2000
0000
3001
0100
0010
0010
1000
0000
,
0001
0000
0000
0000
0000
0000
0000
0000
0001
0000
1000
0000
0100
0000
1000
0000
0020
0000
0000
0000
0000
0000
0000
0000
0230
0000
0000
0000
0000
0000
0310
0100
,
0020
0100
1000
0130
1010
0101
1010
0001
,
1001
0000
0000
0000
1000
0000
0000
0000
0001
0000
1000
0000
0100
0000
0001
0000
0200
0000
0000
0000
0000
0000
0000
0000
0320
0000
0000
0000
0000
0000
0031
0100
,
0002
0100
0010
0103
0101
0100
0110
0010
,
0100
0010
1000
0001
0010
0000
1000
0100
0001
0100
1000
0001
0010
0000
0000
0000
,
1001
0000
0000
0000
0120
0000
0000
0000
1030
0100
0100
0100
0000
0100
0100
0100
,
1000
0000
0001
0000
0100
0002
0010
0003
0001
0100
0001
0100
0020
0000
0000
0000
,
1030
0000
0000
0000
0012
0000
0000
0000
0103
0010
0010
0010
0000
0010
0010
0010
,
0100
0000
0010
0000
1000
0200
0000
0000
0310
0100
1000
0001
1000
0001
0020
0000
,
0230
0000
1300
0000
0022
0000
0000
0000
0033
0001
0001
0001
0000
0001
0001
0001
,
1000
1000
0010
0010
0200
0000
0302
0000
0013
0000
0100
0010
0002
0000
0000
0000
,
1003
0000
0001
0000
2020
0000
3000
0000
0130
0010
0010
0010
0000
0010
0010
0010
,
0100
0010
1000
0001
0010
0100
0010
0001
1000
0200
0301
0100
1000
0001
0020
0000
,
0031
1000
0020
0000
1030
0001
0020
0000
0031
1000
0020
0000
1030
0001
0020
0000
,
0031
1000
0200
0000
1300
0001
0020
0000
0031
1000
0200
0000
0000
0000
0000
0000
,
0300
0000
0000
0000
;

//---------------dance-single - ----------------
#NOTEDATA:;
#CHARTNAME:;
#STEPSTYPE:dance-single;
#DESCRIPTION:;
#CHARTSTYLE:;
#DIFFICULTY:Medium;
#METER:8;
#RADARVALUES:0.296330,0.377148,0.145057,0.174068,0.213959,286.000000,266.000000,20.000000,24.000000,0.000000,0.000000,0.000000,0.000000,0.000000,0.296330,0.377148,0.145057,0.174068,0.213959,286.000000,266.000000,20.000000,24.000000,0.000000,0.000000,0.000000,0.000000,0.000000;
#CREDIT:Pandemonium X;
#NOTES:
0000
0000
0000
0000
,
0000
0000
0000
0000
,
0000
0000
0000
0000
,
0000
0000
0000
0000
,
0001
0000
1000
0100
1000
0000
0001
0100
,
0001
0000
1000
0100
1000
0000
0001
0000
,
0110
0000
0010
0100
0010
0000
1000
0001
,
1000
0000
0001
0010
0001
0000
1000
0000
,
0001
0000
1001
0000
1000
0010
0110
0000
,
1000
0000
1001
0000
0001
0010
0110
0000
,
0001
0000
0101
0000
0100
0001
0110
0000
,
1000
1010
1000
1001
,
0102
0000
0000
0000
0023
0000
0000
0000
0030
0001
0010
0001
0000
0010
0001
0010
,
0001
0100
0010
0000
0100
0100
0020
0000
,
1030
0000
0000
0000
0021
0000
0000
0000
0000
0130
1000
0100
0000
0100
1000
0100
,
1000
0000
0001
0000
0100
0000
0000
0000
0010
0000
0100
0000
0001
1000
0200
0000
,
0310
0100
0000
0000
1002
0000
0000
0000
0000
0103
0001
0100
0000
0100
0001
0100
,
0001
0010
0100
0000
0010
0001
2000
0000
,
3010
0000
0000
0000
2001
0000
0000
0000
0000
3001
0100
0001
0000
0001
0100
0001
,
1000
0000
1000
0000
0002
0000
0013
0000
0100
0000
0010
0000
0001
1000
0001
0000
,
1000
0001
1000
0000
0001
1000
0001
0000
1000
0001
1000
0000
0001
1000
0001
0000
,
0010
0100
0010
0000
0100
1000
0100
0000
1000
0010
1000
0000
0010
0100
0010
0000
,
1001
0000
0001
0010
1000
0010
0001
0000
,
0000
0000
0100
0001
0020
0000
0032
0000
,
0203
0000
0301
0100
0010
0010
1000
0000
,
0000
0000
0100
1000
0020
0000
2030
0000
,
3100
0000
1000
0001
0100
0010
0100
0000
,
1001
0000
0001
1000
0020
0000
2030
0000
,
3100
0000
0010
0100
1000
0001
0100
0001
,
0010
0000
0100
0000
1000
0000
0100
0000
0010
0001
0100
0010
1000
0000
0000
0000
,
1001
0000
0000
0000
0021
0000
0000
0000
0030
0001
0010
0001
0000
0001
0010
0001
,
0100
0000
0100
0000
0001
1000
0100
0000
0010
0000
0010
0000
1002
0000
0000
0000
,
2003
0000
0000
0000
3020
0000
0000
0000
0030
0100
0010
0100
0000
0100
0010
0100
,
0010
0000
1000
0000
0001
0010
0100
0000
0010
0000
0001
0000
1000
0001
1000
0000
,
0010
0000
1000
0000
1200
0000
0000
0000
0000
0310
0100
0010
0000
0100
0010
0100
,
0010
0001
0010
0100
1000
0000
1000
0000
0001
0000
0100
0000
0020
0000
0000
0000
,
1030
0000
0100
0000
0021
0000
0000
0000
0030
0100
1000
0100
0000
0100
1000
0100
,
1000
0000
0001
0000
0100
0000
0100
0000
0001
0010
0100
0000
0010
0100
0010
0000
,
0100
0010
0100
0000
0010
0100
0010
0000
0100
0010
0100
0000
0010
0100
0010
0000
,
0100
1000
0100
0000
1000
0010
1000
0000
0010
0100
0020
0000
0000
0000
0000
0000
,
0030
0000
0000
0000
;

//---------------dance-single - ----------------
#NOTEDATA:;
#CHARTNAME:;
#STEPSTYPE:dance-single;
#DESCRIPTION:;
#CHARTSTYLE:;
#DIFFICULTY:Easy;
#METER:4;
#RADARVALUES:0.151274,0.188574,0.050770,0.079781,0.000000,146.000000,139.000000,7.000000,11.000000,0.000000,0.000000,0.000000,0.000000,0.000000,0.151274,0.188574,0.050770,0.079781,0.000000,146.000000,139.000000,7.000000,11.000000,0.000000,0.000000,0.000000,0.000000,0.000000;
#CREDIT:Pandemonium X;
#NOTES:
0000
0000
0000
0000
,
0000
0000
0000
0000
,
0000
0000
0000
0000
,
0000
0000
0000
0000
,
1000
0000
0001
0000
,
0100
0000
0010
0000
,
1001
0000
0001
0000
,
0010
0000
0100
0000
,
0010
0001
0100
0010
,
1000
0100
1000
0001
,
0100
0010
1000
0100
,
1000
0001
0100
0010
,
1001
0000
0020
0000
0000
1030
0000
1000
,
0001
0000
1000
0000
0100
0010
0200
0000
,
1300
0000
0002
0000
0000
0103
0000
0100
,
0010
0000
1000
0000
0001
0000
1000
0001
,
0020
0000
0000
0000
0000
0130
0000
0010
,
0001
0000
1000
0000
0010
1000
0010
1000
,
0010
0000
0200
0000
0000
0301
0000
0001
,
0010
0000
0001
0000
0100
0010
1000
0000
,
1000
1000
1000
1000
,
1000
0100
0010
0001
,
1001
0000
0000
0000
,
0000
0010
0100
0001
,
1001
0000
0000
0000
,
0000
0010
1000
0100
,
1001
0000
1000
0000
0100
0100
0100
0000
,
1001
0000
0001
0000
0010
0010
0010
0000
,
0001
1000
0010
0100
,
0001
0100
0100
0010
,
1001
0000
0020
0000
0000
1030
0000
1000
,
0001
0000
0010
0000
0100
0010
0002
0000
,
1003
0000
0200
0000
0000
0310
0000
0010
,
0100
0000
1000
0000
0010
0000
0100
0001
,
0020
0000
0032
0000
0000
1003
0000
1000
,
0001
0001
1000
0000
0010
0000
1000
0000
,
0100
0000
2000
0000
0000
3001
0000
0001
,
0100
0100
0100
0000
0010
0000
1000
0000
,
1000
1000
1000
1000
,
0100
0010
0001
1000
,
0100
0000
0000
0000
;

//---------------dance-single - ----------------
#NOTEDATA:;
#CHARTNAME:;
#STEPSTYPE:dance-single;
#DESCRIPTION:;
#CHARTSTYLE:;
#DIFFICULTY:Beginner;
#METER:2;
#RADARVALUES:0.091179,0.144150,0.072528,0.000000,0.000000,88.000000,78.000000,10.000000,0.000000,0.000000,0.000000,0.000000,0.000000,0.000000,0.091179,0.144150,0.072528,0.000000,0.000000,88.000000,78.000000,10.000000,0.000000,0.000000,0.000000,0.000000,0.000000,0.000000;
#CREDIT:Pandemonium X;
#NOTES:
0000
0000
0000
0000
,
0000
0000
0000
0000
,
0000
0000
0000
0000
,
0000
0000
0000
0000
,
1000
0000
0001
0000
,
0100
0000
0010
0000
,
1001
0000
1000
0000
,
0001
0000
0100
0000
,
0010
0000
0100
0000
,
0001
0000
1000
0000
,
0001
0000
1000
0000
,
0010
0000
0100
0000
,
1001
0010
0000
0000
,
1000
0000
0001
0000
,
0110
0001
0000
0000
,
1000
0000
0010
0100
,
0001
1001
0000
0000
,
0010
0000
1000
0000
,
0001
1001
0000
0000
,
0010
0000
0100
0001
,
0000
1000
0000
0010
,
0000
0100
0000
0001
,
1000
0000
0000
0000
,
0001
0000
0000
0000
,
0010
0000
0000
0000
,
0100
0000
0000
0000
,
1000
0000
0001
0000
,
0100
0000
0010
0000
,
1000
0000
0001
0000
,
0100
0000
0010
0000
,
1001
0110
0010
0000
,
1000
0001
1000
0000
,
0110
0010
0100
0000
,
0001
0000
1000
0000
,
0001
1001
1000
0000
,
0010
0010
0100
0000
,
0110
0010
1000
0000
,
0001
1000
0100
0010
,
0000
0001
0000
0100
,
0000
0010
0000
1000
;

//---------------dance-single - ----------------
#NOTEDATA:;
#CHARTNAME:;
#STEPSTYPE:dance-single;
#DESCRIPTION:;
#CHARTSTYLE:;
#DIFFICULTY:Challenge;
#METER:14;
#RADARVALUES:0.533602,0.710778,0.304619,0.522205,0.848582,515.000000,473.000000,42.000000,72.000000,0.000000,0.000000,13.000000,0.000000,0.000000,0.533602,0.710778,0.304619,0.522205,0.848582,515.000000,473.000000,42.000000,72.000000,0.000000,0.000000,13.000000,0.000000,0.000000;
#CREDIT:;
#NOTES:
// measure 0
0000
0000
0000
0000
,  // measure 1
0000
0000
0000
0000
,  // measure 2
0000
0000
0000
0000
,  // measure 3
0000
0000
0000
0000
0000
0000
0000
0000
0000
0000
0000
0000
0000
0000
0000
0000
0000
0000
0000
0000
0000
0000
0000
0000
0000
0000
0000
1000
0100
0000
1000
0000
,  // measure 4
0001
0100
0001
0010
0100
0100
1000
0001
0100
0010
1000
0100
0010
0010
0100
0010
,  // measure 5
0001
1000
0001
1000
0010
0010
0100
0001
0010
1000
0010
0100
0010
0010
0100
0010
,  // measure 6
1001
1000
0001
0010
0001
0001
0010
0100
0010
0001
0100
0010
0100
0100
0010
1000
,  // measure 7
0001
0000
0010
0001
0100
0000
0010
0000
1000
0000
1000
0000
0001
0000
0010
0000
0001
0000
0100
0000
0010
0000
1000
0000
0100
0000
0100
0000
0010
0000
0100
0000
,  // measure 8
1000
0100
0001
0100
0110
0000
0100
0010
0100
1000
0010
0100
0101
0000
0001
0010
,  // measure 9
1000
0010
0100
1000
1100
0000
0100
0010
0001
0010
0001
1000
1010
0000
0100
0010
,  // measure 10
1000
1000
0001
0010
1000
0010
0001
0100
0100
0010
0100
0001
0010
0000
0100
0010
,  // measure 11
0001
0010
0100
0010
1001
0000
0001
0100
1000
0100
0001
0100
0010
0000
0000
0000
,  // measure 12
0404
0000
0000
0303
2020
0000
0000
0000
3030
0100
0010
1001
0000
0100
0010
1001
,  // measure 13
0201
0000
0310
1000
0100
0100
0010
0100
1000
0001
0100
0010
2002
0000
0000
3003
,  // measure 14
4040
3030
1000
0001
0022
0000
0000
0033
0001
1000
0001
1010
0000
0001
0010
1100
,  // measure 15
0200
0000
0000
0000
0310
0000
0100
0000
1000
0000
0100
0000
0001
0000
0100
0000
0010
0000
0001
0000
0010
0000
0100
0000
0010
0000
0001
0000
1000
0001
0100
0001
,  // measure 16
0010
0004
0000
0003
0220
0000
0000
0330
0100
0010
0001
1100
0000
0010
0001
1100
,  // measure 17
1020
0000
0130
0001
0010
0100
0010
0001
1000
2000
0001
3002
1000
2003
0001
3001
,  // measure 18
0110
0000
0000
0000
4000
0000
0004
3003
0220
0000
0000
0000
0000
0000
0000
0000
0330
0000
0100
0000
0010
0000
1001
0000
0000
0000
0010
0000
0100
0000
1001
0000
,  // measure 19
0201
0000
0000
0000
0310
0000
1000
0000
0100
0000
0001
0000
0100
0000
0010
0000
0001
0000
0001
0000
0001
0000
0001
0000
1000
0000
0001
0000
0010
0100
1000
0100
,  // measure 20
0010
0000
0001
0000
0010
0100
1000
0100
0010
0000
0001
0000
0010
0100
1000
0100
0010
0000
0001
0000
0010
0100
1000
0100
0010
0000
0001
0000
1000
0100
0010
0100
,  // measure 21
1000
0000
0100
0000
0010
0100
1000
0100
0010
0000
0100
0000
1000
0100
0010
0100
1000
0000
0001
0000
1000
0010
0100
0010
1000
0000
0001
0000
0010
0100
0010
0001
,  // measure 22
2000
0000
0010
0100
0010
0001
0200
0000
,  // measure 23
3300
0000
0000
0000
0000
0000
0000
0000
0002
0000
0203
0000
2300
0000
3200
0000
0320
0000
0000
0000
0000
0000
0000
0000
2030
0000
0000
0000
0000
0000
3001
0010
,  // measure 24
0200
0000
0000
0000
0310
0000
0001
0100
0010
0000
1000
0000
0002
0000
0000
0000
,  // measure 25
1003
0000
0000
0000
0000
0000
0000
0000
0020
0000
0230
0000
0302
0000
0023
0000
0230
0000
0000
0000
0000
0000
0000
0000
0320
0000
0000
0000
0000
0000
0031
0010
,  // measure 26
0200
0000
0000
0000
0310
0001
0100
0010
0100
0000
0000
0000
0010
1000
0010
0100
,  // measure 27
1001
0000
0000
0000
0000
0000
0000
0000
0200
0000
0320
0000
2030
0000
3002
0000
2003
0000
0000
0000
0000
0000
0000
0000
3200
0000
0000
0000
0000
0000
0310
0100
,  // measure 28
2000
0000
0000
0000
3100
0010
0001
0100
0010
0000
0000
0000
0100
0010
1000
0001
,  // measure 29
0010
1000
0010
0001
0101
0000
0001
0100
1000
0100
0010
1000
0010
0000
0000
0000
,  // measure 30
4004
0000
0000
3003
0220
0000
0000
0000
0330
0010
0100
1001
0000
0100
0010
1001
,  // measure 31
0201
0000
0000
0000
0310
0000
1000
0000
0001
0000
0020
0000
1000
0030
0010
0000
0001
0000
0100
0000
0010
0000
1000
0000
0200
0000
0000
0000
0000
0000
0000
0000
,  // measure 32
0320
0000
0430
4300
3020
0000
0000
0000
0030
0100
0001
0011
0000
0100
0001
0011
,  // measure 33
1200
0000
0000
0000
2300
0000
0000
0000
3001
0000
0200
0000
0000
0000
0000
0000
0310
0000
1000
0000
0010
0000
1000
0000
0001
0000
0010
0000
0100
0010
0001
1000
,  // measure 34
0004
0003
0400
0300
2002
0000
0000
0000
3003
0001
0010
1100
0000
0001
0010
1100
,  // measure 35
0002
0003
0002
0003
0002
0003
0002
0003
2000
0000
0000
0000
3002
0000
0000
0000
0103
0000
0000
0000
0010
0000
1000
0000
0200
0000
0000
0000
0000
0000
0300
0000
,  // measure 36
0021
0000
0230
0300
2002
0000
0000
0000
3003
0010
0010
1001
0000
0010
0010
1001
,  // measure 37
2000
3000
2000
3000
2000
3000
2000
3000
0002
0000
0000
0000
0203
0000
0000
0000
0310
0000
2000
0000
0100
0000
3010
0000
1000
0000
0001
0000
0010
0100
1000
0100
,  // measure 38
0010
0000
0001
0000
0010
0100
1000
0100
0010
0000
0001
0000
0010
0100
1000
0100
0010
0000
0001
0000
0010
0100
1000
0100
0010
0000
0001
0000
0010
0100
1000
0100
,  // measure 39
0010
0000
0100
0000
0010
0100
1000
0100
0010
0000
0100
0000
1000
0100
0010
0100
1000
0000
0001
0000
1000
0010
0100
0010
0200
0000
0000
0000
0000
0000
0000
0000
,  // measure 40
0300
0000
0000
0000
;
