#TITLE:FLOWER;
#SUBTITLE:;
#ARTIST:DJ YOSHITAKA;
#TITLETRANSLIT:;
#SUBTITLETRANSLIT:;
#ARTISTTRANSLIT:;
#GENRE:TRANCE CORE;
#CREDIT:;
#BANNER:banner.png;
#BACKGROUND:background.png;
#LYRICSPATH:;
#CDTITLE:cdtitle.png;
#MUSIC:FLOWER.ogg;
#OFFSET:0.000000;
#SAMPLESTART:51.340000;
#SAMPLELENGTH:15.000000;
#SELECTABLE:YES;
#BPMS:0.000000=173.076996
,4.000000=173.001999
,20.000000=86.500999
,36.000000=173.001999
,228.000000=346.003998
,244.000000=173.001999
;
#STOPS:
;
#BGCHANGES:;
#KEYSOUNDS:;
#ATTACKS:;

//---------------dance-single - ----------------
#NOTES:
     dance-single:
     :
     Hard:
     13:
     0.571021,0.781857,0.472609,0.184237,0.320413,499.000000,440.000000,59.000000,23.000000,0.000000,0.000000,0.571021,0.781857,0.472609,0.184237,0.320413,499.000000,440.000000,59.000000,23.000000,0.000000,0.000000:
0000
0000
0000
0000
,
0000
0000
0000
0000
,
0000
0000
0000
0000
,
0000
0000
0000
0000
,
0000
0000
0000
0000
,
1001
1000
0001
0100
,
0001
0010
0001
0100
,
0010
1000
0010
1000
,
0100
0000
0000
0000
0000
0100
0001
0020
0000
0032
0000
0203
0000
0320
0000
1030
,
0100
0010
0001
0001
,
1000
0001
0100
0100
,
0010
0000
1000
0000
0100
0000
0100
0020
,
0000
0230
0000
2300
0000
3002
0000
0103
,
0010
1000
0100
0100
,
0010
0001
1000
1000
,
0001
0100
0010
0010
,
0200
0301
0020
0130
,
0020
0000
0031
0200
0000
0310
2000
0000
,
0100
3100
0010
0001
,
0100
0000
0010
0000
1000
0000
0001
2000
,
0000
3200
0000
0302
0000
0203
0000
0310
,
0001
0100
0001
0000
0100
0000
0010
0000
,
1000
0010
1000
0000
0010
0000
0100
0000
,
0001
0010
0001
0000
1000
0000
0100
0000
,
0010
0100
1000
0000
0100
0010
0001
0000
,
1000
0001
0100
0000
0010
0000
1001
0000
,
0001
1000
0100
0000
0010
0000
1001
0000
,
0001
1000
0010
0000
0100
0000
1001
0000
,
0001
1000
0100
0000
0010
0000
1001
0000
,
0001
0000
0000
1000
0000
0000
0001
0000
0010
0000
0000
0100
0000
0000
0010
0000
,
0001
0000
0000
0100
0000
0000
0010
0000
1000
0000
0000
0100
0000
0000
0010
0000
,
0100
1000
0100
0001
0100
1000
1001
0000
,
1100
0000
0000
0110
0000
0000
0011
0000
0000
0110
0000
0000
0100
0000
0010
0000
,
0001
0000
0000
1000
0000
0000
0010
0000
1000
0000
0100
0000
1000
0000
0001
0000
,
0100
0000
0000
0001
0000
0000
0010
0000
0100
0000
0010
0000
0001
0000
1000
0000
,
0010
0000
0000
1000
0000
0000
0001
0000
0010
0000
0001
0000
0100
0000
0010
0000
,
1000
0000
0001
0010
0000
0000
0100
0000
1000
0000
0001
1000
0000
0001
0100
0000
,
0010
0000
0000
1000
0000
0000
0100
0000
0010
0000
0100
0000
1000
0000
0001
0000
,
0100
0000
0000
0001
0000
0000
0010
0000
0100
0000
0010
0000
0001
0000
0100
0000
,
0001
0000
0000
0010
0000
0000
0001
0000
0100
0000
0010
0000
1000
0000
0100
0000
,
0010
0000
0100
1000
0000
0000
0100
0000
1000
0000
0010
1000
0000
0001
0100
0000
,
0001
0000
0000
0010
0000
0000
0100
0000
0010
0000
0001
0000
0100
0000
1000
0000
,
0100
0000
0000
0010
0000
0000
1000
0000
0001
0000
0010
0000
1000
0000
0010
0000
,
0001
0000
0000
0010
0000
0000
0100
0000
0010
0000
0001
0000
0100
0000
0010
0000
,
1000
0000
0001
0010
0000
0000
0100
0000
0010
0000
0001
0010
0000
0100
1000
0000
,
0001
0000
0000
0100
0000
0000
1000
0000
0100
0000
0010
0000
1000
0000
0001
0000
,
0010
0000
0000
1000
0000
0000
0010
0000
0100
0000
0010
0000
0001
0000
0100
0000
,
1000
0000
0000
0100
0000
0000
0010
0000
1000
0000
0010
0000
0100
0000
0001
0000
,
0010
0000
0100
0010
0000
0000
0100
0000
1000
0000
0001
0100
0000
0001
0010
0000
,
0110
0000
0000
1100
0000
0000
0110
0000
0000
1100
0000
0000
0110
0000
0010
0000
,
0001
1000
0200
0310
,
0110
0000
0000
0011
0000
0000
0110
0000
0000
0011
0000
0000
0110
0000
0010
0000
,
0001
0000
0001
1000
0000
0001
1000
0000
0001
0000
1000
0001
0000
0001
1000
0000
,
1010
0000
0000
0110
0000
0000
1010
0000
0000
0110
0000
0000
1010
0000
0010
0000
,
1000
0100
0020
0031
,
1001
0000
0000
0110
0000
0000
1001
0000
0000
0110
0000
0000
1001
0000
0001
0000
,
0100
0000
0001
0000
0000
0100
0000
0000
1000
0000
0000
0010
0000
0000
0001
0000
,
2002
0000
0000
0000
,
0000
0000
0000
0000
,
0000
0000
0000
0000
,
0000
0000
0000
0000
,
3003
0000
0000
0000
,
0000
0000
0000
0000
,
0000
0000
0000
0000
,
0000
0000
0000
0000
,
1010
0000
1000
0000
0010
0000
0100
0001
,
0011
0000
0010
0000
0100
0000
0010
0001
,
0011
0000
0001
0000
0110
0000
0010
1000
,
1001
0000
0000
1010
0000
0000
0001
0000
0011
0000
0000
0110
0000
0000
0100
0000
,
1000
0000
0000
0010
0000
0000
0100
0000
1000
0000
0100
0000
0001
0000
0010
0000
,
0001
0000
0000
0010
0000
0000
0100
0000
0010
0000
0001
0000
1000
0000
0010
0000
,
0100
0000
0000
0001
0000
0000
0010
0000
0100
0000
0010
0000
0100
0000
1000
0000
,
0001
0000
1000
0010
0000
0000
0100
0000
0010
0000
1000
0010
0000
0100
0010
0000
,
1000
0000
0000
0100
0000
0000
0010
0000
0100
0000
0010
0000
0001
0000
0100
0000
,
1000
0000
0000
0100
0000
0000
0010
0000
1000
0000
0010
0000
0100
0000
0001
0000
,
0010
0000
0000
0001
0000
0000
1000
0000
0100
0000
0010
0000
0100
0000
1000
0000
,
0001
0000
1000
0010
0000
0000
0100
0000
0001
0000
0010
0100
0000
0100
1000
0000
,
1001
0000
0000
0011
0000
0000
1001
0000
0000
0011
0000
0000
1001
0000
0001
0000
,
0100
0010
2000
3100
,
0110
0000
0000
0011
0000
0000
0110
0000
0000
0011
0000
0000
0110
0000
0010
0000
,
0001
0000
1000
0001
0000
1000
0001
0000
1000
0000
0001
1000
0000
1000
0001
0000
,
1001
0000
0000
0101
0000
0000
1001
0000
0000
0101
0000
0000
1001
0000
0001
0000
,
1000
0100
2000
3001
,
0101
0000
0000
0011
0000
0000
0101
0000
0000
0011
0000
0000
0101
0000
0001
0000
,
0010
0000
0100
0000
0010
0001
0100
0000
0010
1000
0100
0010
0000
0100
1000
0000
;

//---------------dance-single - ----------------
#NOTES:
     dance-single:
     :
     Medium:
     9:
     0.363897,0.475913,0.160206,0.232299,0.184237,318.000000,298.000000,20.000000,29.000000,0.000000,0.000000,0.363897,0.475913,0.160206,0.232299,0.184237,318.000000,298.000000,20.000000,29.000000,0.000000,0.000000:
0000
0000
0000
0000
,
0000
0000
0000
0000
,
0000
0000
0000
0000
,
0000
0000
0000
0000
,
0000
0000
0000
0000
,
0020
0000
0000
0000
,
0000
0000
2030
3200
,
0320
0000
0000
0000
,
0031
0000
0000
0000
0000
0010
0001
1000
0000
0100
0000
1000
0000
0010
0000
0200
,
0000
0000
0010
0000
,
0010
0000
0010
0000
,
0010
0000
0000
0000
0010
0000
0310
2000
,
0000
3002
0000
0023
0000
0032
0000
0203
,
0000
0001
0000
0001
,
0000
0001
0000
0001
,
0000
0001
0000
0301
,
2000
3100
0020
0031
,
2000
0000
0000
3200
0000
0000
0320
0000
,
0000
0100
0000
0100
,
0000
0000
0100
0000
0000
0000
0130
2000
,
0000
3002
0000
2003
0000
3020
0000
2030
,
0000
0100
0000
0100
,
0000
0100
0000
0100
,
0000
0100
0000
3100
,
0010
0000
0001
0000
,
0100
0010
0100
0000
0010
0000
1000
0000
,
0001
0010
0001
0000
0010
0000
0100
0000
,
1000
0100
1000
0000
0100
0000
1000
0000
,
0010
1000
0010
0000
0100
0000
0001
0000
,
1002
0000
1000
0000
,
0100
0000
0010
0000
,
1003
0100
0010
0001
0010
0100
0010
0000
,
0100
0000
0000
1000
0000
0000
0010
0000
0000
0100
0000
0000
0010
0000
1000
0000
,
0001
0010
0001
0000
0100
0000
0101
0000
,
0001
0100
0010
0000
1000
0000
1010
0000
,
1000
0010
0100
0000
0001
0000
1001
0000
,
0001
0000
0000
0001
0000
0000
0001
0000
1000
0000
0000
1000
0000
0000
1000
0000
,
0010
1000
0010
0000
1000
0000
1100
0000
,
0100
0010
0100
0000
0010
0000
0011
0000
,
0001
0100
0001
0000
0100
0000
0101
0000
,
0010
0000
0000
0010
0000
0000
0010
0000
0100
0000
0000
0100
0000
0000
0100
0000
,
0010
1000
0100
0000
0010
0000
0011
0000
,
0001
0010
0100
0000
0010
0000
1001
0000
,
0001
0100
0010
0000
1000
0000
1100
0000
,
0100
0000
0000
0100
0000
0000
0100
0000
0010
0000
0000
0010
0000
0000
0010
0000
,
0001
0010
0100
0000
1000
0000
0101
0000
,
0001
1000
0010
0000
1000
0000
1100
0000
,
1000
0010
0100
0000
0001
0000
0011
0000
,
0010
0000
0000
0010
0000
0000
0010
0000
0100
0000
0000
0100
0000
0000
0100
0000
,
1000
0000
0000
0001
0000
0000
1000
0000
0000
0001
0000
0000
1000
0000
0001
0000
,
0200
0000
0000
0000
,
0310
0000
0000
1000
0000
0000
0010
0000
0000
1000
0000
0000
0010
0000
1000
0000
,
0002
0000
0000
0000
,
1003
0000
0000
0100
0000
0000
1000
0000
0000
0100
0000
0000
1000
0000
0100
0000
,
2000
0000
0000
0000
,
3001
0000
0000
1000
0000
0000
0001
0000
0000
1000
0000
0000
0001
0000
1000
0000
,
0010
0100
0001
1001
,
0220
0000
0000
0000
,
0000
0000
0000
0000
,
0000
0000
0000
0000
,
0000
0000
0000
0000
,
0330
0000
0000
0000
,
0000
0000
0000
0000
,
0000
0000
0000
0000
,
0000
0000
0000
0000
,
1001
0001
0100
0010
,
1001
1000
0100
0010
,
1001
0010
1001
0100
,
1001
0000
0000
0001
0000
0000
0001
0000
1000
0000
0000
1000
0000
0000
1000
0000
,
0010
0000
0000
1000
0000
0000
0100
0000
0010
0000
0000
0000
0100
0000
0000
0000
,
1000
0000
0000
0001
0000
0000
0010
0000
0100
0000
0000
0000
0010
0000
0000
0000
,
0001
0000
0000
0100
0000
0000
0001
0000
1000
0000
0000
0000
0100
0000
0000
0000
,
0010
0000
0000
0100
0000
0000
1000
0000
0010
0000
0000
0100
0000
0000
0001
0000
,
1000
0000
0000
1000
0000
0000
1000
0000
0001
0000
0000
0000
0010
0000
0000
0000
,
0100
0000
0000
0100
0000
0000
0100
0000
0010
0000
0000
0000
0001
0000
0000
0000
,
1000
0000
0000
1000
0000
0000
1000
0000
0001
0000
0000
0000
0100
0000
0000
0000
,
0010
0000
0000
0010
0000
0000
0010
0000
0100
0000
0000
0100
0000
0000
0100
0000
,
0001
0000
0000
0100
0000
0000
0010
0000
0000
1000
0000
0000
0010
0000
0100
0000
,
0002
0000
0000
0000
,
1003
0000
0000
0100
0000
0000
0010
0000
0000
0100
0000
0000
0010
0000
0100
0000
,
0020
0000
0000
0000
,
0031
0000
0000
0100
0000
0000
0010
0000
0000
1000
0000
0000
0100
0000
0010
0000
,
0002
0000
0000
0000
,
0013
0000
0000
0100
0000
0000
1000
0000
0000
0100
0000
0000
0010
0000
0001
0000
,
0000
0000
1000
0000
0000
0001
0000
0000
0100
0000
0000
0010
0000
0000
1000
0000
;

//---------------dance-single - ----------------
#NOTES:
     dance-single:
     :
     Easy:
     6:
     0.230011,0.373932,0.320413,0.080103,0.000000,201.000000,161.000000,40.000000,10.000000,0.000000,0.000000,0.230011,0.373932,0.320413,0.080103,0.000000,201.000000,161.000000,40.000000,10.000000,0.000000,0.000000:
0000
0000
0000
0000
,
0000
0000
0000
0000
,
0000
0000
0000
0000
,
0000
0000
0000
0000
,
0000
0000
0000
0000
,
2000
0000
0000
0000
,
0000
0000
3001
1000
,
0200
0000
0000
0000
,
0310
0001
1000
1001
,
0002
0000
0000
0000
,
0000
0000
0000
0000
,
0000
0000
0000
0000
0003
0000
0010
0100
,
0000
0010
0000
0001
0000
1000
0000
0020
,
0000
0000
0000
0000
,
0000
0000
0000
0000
,
0000
0000
0000
0030
,
0100
0000
0010
0000
,
1000
0000
0000
0001
0000
0000
0020
0000
,
0000
0000
0000
0000
,
0000
0000
0000
0000
0030
0000
0100
1000
,
0000
0001
0000
0010
0000
0001
0000
2000
,
0000
0000
0000
0000
,
0000
0000
0000
0000
,
0000
0000
0000
0000
,
3001
0000
0100
0000
,
0011
0000
0001
0000
,
1100
0000
0100
0000
,
1001
0000
0010
0000
,
0101
0000
0001
0000
,
2002
0000
0000
0000
,
0000
0000
0000
3003
,
0001
1000
0010
0100
,
1001
0000
0000
0110
0000
0000
1001
0000
,
1000
0010
1000
0100
,
1000
0001
0010
0100
,
0010
0001
0100
0010
,
1000
0000
0001
0000
,
1000
0001
0100
0001
,
0010
0001
0100
0010
,
1000
0100
0010
0100
,
1000
0000
0001
0000
,
1000
0001
1000
0010
,
1000
0100
0001
0100
,
0010
0001
0010
1000
,
0010
0000
0001
0000
,
1000
0001
0100
0001
,
0010
0100
0010
0001
,
0100
0010
1000
0001
,
0100
0000
0001
0000
,
1001
0000
0000
0110
0000
0000
1001
0000
,
0000
0000
0000
0000
,
1010
0000
0000
0101
0000
0000
1010
0000
,
0000
0000
0000
0000
,
1100
0000
0000
0011
0000
0000
1100
0000
,
0000
0000
0000
0000
,
1001
0000
0000
0110
0000
0000
1001
0000
,
0000
0000
0000
0000
,
0020
0000
0000
0000
,
0000
0000
0000
0000
,
0000
0000
0000
0000
,
0000
0000
0000
0000
,
0030
0000
0000
0000
,
0000
0000
0000
0000
,
0000
0000
0000
0000
,
0000
0000
0000
0000
,
1001
0000
0000
0000
,
0110
0000
0000
0000
,
1001
0000
0110
0000
,
1001
0000
0000
1001
0000
0000
1001
0000
,
0001
1000
0010
0100
,
0010
1000
0100
0001
,
0100
0010
0001
0100
,
0010
0000
1000
0000
,
0001
1000
0100
1000
,
0001
0010
1000
0010
,
0100
0010
0001
0100
,
0010
0000
1000
0000
,
0101
0000
0000
1010
0000
0000
1001
0000
,
0000
0000
0000
0000
,
1100
0000
0000
0110
0000
0000
0011
0000
,
0000
0000
0000
0000
,
1001
0000
0000
1010
0000
0000
0011
0000
,
0000
0000
0000
0000
,
1001
0000
0000
0101
0000
0000
1100
0000
,
0002
0000
0000
0000
0000
0000
0000
0003
;

//---------------dance-single - ----------------
#NOTES:
     dance-single:
     :
     Beginner:
     3:
     0.138464,0.304592,0.192248,0.040052,0.000000,121.000000,97.000000,24.000000,5.000000,0.000000,0.000000,0.138464,0.304592,0.192248,0.040052,0.000000,121.000000,97.000000,24.000000,5.000000,0.000000,0.000000:
0000
0000
0000
0000
,
0000
0000
0000
0000
,
0000
0000
0000
0000
,
0000
0000
0000
0000
,
0000
0000
0000
0000
,
1001
0000
0000
0000
,
0000
0000
0010
0010
,
0010
0000
0000
0000
,
0100
0000
0001
1000
,
0210
0000
0000
0000
,
0000
0000
0000
0000
,
0000
0000
0300
0000
,
0010
0000
1000
0000
,
0002
0000
0000
0000
,
0000
0000
0000
0000
,
0000
0000
0000
0003
,
1000
0000
0001
0000
,
0100
0000
0010
0000
,
2000
0000
0000
0000
,
0000
0000
0000
3000
,
0001
0000
1000
0000
,
0020
0000
0000
0000
,
0000
0000
0000
0000
,
0000
0000
0000
0030
,
0100
0000
0000
0000
,
1001
0000
0000
0000
,
1000
0000
0000
0000
,
1001
0000
0000
0000
,
0001
0000
0000
0000
,
0100
0000
0010
0000
,
1000
0000
0001
0000
,
1000
0000
0001
0000
,
0110
0000
0000
0000
,
1001
0000
0000
0000
,
1000
0000
0000
0000
,
0010
0000
0000
0000
,
0100
0000
0010
0000
,
1001
0000
0000
0000
,
1000
0000
0000
0000
,
0001
0000
0000
0000
,
0010
0000
0001
0000
,
1001
0000
0000
0000
,
1000
0000
0000
0000
,
0010
0000
0000
0000
,
0100
0000
0010
0000
,
1001
0000
0000
0000
,
1000
0000
0000
0000
,
0001
0000
1000
0000
,
0010
0000
0100
0000
,
1001
0000
0000
0000
,
0010
0000
0000
0000
,
1001
0000
0000
0000
,
0100
0000
0000
0000
,
0110
0000
0000
0000
,
0001
0000
0000
0000
,
0110
0000
0000
0000
,
1000
0000
0000
0000
,
0002
0000
0000
0000
,
0000
0000
0000
0000
,
0000
0000
0000
0000
,
0000
0000
0000
0000
,
0003
0000
0000
0000
,
0000
0000
0000
0000
,
0000
0000
0000
0000
,
0000
0000
0000
0000
,
1001
0000
0000
0000
,
0110
0000
0000
0000
,
1001
0000
0110
0000
,
1001
0000
0010
0000
,
1001
0000
1000
1000
,
1000
0000
0001
0001
,
0001
0000
0100
0100
,
0100
0000
0010
0000
,
1001
0000
0100
0100
,
0010
0000
1000
1000
,
0001
0000
1000
0000
,
0010
0000
0100
0000
,
1001
0000
0000
0000
,
0010
0000
0000
0000
,
0110
0000
0000
0000
,
0001
0000
0000
0000
,
1001
0000
0000
0000
,
0100
0000
0000
0000
,
0110
0000
0000
0000
,
0001
0000
1000
0000
;

//---------------dance-single - ----------------
#NOTES:
     dance-single:
     :
     Challenge:
     17:
     0.871980,1.053807,0.656846,0.176227,1.041341,762.000000,680.000000,82.000000,22.000000,0.000000,0.000000,0.871980,1.053807,0.656846,0.176227,1.041341,762.000000,680.000000,82.000000,22.000000,0.000000,0.000000:
// measure 0
0000
0000
0000
0000
,  // measure 1
0000
0000
0000
0000
,  // measure 2
0000
0000
0000
0000
,  // measure 3
0000
0000
0000
0000
,  // measure 4
0000
0000
0000
1001
,  // measure 5
1000
0010
0001
0010
0000
0100
0001
0010
0000
0100
1000
0010
0000
0100
0001
0010
,  // measure 6
0000
0100
1000
0010
0000
1000
0001
0010
0000
0100
0010
0001
0000
0010
0100
1000
,  // measure 7
0000
0100
1000
0010
0000
0100
0001
0010
0000
0100
0010
0001
0000
1000
0001
0100
,  // measure 8
0010
0000
0000
0000
0000
1000
0001
0200
0000
0302
0000
0023
0000
0230
0000
0320
,  // measure 9
0031
0000
1000
0000
0001
1000
0001
0000
1000
0000
0001
1000
0001
0000
0100
0000
,  // measure 10
0000
0000
0010
0000
1000
0010
1000
0000
0010
0000
1000
0010
1000
0000
0010
0000
,  // measure 11
0100
0000
0001
0000
1000
0100
1000
0000
0100
0000
1000
0100
1000
0000
2000
0000
,  // measure 12
0000
3020
0000
0032
0000
0023
0000
0230
,  // measure 13
0301
0000
1000
0000
0010
1000
0010
0000
0100
0000
0001
0100
0001
0000
1000
0000
,  // measure 14
0001
0000
0010
0000
0100
0010
0100
0000
1000
0000
0010
1000
0010
0000
0100
0000
,  // measure 15
0001
0000
1000
0000
0001
0010
0001
0000
0010
0000
0100
1000
0100
0000
1000
0000
,  // measure 16
0002
0103
0020
1030
,  // measure 17
2001
0000
3100
0020
0000
0130
2000
0000
,  // measure 18
0010
0010
0010
0000
0001
0000
0001
0000
,  // measure 19
0010
0010
0010
0000
0001
0000
3001
0020
,  // measure 20
0000
2030
0000
3020
0000
0230
0000
2300
,  // measure 21
3001
0000
1000
0000
0000
0100
0000
0000
0010
0000
0000
0100
1000
0000
0010
0000
,  // measure 22
0100
0000
0000
0010
0000
0000
1000
0000
0000
0001
0000
0010
0001
0000
1000
0000
,  // measure 23
0100
0000
0000
1000
0000
0000
0010
0000
0000
0100
0000
0010
1000
0000
0001
0000
,  // measure 24
0020
0130
0200
1300
,  // measure 25
1001
0000
0001
0000
1000
0000
0000
0000
0001
0100
0000
0001
0100
0000
0001
0000
,  // measure 26
1001
0000
1000
0000
0100
0000
0000
0000
0010
0100
0000
0010
0100
0000
0010
0000
,  // measure 27
1001
0000
1000
0000
0010
0000
0000
0000
0100
0001
0000
0100
0001
0000
1000
0000
,  // measure 28
1100
0000
1000
0000
0100
0000
0000
0000
0010
0001
0000
0010
0100
0000
1000
0000
,  // measure 29
1001
0000
1000
0001
0000
0001
0010
0000
0011
0000
0010
0001
0000
0001
1000
0000
,  // measure 30
1001
0000
0001
0010
0000
0010
0001
0000
1001
0000
0001
1000
0000
1000
0001
0000
,  // measure 31
0010
0100
0010
0001
0100
0010
1000
0001
0010
0100
0010
0001
1001
0000
0000
0000
,  // measure 32
0101
0000
0001
0100
0000
0100
1000
0000
1000
0100
0000
0100
0010
0000
1000
0000
,  // measure 33
0001
0000
1000
0010
0000
0010
1000
0000
0001
1000
0100
0000
0010
0000
0100
0000
,  // measure 34
1000
0000
0001
0010
0000
0001
0100
0000
0010
1000
0010
0000
0100
0000
0001
0000
,  // measure 35
1000
0000
0100
1000
0000
0100
0010
0000
0100
1000
0100
0000
1000
0000
0010
0000
,  // measure 36
0100
0001
0010
0100
0000
0010
0001
0100
0010
1000
0001
1000
0000
0001
0100
0000
,  // measure 37
0010
0000
1000
0010
0000
0100
0001
0000
0010
0100
1000
0000
0100
0000
0010
0000
,  // measure 38
0100
0000
1000
0010
0000
0100
0001
0000
0010
0100
0010
0000
0100
0000
0010
0000
,  // measure 39
0001
0000
0010
0001
0000
0100
0010
0000
1000
0001
0010
0000
0100
0000
0010
0000
,  // measure 40
0001
0000
0010
0100
0000
0010
0001
0100
0010
1000
0001
0010
0000
0100
1000
0000
,  // measure 41
1001
0000
0001
0100
0000
0100
1000
0000
1000
0100
0010
0100
0010
1000
0001
0010
,  // measure 42
0001
0000
1000
0010
0000
0010
0001
0000
0001
0010
0100
0010
1000
0001
0010
0100
,  // measure 43
1000
0000
0001
0100
0000
0010
1000
0000
0001
0100
0010
0100
0001
1000
0100
0000
,  // measure 44
1000
0010
0100
0010
0000
0100
0001
0010
0100
1000
0001
1000
0000
0001
0100
0000
,  // measure 45
0101
0000
0001
0010
0000
0100
0010
0000
0100
1000
0010
0100
0001
0010
0100
1000
,  // measure 46
1100
0000
0100
1000
0000
0100
0010
0000
0100
0010
0001
0010
0100
0010
0001
1000
,  // measure 47
1001
0000
0001
0100
0000
0010
0100
0000
1010
1000
0001
0010
0100
0010
0001
1000
,  // measure 48
1001
0000
1000
0001
0000
0001
0100
0010
1000
0010
0000
0100
0000
0010
1000
0000
,  // measure 49
0101
0000
0000
1010
0000
0000
1100
0000
0000
0110
0000
0000
0011
0000
0110
0000
,  // measure 50
1001
0000
0000
0100
0000
0000
0000
0000
0000
0010
0000
0000
1000
0001
1000
0001
1000
0001
0100
0000
0000
0000
0000
0000
,  // measure 51
0110
0000
0000
1010
0000
0000
0110
0000
0000
0101
0000
0000
0011
0000
0110
0000
,  // measure 52
1100
0000
0000
0000
0000
0000
1000
0000
0000
0100
0000
0000
0000
0000
0000
0010
0000
0000
0001
0000
0000
0000
0000
0000
0010
0000
0100
0000
0010
0000
0100
0000
0000
0000
0000
0000
0000
0000
0000
0010
0000
0000
0001
0000
0000
0000
0000
0000
,  // measure 53
1001
0000
0000
0101
0000
0000
0011
0000
0000
0110
0000
0000
1100
0000
0011
0000
,  // measure 54
1001
0000
0000
0001
0000
0000
0000
0000
0000
1000
0000
0000
0100
1000
0100
1000
0100
1000
0100
0000
0000
0000
0000
0000
,  // measure 55
1100
0000
0000
0011
0000
0000
0101
0000
0000
0110
0000
0000
0110
0000
0101
0000
,  // measure 56
1001
0000
0001
0100
0000
0100
0010
0000
0100
0010
1000
0001
0000
0010
0100
0000
,  // measure 57
4004
0000
0000
0000
,  // measure 58
0000
0000
0000
0000
,  // measure 59
0000
0000
0000
0000
,  // measure 60
0000
0000
0000
0000
,  // measure 61
3003
0000
0000
0000
,  // measure 62
0000
0000
0000
0000
,  // measure 63
0000
0000
0000
0000
,  // measure 64
0000
0000
0000
0000
,  // measure 65
1010
0000
1000
0000
0100
0000
0010
0100
,  // measure 66
1001
0000
1000
0000
0001
0000
0010
0100
,  // measure 67
1100
0000
0010
0001
0101
0000
0001
0100
,  // measure 68
0110
0000
0000
0100
0000
0000
1001
0000
0000
0010
0000
0000
1001
0000
0010
0000
,  // measure 69
1001
0000
1000
0010
0000
0100
0001
0000
0010
0001
0100
0010
1000
0001
0010
0100
,  // measure 70
0010
0100
1000
0100
0000
1000
0100
0010
0100
1000
0010
0100
0001
0010
0100
0010
,  // measure 71
0001
0000
1000
0001
0000
0100
0001
0000
0010
0100
0010
0001
0100
0010
1000
0001
,  // measure 72
0010
1000
0010
0001
0000
0100
0010
0001
0100
1000
0100
0010
0000
0100
0001
0000
,  // measure 73
1000
0000
0010
1000
0000
0001
0100
0000
0001
0010
0001
1000
0100
0010
0100
1000
,  // measure 74
0001
0000
1000
0010
0000
0100
0001
0000
0010
0001
0100
0001
0010
0100
0010
0001
,  // measure 75
1000
0000
0010
1000
0000
0010
0100
0000
0010
1000
0001
0010
0100
0010
0001
1000
,  // measure 76
0001
0100
1000
0100
0000
0100
0010
1000
0100
0001
0100
0010
0000
0001
0010
0000
,  // measure 77
1100
0000
0000
0110
0000
0000
0011
0000
0000
0101
0000
0000
0110
0000
1010
0000
,  // measure 78
1001
0000
0000
1000
0000
0000
0000
0000
0000
0001
0000
0000
0010
0100
0010
0100
0010
0100
0010
0000
0000
0000
0000
0000
,  // measure 79
1100
0000
0000
0110
0000
0000
0011
0000
0000
0110
0000
0000
1001
0000
0011
0000
,  // measure 80
0101
0000
0000
0000
0000
0000
0100
0000
0000
0010
0000
0000
0000
0000
0000
0100
0000
0000
0010
0000
0000
0000
0000
0000
1000
0000
0001
0000
1000
0000
0001
0000
0000
0000
0000
0000
0000
0000
0000
1000
0000
0000
0001
0000
0000
0000
0000
0000
,  // measure 81
0101
0000
0000
1010
0000
0000
1100
0000
0000
0110
0000
0000
1100
0000
1001
0000
,  // measure 82
0101
0000
0000
0010
0000
0000
0000
0000
0000
1000
0000
0000
0001
0010
0001
0010
0001
0010
0001
0000
0000
0000
0000
0000
,  // measure 83
1100
0000
0000
0110
0000
0000
0011
0000
0000
0110
0000
0000
1001
0000
0110
0000
,  // measure 84
1000
0000
0010
0000
0100
0001
0010
0000
0100
0010
0001
1000
0000
1000
0001
0000
;
