#VERSION:0.83;
#TITLE:Ex-Plosion;
#SUBTITLE:(Zee-Tekz Remix);
#ARTIST:ASSIMILATION;
#TITLETRANSLIT:;
#SUBTITLETRANSLIT:;
#ARTISTTRANSLIT:;
#GENRE:BREAKCORE;
#ORIGIN:;
#CREDIT:;
#BANNER:Ex-Plosion-banner.png;
#BACKGROUND:Ex-Plosion-background.png;
#PREVIEWVID:;
#JACKET:Ex-Plosion-jacket.png;
#CDIMAGE:;
#DISCIMAGE:;
#LYRICSPATH:;
#CDTITLE:cdtitle.png;
#MUSIC:Ex-Plosion.mp3;
#OFFSET:-0.020000;
#SAMPLESTART:14.865361;
#SAMPLELENGTH:14.845361;
#SELECTABLE:YES;
#BPMS:0.000=194.000,
222.000=97.000,
223.000=194.000;
#STOPS:;
#DELAYS:;
#WARPS:;
#TIMESIGNATURES:0.000=4=4;
#TICKCOUNTS:0.000=4;
#COMBOS:0.000=1;
#SPEEDS:0.000=1.000=0.000=0;
#SCROLLS:0.000=1.000;
#FAKES:;
#LABELS:0.000=Song Start;
#BGCHANGES:;
#KEYSOUNDS:;
#ATTACKS:
;

//---------------dance-single - ----------------
#NOTEDATA:;
#CHARTNAME:;
#STEPSTYPE:dance-single;
#DESCRIPTION:;
#CHARTSTYLE:;
#DIFFICULTY:Hard;
#METER:13;
#RADARVALUES:0.584655,0.716202,0.254650,0.000000,0.000000,450.000000,422.000000,28.000000,0.000000,73.000000,0.000000,0.000000,0.000000,0.000000,0.584655,0.716202,0.254650,0.000000,0.000000,450.000000,422.000000,28.000000,0.000000,73.000000,0.000000,0.000000,0.000000,0.000000;
#CREDIT:Pandemonium X;
#NOTES:
0000
0000
0000
0000
,
0000
0000
0000
0000
,
0000
0000
0000
0000
,
0000
0000
0000
0000
,
0001
0010
0100
0100
,
0010
0001
1000
0010
0100
0010
1000
0100
,
0010
0100
1000
1000
,
0001
0100
0001
0100
0001
0010
1000
0010
,
0001
1000
0100
0100
,
0010
0100
0010
0001
1000
0010
1000
0010
,
0100
0001
0010
0010
,
0100
0010
0001
1000
0001
0000
0000
0000
,
1010
0000
0101
0000
0001
0011
0000
1100
,
0000
1001
0000
0001
01M0
0000
0000
0000
,
1010
0000
0101
0000
0001
0001
0000
1000
,
0100
0100
0010
0001
10M0
0000
0000
0000
,
0101
0000
0011
0000
0010
0100
0000
1100
,
0000
1000
0001
0000
0100
0000
0010
0000
,
1000
0010
0001
0000
0001
0010
1000
0000
,
0010
1000
0001
0100
0001
0010
0100
1000
,
1001
0000
0001
0000
0100
0001
0100
0000
,
0001
0100
0010
1000
0001
0010
01M0
0000
,
0010
0000
0001
0000
1000
0100
1000
0000
,
0100
1000
0010
0100
0001
1000
M100
0000
,
0010
0000
0100
0000
1000
0010
1000
0000
,
0010
0100
0001
1000
0001
0010
0100
0000
,
0110
M001
0110
100M
,
0010
0001
1000
0010
0100
0000
0000
0000
,
1001
0001
0000
0000
0000
0000
0000
0000
,
1000
0100
0000
0000
0010
0100
1000
0000
,
0100
1000
0000
0000
0000
0000
0000
0000
,
1000
0001
0000
0000
0100
0010
1000
0000
,
0001
0100
0000
0000
0000
0000
0000
0000
,
0010
1000
0000
0000
0001
1000
0100
0000
,
0010
0100
1000
0100
,
0001
0100
1000
0010
,
1001
0000
0001
0100
1000
0000
0100
0000
,
0010
0000
1000
0001
0010
0000
0100
0000
,
0010
0001
0010
0001
1000
0100
1000
0100
,
1000
0010
0001
0000
0010
0000
0100
0000
,
0001
0000
1000
0010
0000
0100
0001
0000
,
0010
0000
0100
0010
0000
0100
1000
0000
,
0001
0000
1000
0001
0100
0000
0001
1000
,
001M
M100
001M
M100
001M
M100
001M
M100
,
0001
1000
0010
0100
,
0001
0010
0100
0010
0001
1000
0010
0100
,
0001
1000
0010
1000
,
0100
1000
0001
0010
0100
0010
0001
1000
,
0010
0100
0001
1000
,
0001
1000
0010
1000
0001
0010
0100
0010
,
0001
0100
0000
0010
1000
0100
0000
0010
,
0001
0100
0010
1000
0100
1000
0010
0100
,
0001
1000
0001
0000
0000
0000
0000
0000
,
0100
0000
0000
0010
0000
0000
0000
0000
,
1000
0000
0000
0000
,
0001
0000
0000
0100
0010
00M0
1001
0000
,
1000
0010
0100
0001
,
0010
0100
0010
1001
,
01M0
0000
1001
0000
0M10
0000
1000
0001
,
1000
0001
0100
0010
1000
0100
0010
0000
,
0100
1000
0010
0000
1010
0000
1000
0000
,
1001
0000
0001
0000
0011
0000
0001
0100
,
1000
0100
0010
1000
0001
0010
1000
0010
,
0001
0100
0010
1000
0001
0010
0100
0000
,
0M00
1000
0100
1000
0001
0100
0010
0000
,
00M0
0100
0010
1000
0001
0010
0001
0000
,
1000
0001
1000
0000
0010
0000
0100
0001
,
0010
0100
0010
0001
1000
0001
0100
0000
,
0010
1000
0000
0010
0100
0000
0010
0000
,
0000
1000
0000
0001
0000
0000
1000
0000
,
0100
1000
0000
0001
0100
0000
0000
0010
,
1000
0001
1000
0000
0001
0010
0001
0000
,
0000
1000
0000
0000
0010
0000
0100
0001
,
0010
0100
0000
0010
0000
0000
0100
0000
,
1000
0000
0010
0000
0100
0000
0001
1000
,
0001
1000
1001
0000
0000
0000
00M1
01M0
,
10M0
01M0
00M1
01M0
10M0
01M0
01M1
0000
,
MM01
110M
0000
0000
0000
0000
1M00
0M10
,
0M01
0M10
1M00
0M10
0M01
0M10
1M00
0000
,
1M0M
0101
0000
0000
0000
0000
M001
M001
,
01M0
01M0
M010
M010
100M
100M
1001
0000
,
M01M
10M1
0000
0000
0000
0000
100M
100M
,
01M0
01M0
0M01
0M01
M100
M100
001M
M001
,
1M00
01M0
001M
M001
1M00
01M0
1001
0000
,
0000
0000
0000
0000
,
0000
0000
0000
0000
,
0000
0000
0000
0000
,
0000
0000
MMMM
0000
;

//---------------dance-single - ----------------
#NOTEDATA:;
#CHARTNAME:;
#STEPSTYPE:dance-single;
#DESCRIPTION:;
#CHARTSTYLE:;
#DIFFICULTY:Easy;
#METER:8;
#RADARVALUES:0.381974,0.647424,0.227366,0.018189,0.000000,294.000000,269.000000,25.000000,2.000000,0.000000,0.000000,0.000000,0.000000,0.000000,0.381974,0.647424,0.227366,0.018189,0.000000,294.000000,269.000000,25.000000,2.000000,0.000000,0.000000,0.000000,0.000000,0.000000;
#CREDIT:Pandemonium X;
#NOTES:
0000
0000
0000
0000
,
0000
0000
0000
0000
,
0000
0000
0000
0000
,
0000
0000
0000
0000
,
1000
0001
0010
0100
,
0010
0010
0001
0001
,
1000
0001
0100
0001
,
1000
1000
1001
0110
,
1000
0001
0100
0001
,
0010
0010
0100
0010
,
0001
1000
0100
0010
,
0100
1000
0000
0100
1000
0000
0000
0000
,
0001
0000
0001
0000
0001
1000
0000
0010
,
0000
0010
0000
0020
0000
0000
0030
0000
,
0100
0000
0010
0000
0100
0010
0000
0100
,
0001
1000
0001
1000
0001
0000
0000
0000
,
1000
0000
0100
0000
1000
0010
0000
0100
,
0000
0001
1000
0000
0000
0000
0000
0000
,
1001
0000
0110
0000
,
0001
1000
0001
0000
1000
0000
0000
0000
,
0101
0000
0000
0000
,
0010
0000
0000
1000
0000
0000
1100
0000
,
0011
0000
0000
0000
,
0100
0000
0000
1000
0000
0000
0011
0000
,
1100
0000
0000
0000
,
0001
0000
0000
0100
0000
0000
0000
0000
,
1001
0010
1001
0010
,
1000
0001
1000
0001
1000
0000
0000
0000
,
0101
0000
0000
0000
,
0001
0000
0000
1000
,
0100
0000
0000
0000
,
1000
0000
0010
0100
,
0001
0000
0000
0000
,
1000
0000
0100
1000
,
0010
0000
0000
0000
,
0100
0000
0000
0000
,
0010
0100
0001
1000
,
0001
0010
0100
0100
,
0010
0001
0010
0100
,
0100
0010
0001
0000
0010
0000
0100
0000
,
1000
0000
0000
0100
0000
0000
1000
0000
,
0000
0010
0000
0100
0000
0000
0000
0000
,
0110
0000
1001
0000
,
0001
1000
0001
1000
0001
1000
0001
1000
,
0001
1000
0010
1000
,
0100
0010
0100
1000
,
0100
1000
0010
0100
,
0001
0010
0100
1001
,
0001
1000
0010
1000
,
0010
0100
0001
0010
,
0100
0000
0100
0000
,
0100
0100
0010
0001
,
1000
1000
1000
0000
0000
0000
0000
0000
,
0000
0000
0000
0000
,
0000
0000
0000
0000
,
0000
0000
0000
0010
,
0100
0001
1000
0100
,
1000
0010
0100
0101
,
1010
0101
1010
1001
,
0110
1001
0110
0001
,
0100
0010
0010
0100
,
0100
0010
0010
1000
,
0010
0200
0000
0000
,
0000
0000
0000
0310
,
1000
0010
0100
0001
,
0010
0100
0010
0001
,
1000
0100
0001
0100
,
0010
0001
1000
1001
,
0000
0001
0000
0000
1000
0000
0000
0000
,
0000
0000
0000
0100
0000
0000
1000
0000
,
0000
0010
0000
0000
0100
0000
0000
0000
,
0000
0010
0000
0100
0000
0000
0010
0000
,
0000
1000
0000
0000
0001
0000
0000
0000
,
0000
0010
0000
0100
0000
0000
0010
0000
,
0001
0010
0100
1000
,
0001
0000
1000
0000
0000
0000
0001
0100
,
0001
0100
0001
0100
0001
0100
0001
0000
,
0100
0001
0000
0000
0000
0000
1000
0010
,
1000
0010
1000
0010
1000
0010
1000
0000
,
1000
0010
0000
0000
0000
0000
1000
0100
,
0010
0001
1000
0100
0010
0001
1000
0000
,
0001
1000
0000
0000
0000
0000
0001
0010
,
0100
1000
0001
0010
0100
1000
0001
0000
,
1000
0001
0000
0000
0000
0000
0110
0000
;

//---------------dance-single - ----------------
#NOTEDATA:;
#CHARTNAME:;
#STEPSTYPE:dance-single;
#DESCRIPTION:;
#CHARTSTYLE:;
#DIFFICULTY:Medium;
#METER:11;
#RADARVALUES:0.544379,0.701878,0.463826,0.072757,0.000000,419.000000,368.000000,51.000000,8.000000,0.000000,0.000000,0.000000,0.000000,0.000000,0.544379,0.701878,0.463826,0.072757,0.000000,419.000000,368.000000,51.000000,8.000000,0.000000,0.000000,0.000000,0.000000,0.000000;
#CREDIT:Pandemonium X;
#NOTES:
0000
0000
0000
0000
,
0000
0000
0000
0000
,
0000
0000
0000
0000
,
0000
0000
0000
0000
,
1000
0010
1010
0101
,
0001
1000
0100
0000
0010
0000
0100
0000
,
1000
0001
0011
1100
,
1000
0000
0010
0000
0100
0001
0010
1000
,
0010
0100
1100
1001
,
0001
0100
0001
0010
0100
0000
0010
0000
,
0001
1000
1010
0101
,
0001
0010
0000
0010
1000
0000
0010
0000
,
0100
0000
0100
0000
0100
1000
0000
1010
,
0000
0101
0000
2002
0000
0000
3003
0000
,
1000
0000
1000
0000
1000
0001
0000
0001
,
0100
0010
0100
0010
2002
0000
3003
0000
,
0101
0000
0101
0000
0001
0010
0000
0110
,
0000
0100
1000
0000
0001
0000
0000
0000
,
0001
1000
0100
0000
0100
1000
0001
0000
,
0100
0010
0000
0010
0100
0000
0010
1000
,
1001
0001
0010
0100
,
0110
0000
0100
1000
0000
1000
0010
0000
,
0101
0001
1000
0010
,
1010
0000
0010
0100
0000
0001
0010
0000
,
1100
0100
1000
0010
,
0110
0000
0100
0001
0000
0010
0100
0000
,
1100
0011
1100
0011
,
0001
1000
0001
1000
1001
0000
0110
0000
,
1001
0000
0000
0000
,
0010
0100
0000
0000
0100
0010
0100
0000
,
0001
1000
0000
0000
0000
0000
0000
0000
,
1000
0001
0000
0000
0000
0000
0000
0000
,
1000
0001
0000
0000
0000
0000
0000
0000
,
0010
0100
0000
0000
0000
0000
0000
0000
,
1000
0010
0000
0000
0000
0000
0000
0000
,
0100
0001
0000
0000
0000
0000
0000
0000
,
1000
0100
0001
0001
,
0100
0100
0010
0010
,
0100
1000
0010
0000
0100
0010
1000
0000
,
0001
0010
1000
0000
0010
0000
0001
0000
,
1001
0000
1000
0000
0010
0100
0001
0000
,
0010
0000
0100
0000
0010
0001
0100
0000
,
0010
1000
0001
0100
,
0001
0010
0100
1000
0001
0010
0100
1000
,
0001
0100
0000
0001
0000
0010
0000
0100
,
0000
0110
0000
1001
0000
0110
0000
1001
,
0000
0001
0000
1000
0000
0010
0000
0100
,
0000
0101
0000
1010
0010
1000
1100
0000
,
1000
0001
0000
0010
0000
0001
0000
1000
,
0000
0100
0000
1000
0100
0000
0000
1000
,
0010
0100
0000
0010
1000
0001
0000
0010
,
0110
1001
0110
2000
,
3200
0300
0000
0000
,
1000
0000
0000
0010
0000
0000
0000
0000
,
0100
0000
0000
0000
,
0001
0000
0000
1000
0200
0000
1300
0000
,
0010
0100
0001
0010
,
0100
0010
0001
1001
,
0010
0000
1001
0000
0100
0000
0001
0100
,
0001
0100
0001
0000
0100
0000
0010
0000
,
1000
1001
0010
1001
,
0100
0000
1001
0000
0010
0000
0001
0100
,
0010
1000
0001
1000
0001
1000
0001
1000
,
0001
1000
0001
1000
0001
1000
0100
0000
,
0000
0000
0010
0100
0010
0001
1000
0000
,
0000
0000
0001
0010
0001
0100
0010
0000
,
0100
0000
0001
0000
1000
0000
0100
1000
,
0010
0100
0001
0010
0100
1000
0001
0000
,
0100
0001
0000
0001
0010
0000
0100
0010
,
0001
1000
0000
0001
0000
0000
0100
0000
,
0001
0010
0000
0001
0100
0000
0010
1000
,
0010
0100
0000
0001
0000
0000
0010
0000
,
0100
0010
0000
0100
1000
0000
0100
1000
,
0010
0100
0000
0001
0000
0000
1000
0000
,
0001
0000
0100
0000
0010
0000
1000
0001
,
1000
0001
1001
0000
0000
0000
0001
0010
,
0100
0010
0001
0100
0010
1000
1100
0000
,
0001
1001
0000
0000
0000
0000
0001
1000
,
0100
0010
0100
1000
0010
0100
0110
0000
,
0010
1001
0000
0000
0000
0000
0001
0010
,
0001
0100
0010
1000
0100
0010
0011
0000
,
0100
1001
0000
0000
0000
0000
0001
0100
,
0010
1000
0100
0010
0100
1000
0001
0100
,
1000
0100
0001
0010
1000
0010
0002
0000
,
0000
0000
0000
0000
,
0000
0000
0000
0003
;

//---------------dance-single - ----------------
#NOTEDATA:;
#CHARTNAME:;
#STEPSTYPE:dance-single;
#DESCRIPTION:;
#CHARTSTYLE:;
#DIFFICULTY:Beginner;
#METER:3;
#RADARVALUES:0.142916,0.266586,0.072757,0.000000,0.000000,110.000000,102.000000,8.000000,0.000000,0.000000,0.000000,0.000000,0.000000,0.000000,0.142916,0.266586,0.072757,0.000000,0.000000,110.000000,102.000000,8.000000,0.000000,0.000000,0.000000,0.000000,0.000000,0.000000;
#CREDIT:Pandemonium X;
#NOTES:
0000
0000
0000
0000
,
0000
0000
0000
0000
,
0000
0000
0000
0000
,
0000
0000
0000
0000
,
1000
0000
0000
0000
,
0001
0000
0000
0000
,
0100
0000
0000
0000
,
0010
0000
0100
0000
,
0001
0000
0000
0000
,
1000
0000
0000
0000
,
0100
0000
0000
0000
,
1000
0000
1000
0000
,
0001
0001
0001
0000
,
1000
0000
0000
0000
,
0010
0010
0010
0000
,
0100
0100
0100
0000
,
0010
0000
0000
0000
,
1000
0000
0000
0000
,
0001
0000
0001
0000
,
0001
0000
0000
0000
,
1000
0000
0000
0000
,
0010
0000
0000
0000
,
0100
0000
0000
0000
,
0010
0000
0000
0000
,
0001
0000
0000
0000
,
0010
0000
0000
0000
,
1000
0000
0001
0000
,
0100
0100
0100
0000
,
0010
0000
0000
0000
,
1000
0000
0000
0000
,
0001
0000
0000
0000
,
0010
0000
0000
0000
,
0100
0000
0000
0000
,
0010
0000
0000
0000
,
0001
0000
0000
0000
,
0001
0000
0000
0000
,
1000
0000
0000
0000
,
0010
0000
0000
0000
,
0100
0000
0000
0000
,
0001
0000
0000
0000
,
0010
0000
0000
0000
,
0001
0000
0000
0000
,
1000
0000
0001
0000
,
0100
0000
0000
0000
,
1000
0000
0000
0000
,
0010
0000
0000
0000
,
1000
0000
0000
0000
,
0001
0000
1000
0001
,
0100
0000
0000
0000
,
0010
0000
0000
0000
,
1000
0000
1000
0000
,
0001
0000
0000
0000
,
0110
0000
0000
0000
,
0000
0000
0000
0000
,
0000
0000
0000
0000
,
0000
0000
0000
1000
,
0000
0000
0000
0001
,
0000
0000
0000
0100
,
0000
0010
0000
0100
,
0000
0000
0000
1001
,
0000
0000
0000
1000
,
0000
0000
0000
0010
,
0000
1000
0000
0000
,
0000
0000
0000
1001
,
0000
0001
0000
1000
,
0000
0010
0000
0000
,
0100
0000
0000
0010
,
0000
0000
0000
1000
,
0000
0000
0000
0100
,
0000
0000
0000
1000
,
0000
0000
0000
0001
,
0000
0000
0000
0100
,
0000
0000
0000
0010
,
0000
0000
0000
0100
,
0000
0010
0000
1000
,
0000
0000
0000
0001
,
0000
0001
0000
1001
,
0000
0000
0000
1000
,
0000
1000
0000
1001
,
0000
0000
0000
0010
,
0000
0010
0000
0110
,
0000
0000
0000
0100
,
0000
0100
0000
0110
,
0000
0000
0000
1001
;

//---------------dance-single - ----------------
#NOTEDATA:;
#CHARTNAME:;
#STEPSTYPE:dance-single;
#DESCRIPTION:;
#CHARTSTYLE:;
#DIFFICULTY:Challenge;
#METER:16;
#RADARVALUES:0.752256,1.313037,0.372880,0.227366,0.331954,579.000000,538.000000,41.000000,25.000000,178.000000,0.000000,1.000000,0.000000,0.000000,0.752256,1.313037,0.372880,0.227366,0.331954,579.000000,538.000000,41.000000,25.000000,178.000000,0.000000,1.000000,0.000000,0.000000;
#CREDIT:;
#NOTES:
// measure 0
0000
0000
0000
0000
,  // measure 1
0000
0000
0000
0000
,  // measure 2
0000
0000
0000
0000
,  // measure 3
0000
0000
0000
0000
,  // measure 4
10M0
00M0
01M0
00M0
00M1
01M0
10M0
00M0
,  // measure 5
0100
1000
0010
0000
0100
0000
0001
0000
0010
0000
0000
0000
0001
0000
0001
0000
,  // measure 6
1000
0000
0010
0000
0100
0001
0001
0000
,  // measure 7
1000
0001
0010
0000
0100
0000
1000
0000
0100
0000
1000
0010
0100
0000
0010
0100
,  // measure 8
0001
0000
1000
0000
0010
0100
0100
0000
,  // measure 9
0010
1000
0010
0000
0100
0000
0001
0000
0010
0000
0010
0000
0001
0000
0001
0000
,  // measure 10
1000
0001
0100
0010
,  // measure 11
1000
0000
M101
0000
0000
0000
0001
0000
110M
0000
0000
0000
0001
0100
0001
0100
,  // measure 12
M001
0010
100M
0010
00M1
01M0
0010
100M
,  // measure 13
0100
M010
0100
10M0
0001
0000
0000
0000
,  // measure 14
1M00
0010
00M1
0010
100M
100M
0010
01M0
,  // measure 15
001M
M010
001M
M010
1000
0000
0000
0000
,  // measure 16
10M1
M000
01M1
0000
0010
1010
0000
01M1
,  // measure 17
0000
MM01
0011
0000
0010
0100
0000
0010
,  // measure 18
0001
0100
1M10
0000
0100
0001
110M
0000
,  // measure 19
010M
0000
0000
0000
0000
0000
10M0
0000
0000
0000
0000
0000
0000
0000
0000
0000
0M00
0000
0010
0000
0000
0000
0000
0000
M100
0000
0000
0000
0000
0000
0000
0000
0000
0000
0000
0000
0001
0000
0000
0100
0000
0000
0010
0000
0000
1000
0000
0000
,  // measure 20
020M
000M
031M
000M
010M
1000
1010
0000
,  // measure 21
0010
0100
0001
0010
0100
0010
1100
0000
,  // measure 22
0021
0000
0130
0000
0010
0001
1000
0000
,  // measure 23
0001
0100
0001
0000
0010
0000
0001
0000
1000
0000
0100
0000
0110
0000
0000
0000
,  // measure 24
1001
0000
1010
0000
1000
0001
0010
0000
,  // measure 25
0100
0010
0100
0000
0010
0000
0001
0000
0100
0000
0001
0000
1000
0000
0000
0000
,  // measure 26
0202
0000
0000
0303
1M1M
0000
0000
0000
0202
0000
0000
0303
1M1M
0000
0000
0000
,  // measure 27
0001
0000
0001
0000
1000
0000
1000
0000
0020
0000
0000
0000
0130
0001
01M0
0001
,  // measure 28
0010
000M
0000
M000
0000
00M0
0000
M000
,  // measure 29
0100
100M
0000
00M0
0M00
M000
1001
0000
,  // measure 30
0001
M010
0000
0M00
0000
00M0
0000
000M
,  // measure 31
0010
M001
0000
00M0
0000
0M00
M00M
0000
,  // measure 32
0100
M010
0000
000M
0000
00M0
0000
000M
,  // measure 33
1000
0000
01M0
0000
0000
0000
0M00
0000
0000
0000
M000
0000
0M10
0000
M001
0010
,  // measure 34
0001
01M0
0000
M000
0000
000M
0000
00M0
,  // measure 35
0010
1M00
0000
00M0
0000
000M
0000
M000
,  // measure 36
0001
0100
0010
1000
0100
0010
0100
1000
,  // measure 37
0001
0010
0001
0100
0010
1000
0100
1000
,  // measure 38
0001
0100
0001
0100
0010
1000
0010
1000
0010
0100
0010
0100
0001
0000
0000
0000
,  // measure 39
2000
3200
0302
0000
0203
0000
0320
0000
,  // measure 40
0031
0000
0010
0001
0000
0100
0010
0000
,  // measure 41
1000
0001
0010
0000
0100
0000
0001
0000
0000
0000
0000
0000
0100
0000
0010
0000
,  // measure 42
0001
0100
0010
1000
0100
0010
0001
0010
,  // measure 43
01M0
1000
010M
1000
01M0
1000
010M
1000
01M0
1000
010M
1000
01M0
1000
010M
1000
,  // measure 44
01M0
0010
0M01
1M00
0M10
1M00
0M01
0M10
,  // measure 45
0M01
1000
0100
0010
0100
1000
0010
0100
,  // measure 46
0001
0010
0001
1000
0100
1000
0010
1000
,  // measure 47
0001
0010
0001
0010
0100
0010
1001
0000
,  // measure 48
0001
0100
0001
0010
0001
1000
0100
0010
,  // measure 49
0100
1000
0100
0010
1000
0000
0000
0010
,  // measure 50
0001
11MM
0000
1000
0100
MM11
0000
0001
,  // measure 51
0101
0000
0000
0000
1010
0000
0000
0000
1000
0001
1000
0001
0100
0010
1000
0010
,  // measure 52
2000
0000
3002
0203
0020
0000
0000
0000
0330
0000
0000
0000
0000
0000
0000
0000
,  // measure 53
0200
0000
0000
0002
0000
0000
0303
0000
,  // measure 54
2000
0000
3000
0000
,  // measure 55
0200
0000
0000
0000
0000
0000
0320
0000
0004
0000
0000
0003
013M
0000
1000
0000
,  // measure 56
0010
1000
0100
0010
0100
1000
0001
0100
,  // measure 57
0010
0100
0001
1000
0100
0010
0120
0000
,  // measure 58
0M31
0000
0210
0000
13M0
0000
00M1
00M1
,  // measure 59
10M0
0000
10M0
0000
00M1
0100
00M1
0100
0001
0100
0010
1000
0100
0000
0010
0000
,  // measure 60
0100
1000
0001
0100
0001
1000
0100
0010
,  // measure 61
0100
0000
1000
0000
0100
0000
0010
0000
0001
0000
0010
0000
0100
1000
0100
1000
,  // measure 62
0001
0010
0001
0010
0001
0100
0001
0100
0010
1000
0010
1000
0010
0100
0001
1000
,  // measure 63
0100
0010
0100
1000
0001
0010
0100
0010
0001
0100
0010
1000
0100
0000
0010
0000
,  // measure 64
0100
1000
0001
0001
0100
0010
1000
0100
,  // measure 65
0010
0100
1000
1000
0100
0010
0001
0010
,  // measure 66
0001
0000
0100
0000
0001
0000
0100
0000
0010
0000
1000
0000
010M
0010
100M
0000
,  // measure 67
100M
0100
001M
0000
001M
0100
100M
0000
001M
0100
1000
0001
1000
0000
0000
0000
,  // measure 68
0001
0000
0100
0000
0000
0000
0100
0000
0010
0000
0000
0000
0100
0001
0010
0000
,  // measure 69
0100
0010
0000
1100
0000
0000
0010
0000
,  // measure 70
0100
0000
1000
0000
0000
0000
0010
0000
0100
0000
0000
0000
0001
1000
0100
0000
,  // measure 71
0010
0100
1000
0010
0100
0010
1000
0000
,  // measure 72
0001
0000
0100
0000
0000
0000
0010
0000
1000
0000
0000
0000
0100
0010
0100
0000
,  // measure 73
0010
1000
0000
1001
0000
0000
0101
0000
,  // measure 74
0101
0000
0000
0000
1010
0000
0000
0000
1010
0000
0000
0000
1000
0001
1000
0000
,  // measure 75
0010
0100
0010
0000
1001
0000
0000
0000
0000
0000
0000
0000
1010
0000
M010
0000
,  // measure 76
001M
M010
010M
01M0
010M
01M0
M11M
0000
,  // measure 77
0010
1MM1
0000
0000
0000
0000
00M1
0M01
,  // measure 78
00M1
0M01
10M0
1M00
10M0
1M00
1MM1
0000
,  // measure 79
0100
1MM1
0000
0000
0000
0000
010M
01M0
,  // measure 80
M100
01M0
010M
01M0
M100
01M0
M11M
0000
,  // measure 81
0010
1MM1
0000
0000
0000
0000
MM1M
MM1M
,  // measure 82
MM1M
0000
MM1M
0000
MM1M
0000
MM1M
0000
MM1M
0000
MM1M
0000
0010
0001
0100
0010
,  // measure 83
1000
0001
0010
0100
0010
0001
0100
0010
1000
0100
0010
0002
2000
0000
0000
0000
,  // measure 84
0000
0000
0000
0000
,  // measure 85
0000
0000
0000
3000
,  // measure 86
0000
0000
0000
0000
,  // measure 87
0000
0000
0000
0000
0000
0000
0000
0000
0000
0000
0000
0000
0000
0000
0000
0000
0000
0000
0000
0000
0000
0000
0000
0000
0000
0000
0000
0000
0000
0000
0000
0003
000M
0000
0000
0000
0000
0000
0000
0000
0000
0000
0000
0000
0000
0000
0000
0000
0000
0000
0000
0000
0000
0000
0000
0000
0000
0000
0000
0000
0000
0000
0000
0000
;
