#VERSION:0.83;
#TITLE:EMERALDAS;
#SUBTITLE:;
#ARTIST:HuΣeR vs dj Hellix;
#TITLETRANSLIT:;
#SUBTITLETRANSLIT:;
#ARTISTTRANSLIT:;
#GENRE:IRREGULAR DJENT STEP;
#ORIGIN:;
#CREDIT:;
#BANNER:banner.png;
#BACKGROUND:background.png;
#PREVIEWVID:;
#JACKET:jacket.png;
#CDIMAGE:;
#DISCIMAGE:;
#LYRICSPATH:;
#CDTITLE:;
#MUSIC:EMERALDAS.ogg;
#OFFSET:0.740000;
#SAMPLESTART:26.532726;
#SAMPLELENGTH:16.363636;
#SELECTABLE:YES;
#BPMS:0.000=88.000,
20.000=176.000,
124.000=88.000,
140.000=176.000;
#STOPS:;
#DELAYS:;
#WARPS:;
#TIMESIGNATURES:0.000=4=4;
#TICKCOUNTS:0.000=4;
#COMBOS:0.000=1;
#SPEEDS:0.000=1.000=0.000=0;
#SCROLLS:0.000=1.000;
#FAKES:;
#LABELS:0.000=Song Start;
#BGCHANGES:;
#KEYSOUNDS:;
#ATTACKS:
;

//---------------dance-single - ----------------
#NOTEDATA:;
#CHARTNAME:;
#STEPSTYPE:dance-single;
#DESCRIPTION:;
#CHARTSTYLE:;
#DIFFICULTY:Hard;
#METER:15;
#RADARVALUES:0.754791,0.905971,0.168718,0.310796,0.541673,595.000000,576.000000,19.000000,35.000000,0.000000,0.000000,10.000000,0.000000,0.000000,0.754791,0.905971,0.168718,0.310796,0.541673,595.000000,576.000000,19.000000,35.000000,0.000000,0.000000,10.000000,0.000000,0.000000;
#CREDIT:Pandemonium X;
#NOTES:
0000
0000
0000
0000
,
0000
0000
0000
0000
,
0000
0000
0000
0000
,
1000
0000
0001
0010
0002
0000
0000
0000
0000
0000
0000
0000
0000
0000
0000
0000
,
0103
0000
0001
0100
0002
0000
0000
0000
0020
0000
0000
0000
0000
0000
0000
0033
,
0100
0000
1000
0000
0010
0100
0010
0100
0010
0000
0100
0001
1000
0000
0100
0000
,
0010
0100
1000
0002
0000
2000
0000
3003
,
1000
0000
0001
0000
0010
0100
0010
0100
0010
0000
0100
1000
0010
0000
0100
0000
,
0001
1000
0010
0200
0000
0020
0000
0330
,
1000
0000
0001
0000
0010
0001
0010
0001
0010
0000
0100
1000
0010
0000
0100
0000
,
0001
1000
0100
0001
0100
0010
0001
1000
,
0010
0100
0010
0100
0001
1000
0001
1000
0010
0100
0001
1000
0010
0100
0001
1000
,
0001
0010
0000
0000
0010
0100
0000
0000
0100
1000
0000
0000
1000
0010
0000
0000
,
0100
0100
0001
0010
0100
0100
1000
0010
,
0100
0000
0100
0000
0010
0000
1000
0000
0001
0000
1000
0001
1000
0000
0000
0000
,
0001
0000
0100
0000
0010
0100
0010
0100
0001
0000
1000
0100
0010
0000
0100
0000
,
1000
0010
0001
0010
0200
0000
0302
0000
,
0013
0000
0100
0000
1000
0100
1000
0100
1000
0000
0100
0010
0001
0000
1000
0000
,
0040
0100
0430
0001
0304
1000
4003
0100
,
3100
0000
0010
0000
0100
0010
0100
0010
0100
0000
0010
0001
1000
0000
0010
0000
,
0100
0001
0010
0100
2000
0000
3001
0000
,
0021
0000
0130
0010
0001
1000
0100
0010
,
0001
1000
0000
0000
0010
0100
0000
0000
0001
1000
0000
0000
0010
0100
0000
0000
,
0001
0000
1000
0000
0100
0010
0100
1000
0001
0000
1000
0001
0010
0000
0000
0000
,
0100
0010
0001
0010
0100
0010
0001
1000
,
0010
0000
0100
0000
0001
0100
0001
0010
0001
0000
0010
0100
1000
0000
0000
0000
,
0004
0100
0403
0010
0340
1000
4030
0001
,
3001
0000
1000
0000
0100
1000
0010
1000
0001
0000
0010
0100
1000
0000
0000
0000
,
0001
0100
1000
0100
0010
0100
0001
1000
,
1002
0000
0013
0010
0001
0001
1000
1000
,
0001
0100
0010
0000
1000
0010
0100
0000
0001
0010
0100
0000
0010
0001
1000
0000
,
2100
0000
3001
0000
0100
0001
0010
0100
0000
0000
0010
0000
0100
0010
0100
1000
,
0001
0000
1000
0000
0001
0010
0001
1000
0000
0001
0100
1000
0100
0001
0010
0100
,
1000
0000
0001
0000
1000
0010
1000
0001
0000
1000
0100
1000
0001
0100
0001
1000
,
0001
0020
0000
0130
2000
0000
3010
0200
0000
0310
2000
0000
3001
0000
1001
0000
,
0110
0100
0010
1000
0001
0010
0100
2000
,
0100
0010
0001
3100
,
1000
0000
1010
0000
0010
0100
0001
0020
,
0100
0001
0100
0031
,
1000
0000
0110
0000
0010
0100
0001
2000
,
0010
0001
0010
3001
,
0200
0000
0000
0000
0310
1000
0010
0000
1000
0100
0010
0100
1000
0000
0001
0000
,
1000
0100
0000
0000
0100
0010
0000
0000
0020
0001
0000
0000
0100
0000
0000
0000
,
0032
0000
0000
0000
0000
0000
0000
0000
1003
0000
0000
1000
0000
0000
1000
0000
,
0000
0000
0100
0010
0100
0000
1000
0000
0010
0000
0200
0000
0000
0000
0000
0000
,
0301
0000
0010
0100
1000
0000
0010
0000
0100
0000
0010
0000
0001
0000
0100
0000
,
0010
1000
0001
0200
0000
0000
0000
0000
,
0310
0010
1000
0001
0010
0010
0100
0010
,
0001
0001
1000
0001
0100
0100
0010
1000
,
0100
0010
0001
0010
0100
0010
0001
1000
0100
0010
0100
1000
0100
0010
0100
1000
,
0001
0100
0001
0020
0000
0000
0000
0000
,
0130
0100
1000
0010
0100
0100
0010
1000
,
0001
0000
0001
0000
0010
0000
0100
0000
0010
0000
0001
1000
0001
0000
0000
0000
,
1001
0000
1000
0000
0001
0400
0001
0300
0001
0000
0010
0000
0100
4000
0100
0000
,
0100
0000
0100
0000
0100
0000
0100
3000
0100
0000
0001
0000
0100
0000
0010
0000
,
0002
0000
0000
1003
0010
0001
0010
1000
0100
0001
0100
0010
,
0001
0000
0000
0000
0010
0000
0000
0000
0100
0000
0000
0000
0010
0000
0000
0000
0001
0000
0000
0000
1000
0000
0000
0000
0010
0000
0000
0000
0100
0000
0000
0000
0001
0000
0000
0000
0100
0000
0000
0001
0000
0000
1000
0000
0000
0000
0000
0000
,
1001
0000
0001
0000
1000
0010
1000
0010
1000
0000
0100
0010
0001
0000
1000
0000
,
0001
0100
1000
0100
0010
0100
0001
0010
,
0120
0000
0031
0010
0100
1000
0001
0010
,
0100
0010
0000
0000
0010
0001
0000
0000
0001
0100
0000
0000
0010
1000
0000
0000
,
1002
0000
0000
0000
0103
0000
0001
0010
0100
0000
0000
0010
0000
0000
0001
0000
,
2001
0000
0010
0000
3001
0010
1000
0010
,
0012
0000
0000
0000
0103
0000
0010
1000
0100
0000
0000
0000
0110
0000
0000
0000
,
2100
0000
0000
0000
3010
0000
0100
0010
1000
0001
0010
0100
0010
1000
0001
0000
,
1000
0000
0000
0000
1200
0000
0000
0000
0310
0000
0000
0100
0000
0000
1000
0000
,
1020
0130
0110
0001
,
1020
0000
0130
0100
0001
0001
1000
1000
,
0100
0010
0001
0000
0010
0100
1000
0000
0010
0100
0001
0000
1000
0010
0100
0000
,
0001
1000
0010
1000
0001
0010
0100
1000
,
0001
1000
0010
1000
0001
0010
0100
1000
,
0001
1000
0010
1000
0001
0010
0100
1000
,
0001
1000
0010
1000
0001
0010
0100
1000
;

//---------------dance-single - ----------------
#NOTEDATA:;
#CHARTNAME:;
#STEPSTYPE:dance-single;
#DESCRIPTION:;
#CHARTSTYLE:;
#DIFFICULTY:Medium;
#METER:12;
#RADARVALUES:0.490931,0.710613,0.230877,0.541673,0.173158,387.000000,361.000000,26.000000,61.000000,0.000000,0.000000,0.000000,0.000000,0.000000,0.490931,0.710613,0.230877,0.541673,0.173158,387.000000,361.000000,26.000000,61.000000,0.000000,0.000000,0.000000,0.000000,0.000000;
#CREDIT:Pandemonium X;
#NOTES:
0000
0000
0000
0000
,
0000
0000
0000
0000
,
0000
0000
0000
0000
,
2000
0002
0000
3003
,
0200
0020
0000
0330
,
1000
0000
0001
0100
0001
0000
0100
0000
,
0010
0000
1000
0200
0000
0020
0000
0330
,
0100
0000
1000
0001
1000
0000
0001
0000
,
0010
0000
0100
0020
0000
0002
0000
0033
,
0010
0000
0100
1000
0010
0000
0100
0000
,
0001
0000
1000
0002
0000
0020
0000
0033
,
0001
0010
0100
1000
0100
0010
0100
1000
,
1001
0110
1001
0110
,
2000
0000
3020
0000
,
0230
0000
0302
0010
,
1003
0000
0001
0001
1000
0000
0010
0000
,
1000
0000
0010
0100
0000
0001
0000
0010
,
0100
0000
0010
0010
0001
0000
0010
0000
,
0200
0000
0000
1300
0020
0000
0000
0130
0002
0000
0000
1003
0020
0000
0000
0000
,
0130
0000
0001
0001
0010
0000
0100
0000
,
0010
0000
0001
0010
0000
0100
0000
1000
,
1002
0000
0103
0001
0100
0001
1000
0010
,
1010
0101
0011
0110
,
0100
0000
0001
0100
1000
0000
0010
0000
,
0100
0000
0001
1000
0000
0100
0000
1000
,
0010
0001
0010
0100
0010
1000
0001
0000
,
2000
0000
0000
3001
0020
0000
0000
0130
2000
0000
0000
3001
0200
0000
0000
0000
,
0310
0000
1000
0001
0010
0000
0100
0000
,
0010
0001
0100
0001
0000
1000
0000
0001
,
0021
0000
0130
0010
0001
1000
0100
0010
,
0110
1100
1010
0101
,
0001
0000
1000
0000
0100
1000
0010
0100
0000
0000
0010
0000
0100
0010
1000
0001
,
0000
0000
0010
0000
0100
0010
0100
1000
0000
0000
0010
0000
0100
0000
1000
0000
,
0000
0000
0001
0000
0100
0001
1000
0100
0000
0000
0010
0000
0100
0000
1000
0000
,
0001
0100
0000
0010
1000
0000
1000
0100
0000
0010
0001
0000
1000
0001
0100
0010
,
1000
0000
0011
0000
0010
0100
1000
0020
,
0000
0000
0000
0000
,
0130
0000
0101
0000
0001
1000
0001
0020
,
0000
0000
0000
0000
,
0130
0000
0011
0000
0010
0001
1000
0020
,
0000
0000
0000
0000
,
0230
0000
0301
1000
0100
1000
0001
0010
,
0200
0000
0000
0000
0020
0000
0000
0330
,
2002
0000
0000
0000
3000
0000
0000
0000
1003
0000
0000
1000
0000
0000
2000
0000
,
0000
3100
1000
0010
0100
0002
0000
1003
,
0001
0010
0001
1000
,
0010
1000
0010
0200
0000
0000
0000
0000
,
0310
1000
0010
0000
0100
0000
0001
0000
,
0010
0100
0010
0000
0100
0000
1000
0000
,
0001
0100
1000
0100
0010
1000
0001
0010
,
1000
0010
0001
2000
0000
0000
0000
0000
,
3002
0000
0203
0000
,
0320
0000
2030
0001
,
3010
0000
0000
0100
0000
0000
0001
0000
1000
0000
0000
0000
0100
0000
0100
0000
,
0100
0100
0100
0100
0100
0010
0001
0000
,
1002
0000
0000
1003
0000
0010
2000
0000
3100
0020
0000
0031
,
2000
0000
3010
0200
0000
0310
2000
0000
3100
0020
0000
0031
,
1000
0100
0010
0010
0010
0000
0100
0000
,
1000
0000
0000
0001
0000
0000
0010
0000
0001
0000
0000
0000
0100
0000
0000
0000
,
2010
0000
3100
0010
0001
0010
0100
1000
,
0001
1010
0101
0011
,
0110
0000
0000
0000
0000
0000
0100
1000
0100
0000
0000
1000
0000
0000
0001
0000
,
1000
0000
0000
0000
0010
1000
0010
0100
,
0001
0000
0000
0000
0000
0000
0010
0100
0010
0000
0000
0000
0100
0000
0000
0000
,
1000
0000
0000
0001
0010
1000
0010
0001
,
0100
0000
0000
0000
0001
0000
0000
0000
0010
0000
0000
0001
0000
0000
0100
0000
,
0001
0000
0000
0000
1000
0000
0000
0000
0100
0000
0000
1000
0000
0000
0010
0000
,
0210
0000
0301
1000
0001
1000
0001
1000
,
0001
0010
0000
0000
0010
0100
0000
0000
0100
1000
0000
0000
1000
0010
0000
0000
,
0201
0320
2030
3001
,
0020
0230
2300
3010
,
0200
0302
0023
0130
,
0200
0320
0032
1003
;

//---------------dance-single - ----------------
#NOTEDATA:;
#CHARTNAME:;
#STEPSTYPE:dance-single;
#DESCRIPTION:;
#CHARTSTYLE:;
#DIFFICULTY:Easy;
#METER:8;
#RADARVALUES:0.342510,0.453762,0.106559,0.337436,0.008880,270.000000,258.000000,12.000000,38.000000,0.000000,0.000000,0.000000,0.000000,0.000000,0.342510,0.453762,0.106559,0.337436,0.008880,270.000000,258.000000,12.000000,38.000000,0.000000,0.000000,0.000000,0.000000,0.000000;
#CREDIT:Pandemonium X;
#NOTES:
0000
0000
0000
0000
,
0000
0000
0000
0000
,
0000
0000
0000
0000
,
1000
0100
0020
0000
0000
0000
0000
0000
,
0130
0010
0002
0000
2000
0000
0003
0000
,
3001
1000
0010
1000
,
0100
1000
0010
0100
,
0001
0010
0100
0010
,
0001
1000
0010
0100
,
0001
0001
1000
0010
,
0100
0100
0010
1000
,
0010
0100
0001
1000
0200
0000
0000
0000
,
0000
0000
0000
0000
,
0310
0000
0001
0000
,
1000
0000
0010
0000
,
0100
0000
0001
0100
0001
0000
0100
0000
,
0001
1000
0100
0010
,
0100
0000
1000
0010
1000
0000
0010
0000
,
2000
3020
0230
0302
,
0013
0000
0100
1000
0100
0000
1000
0000
,
0001
0010
0001
0100
,
0020
1030
0100
0010
,
0011
0011
1100
1100
,
0001
0000
1000
0001
0010
0000
0100
0000
,
0010
0001
0100
0010
,
1000
0100
0010
0001
1000
0000
0001
0000
,
0200
0302
0023
0230
,
0310
0000
0001
1000
0001
0000
0100
0000
,
0001
0010
0100
0010
,
0002
1003
0100
0010
,
0011
1100
0011
1100
,
0001
0000
0100
0000
0010
1000
0010
0000
,
1000
0000
0001
0000
0010
0100
0010
0000
,
0100
0000
1000
0000
0001
0100
0001
0000
,
1000
0000
0000
0100
0000
0000
0010
0000
0000
0001
0000
0000
0100
0000
0010
0000
,
1000
0000
0001
0000
1000
0000
0010
0200
,
0000
0000
0000
0000
,
0300
0000
0010
0000
1000
0000
0001
0020
,
0000
0000
0000
0000
,
0030
0000
0100
0000
0010
0000
0001
2000
,
0000
0000
0000
0000
,
3002
0103
0001
0010
,
0100
0000
0000
0000
0010
0000
0000
0000
2002
0000
0000
0000
0000
3003
0000
0000
,
0020
0000
0130
0100
,
0100
0000
0100
0000
0100
0020
0000
1030
,
0001
0010
0100
0010
,
0001
1000
0001
0200
0000
0000
0000
0000
,
0301
0010
0001
1000
,
0100
1000
0010
0100
,
0001
1000
0100
1000
,
0001
1000
0001
0020
0000
0000
0000
0000
,
0130
0000
0000
0000
,
0000
0000
0000
0000
,
1000
0000
0001
0100
0010
0000
1000
0001
,
1000
0001
1000
0001
1000
0000
0100
0000
,
0020
0032
0203
0320
,
2030
3002
0023
0230
,
1300
0000
0001
0100
0001
0000
0100
0000
,
0010
1000
0100
0010
,
0200
0310
0001
1000
,
0010
0100
0001
1000
,
1001
0000
0000
0001
0010
0000
0100
0000
,
1100
0000
0100
1000
,
0010
0000
0000
1000
0010
0000
0100
0000
,
0101
0000
0001
0010
,
0100
0000
0010
0000
0001
0100
0001
0000
,
0100
0000
0010
0000
1000
0010
1000
0000
,
0200
0310
0100
1000
,
0001
0100
1000
0100
,
0002
0000
0000
0000
,
2003
0000
0000
0000
,
3020
0000
0000
0000
,
0230
0000
0000
0000
,
0300
0000
0000
0000
;

//---------------dance-single - ----------------
#NOTEDATA:;
#CHARTNAME:;
#STEPSTYPE:dance-single;
#DESCRIPTION:;
#CHARTSTYLE:;
#DIFFICULTY:Beginner;
#METER:6;
#RADARVALUES:0.163644,0.518586,0.097679,0.044399,0.000000,129.000000,118.000000,11.000000,5.000000,0.000000,0.000000,0.000000,0.000000,0.000000,0.163644,0.518586,0.097679,0.044399,0.000000,129.000000,118.000000,11.000000,5.000000,0.000000,0.000000,0.000000,0.000000,0.000000;
#CREDIT:Pandemonium X;
#NOTES:
0000
0000
0000
0000
,
0000
0000
0000
0000
,
0000
0000
0000
0000
,
0000
0000
0000
0000
,
0000
0000
0010
0000
,
0100
0000
0100
0000
,
0100
0000
0000
0000
,
0001
0000
0001
0000
,
0001
0000
0000
0000
,
1000
0000
1000
0000
,
1000
0000
0000
0000
,
0010
0000
0010
0000
,
0100
0100
0100
0100
,
0010
0000
0000
0000
,
0000
0000
0000
0000
,
1000
0000
0001
0000
,
0000
0000
0100
0000
,
0010
0000
1000
0000
,
0100
0100
0100
0100
,
0010
0000
0001
0000
,
1000
0000
0000
0000
,
0010
1001
0000
0000
,
0001
0001
0001
0000
,
1000
0000
0001
0000
,
0100
0000
0000
0000
,
0010
0000
1000
0000
,
0100
0100
0100
0100
,
0000
0000
0010
0000
,
0001
0000
0000
0000
,
1000
0110
0000
0000
,
0010
0000
0010
0000
,
1000
0000
0000
0000
,
0001
0000
0000
0000
,
0010
0000
0000
0000
,
0100
0000
1000
0000
,
0010
0000
1000
0000
,
0002
0000
0000
0000
,
0003
0000
1000
0000
,
0020
0000
0000
0000
,
0030
0000
0100
0000
,
0002
0000
0000
0000
,
0003
1000
0000
0000
,
0001
0000
0010
0000
,
0100
0000
0000
0000
,
0010
0000
0000
0000
,
0001
0000
0000
0000
,
1000
0000
0000
0000
,
0010
0000
0000
0000
,
1000
0000
0000
0000
,
0001
0000
1000
0000
,
0010
0000
0100
0000
,
1001
0000
0000
0000
,
0000
0000
0000
0000
,
1000
0001
0000
0100
,
0100
0100
0100
0000
,
0010
0110
1001
0110
,
1001
0110
1001
0110
,
0010
0010
0010
0000
,
0100
0000
0001
0000
,
0000
0001
0000
0000
,
0000
1000
0001
0100
,
0010
0000
1000
0000
,
0100
0000
0000
0000
,
1000
0000
0001
1000
,
0001
0000
0100
0000
,
0010
0000
1000
0000
,
0010
0000
0100
0000
,
0001
0110
0000
0000
,
0010
0010
0010
0010
,
2000
0000
0000
0000
,
0000
0000
0000
0000
,
0000
0000
0000
3000
,
0002
0000
0000
0000
,
0003
0000
0000
0000
;

//---------------dance-single - ----------------
#NOTEDATA:;
#CHARTNAME:;
#STEPSTYPE:dance-single;
#DESCRIPTION:;
#CHARTSTYLE:;
#DIFFICULTY:Challenge;
#METER:17;
#RADARVALUES:0.862618,1.101051,0.319676,0.559433,0.896869,680.000000,644.000000,36.000000,63.000000,0.000000,0.000000,26.000000,0.000000,0.000000,0.862618,1.101051,0.319676,0.559433,0.896869,680.000000,644.000000,36.000000,63.000000,0.000000,0.000000,26.000000,0.000000,0.000000;
#CREDIT:Pandemonium X;
#NOTES:
// measure 0
0000
0000
0000
0000
,  // measure 1
0000
0000
0000
0000
,  // measure 2
0000
0000
0000
0000
,  // measure 3
1000
0000
0001
0010
0100
0020
0000
0000
0000
0000
0000
0000
0000
0000
0000
0000
,  // measure 4
0130
0000
1000
0001
1000
0200
0000
0000
0020
0000
0000
0000
0000
0000
0330
0000
,  // measure 5
0100
0000
1000
0000
0010
1000
0100
1000
0001
0000
1000
0001
1000
0000
0001
0000
,  // measure 6
0100
0001
0010
0200
0000
2000
0000
3300
,  // measure 7
0100
0000
0010
0000
0001
0010
0001
0100
0001
0000
1000
0001
0100
0000
0010
0000
,  // measure 8
1000
0100
0010
0100
1000
0000
0002
0000
0000
0000
2000
0000
0000
0000
3003
0000
,  // measure 9
0001
0100
0001
0000
0100
0010
0100
0000
0010
1000
0010
0000
1000
0100
1000
0000
,  // measure 10
0100
0010
0100
0000
0010
0001
0010
0000
0001
0100
0001
0000
0100
0010
0100
0000
,  // measure 11
0010
1000
0010
1000
0001
0100
0001
0100
0001
0010
0001
0010
0100
1000
0100
1000
,  // measure 12
0001
0100
1000
0000
1000
0100
0001
0000
0001
0010
1000
0000
1000
0010
0001
0000
,  // measure 13
1000
1000
0001
0010
0100
0100
0010
0001
,  // measure 14
0100
0000
0100
0000
0010
0000
1000
0000
0001
0000
0010
0100
1100
0000
0000
0000
,  // measure 15
0200
0000
0320
0000
0130
1000
0010
0100
0001
0000
1000
0001
0100
0000
0001
0000
,  // measure 16
0010
0100
0010
0002
0000
0203
0000
0310
,  // measure 17
2000
0000
3002
0000
0013
0100
0010
0001
1000
0000
0001
0100
0010
0000
1000
0000
,  // measure 18
0004
0100
0000
0103
0040
1000
0000
1030
0004
0010
0000
0013
0400
1000
0000
1300
,  // measure 19
0002
0000
0023
0000
0130
0010
0001
1000
0010
0000
0100
0010
1000
0000
0001
0000
,  // measure 20
0010
0100
0010
0002
0000
0203
0000
0310
,  // measure 21
4004
0000
0000
3003
0210
0000
0310
0000
0120
0000
0130
0000
0210
0000
0310
0000
,  // measure 22
0100
0001
0010
0000
0100
1000
0010
0000
0100
0001
0010
0000
0100
1000
0010
0000
,  // measure 23
0102
0000
0013
0000
0100
1000
0100
1000
0100
0000
0100
1000
0010
0000
0000
0000
,  // measure 24
0100
0000
0000
0001
0000
0000
0010
0000
0100
0000
2000
0000
0000
0000
0000
0000
,  // measure 25
3002
0000
0023
0000
2030
0000
3020
0000
0230
0000
0310
0001
0100
0000
0010
0000
,  // measure 26
4000
0001
0000
3001
0400
0010
0000
0310
4000
0010
0000
3010
0400
0001
0000
0301
,  // measure 27
0010
0000
0100
0000
0010
0001
0100
0001
1000
0000
0001
1000
0100
0000
0000
0000
,  // measure 28
0010
0100
1000
0020
0000
0230
0000
0301
,  // measure 29
4040
3030
0201
0301
0102
0103
0201
0301
,  // measure 30
0001
0010
1000
0000
1000
0010
0001
0000
0001
0100
1000
0000
1000
0100
0001
0000
,  // measure 31
1200
0000
0310
0000
0100
1000
0010
0210
0000
0000
0310
0000
1000
0100
0010
0001
,  // measure 32
0021
0000
0000
0000
0130
0000
0000
0000
0010
0000
0001
0000
1000
0000
1002
0000
0000
0000
0103
0000
0001
0000
0100
0000
0010
1000
0010
1000
0010
0000
1000
0000
,  // measure 33
0100
0000
0210
0000
0310
0001
1000
2001
0000
0000
3010
0000
0100
0001
0010
0100
,  // measure 34
1000
0000
1000
0000
0001
0000
0010
0000
0010
0000
0100
0000
0010
0000
0010
0000
0001
0000
0100
0000
0100
0000
0010
0000
1000
0001
1000
0001
0100
0010
0100
0010
,  // measure 35
1000
0100
0001
0100
1000
0010
0100
2001
,  // measure 36
0010
0100
0010
3100
,  // measure 37
0100
0010
0001
0100
0010
1000
0001
0021
,  // measure 38
0100
0001
0100
0031
,  // measure 39
0010
0100
1000
0010
0100
0001
0010
2001
,  // measure 40
0100
0010
0100
3010
,  // measure 41
0440
0000
0330
0000
0001
1000
0001
0100
0001
0010
0100
0010
0001
0000
0000
0000
,  // measure 42
1000
0100
0010
0001
1000
0100
0010
0001
2000
0000
0000
0000
0000
0000
0000
0000
,  // measure 43
3020
0000
0000
0000
0000
0000
0000
0000
0200
0000
0300
0200
0000
0300
0200
0000
,  // measure 44
0300
0030
0000
0010
1000
0000
0100
0000
0001
0000
0200
0000
0000
0000
0300
0000
,  // measure 45
0010
0000
0100
0010
0001
0000
1000
0000
0010
0000
1000
0000
0001
0000
0010
0000
,  // measure 46
0100
0010
0001
2000
0000
0000
0000
0000
,  // measure 47
3001
0100
0001
0100
0010
1000
0010
1000
0001
0010
0001
0010
0100
1000
0100
1000
,  // measure 48
0001
1000
0001
1000
0010
0100
0010
0100
0001
0100
0001
0100
0010
1000
0010
1000
,  // measure 49
0001
1000
0010
0100
0001
0010
0100
0010
0001
0100
0010
1000
0001
0010
0100
0010
,  // measure 50
0001
0000
0000
1000
0001
1000
0001
0000
0000
0021
0000
0000
0000
0000
0000
0000
0000
0000
0000
0000
0000
0000
0000
0000
,  // measure 51
0130
0000
0000
1000
0000
0000
0100
0000
0000
0010
0000
0000
0001
0000
0000
0100
,  // measure 52
0000
0000
0000
0000
0000
0000
0010
0000
0000
0000
0000
0000
0000
0000
0000
1000
0000
0000
0000
0000
0000
0000
0000
0000
0001
0000
0000
0000
0000
0000
1000
0000
0000
0001
0000
0000
1000
0000
0000
0000
0010
0000
0000
0000
1000
0000
0000
0000
,  // measure 53
0001
0000
0010
0000
0400
1000
0000
1000
0300
0000
1000
0000
0040
0001
0000
0100
,  // measure 54
0000
0001
0000
0100
0000
0001
0000
0100
0030
0000
0100
0010
0100
0000
0001
1000
,  // measure 55
0002
0000
0000
0000
1003
0000
0400
0000
0001
0300
0100
0000
0040
0000
1000
0030
0010
0000
0400
0000
0001
0300
0010
0000
,  // measure 56
4000
0000
0000
0000
0010
0000
3000
0000
0100
0000
0000
0000
4000
0000
0000
0000
0010
0000
3000
0000
0100
0000
0000
0000
0004
0000
0000
0000
0010
0000
0003
0000
0100
0000
0000
0000
0010
0000
0000
0001
0000
0000
0100
0000
0000
0001
0000
0000
,  // measure 57
1000
0000
0100
0000
0010
0100
0010
0001
1000
0000
0001
0100
0001
0000
0010
0000
,  // measure 58
0100
0010
0001
1000
0010
0001
0010
0100
,  // measure 59
0404
0303
1020
1030
2010
3010
1020
1030
,  // measure 60
0001
0010
1000
0000
1000
0010
0001
0000
0001
0100
1000
0000
1000
0100
0010
0000
,  // measure 61
1020
0000
0000
0000
0130
0000
0010
1000
0001
0000
0000
1001
0000
0000
1000
0000
,  // measure 62
1200
0000
0310
0000
0100
0010
0001
0010
,  // measure 63
0210
0000
0000
1300
0000
0000
0100
1000
1020
0000
0000
0000
0100
0000
0000
0000
,  // measure 64
2030
0000
0000
0000
3001
0010
0100
0010
0001
1000
0010
0100
0001
0010
0100
1000
,  // measure 65
0001
0000
1000
0000
1020
0000
0000
0000
0130
0000
0000
0001
0000
0000
0010
0000
,  // measure 66
0210
0000
0000
0000
1300
0000
0000
0000
0100
0000
0000
1000
0000
0000
0010
0000
,  // measure 67
4004
0000
0000
3003
0210
0000
0310
0000
0120
0000
0130
0000
0210
0000
0310
0000
,  // measure 68
0100
0010
1000
0000
0001
0010
0100
0000
0010
0001
1000
0000
0010
0100
0001
0000
,  // measure 69
1000
0001
0100
0001
1000
0100
0010
0001
,  // measure 70
1000
0001
0100
0001
1000
0100
0010
0001
,  // measure 71
1000
0001
0100
0001
1000
0100
0010
0001
,  // measure 72
1000
0001
1000
0001
1000
0001
1000
0001
1000
0001
1000
0001
1000
0001
1000
0001
;
