#TITLE:Duality;
#SUBTITLE:;
#ARTIST:Yvya;
#TITLETRANSLIT:;
#SUBTITLETRANSLIT:;
#ARTISTTRANSLIT:;
#GENRE:GOTHIC METAL;
#CREDIT:;
#BANNER:banner.png;
#BACKGROUND:background.png;
#LYRICSPATH:;
#CDTITLE:cdtitle.png;
#MUSIC:Duality.ogg;
#OFFSET:-1.237001;
#SAMPLESTART:41.658051;
#SAMPLELENGTH:12.631580;
#SELECTABLE:YES;
#BPMS:0.000000=190.000000
;
#STOPS:
;
#BGCHANGES:;
#KEYSOUNDS:;
#ATTACKS:;

//---------------dance-single - ----------------
#NOTES:
     dance-single:
     :
     Hard:
     15:
     0.726197,0.936903,0.313998,0.152756,0.343701,599.000000,562.000000,37.000000,18.000000,32.000000,0.000000,0.726197,0.936903,0.313998,0.152756,0.343701,599.000000,562.000000,37.000000,18.000000,32.000000,0.000000:
0000
0000
0000
0000
,
0000
0000
0000
0000
,
0000
0000
0000
0000
,
0000
0000
0000
0000
,
0000
0000
0000
0000
,
0000
0000
0000
0000
,
0010
0000
0100
0000
,
0001
0000
1000
0000
,
0001
0000
0100
0000
1000
0000
0100
0000
0010
0000
1000
0010
1000
0010
0100
0001
,
0100
0010
1000
0100
1000
0001
0100
0001
,
1000
0000
0010
0000
0001
0000
0010
0000
1000
0000
0010
0100
0010
0100
0001
0010
,
0100
0010
0001
1000
0010
1000
0100
0010
,
0001
0000
0010
0000
1000
0000
0010
0000
0100
0000
0010
0001
0010
0001
0100
0010
,
0100
0001
0010
0001
0100
0010
1000
0100
,
0010
0100
1000
0100
0001
0100
0010
0001
,
0010
1000
0010
0001
0010
0100
1000
0001
,
0100
0100
0001
0010
1100
0000
0000
0000
,
1000
1000
0100
0010
0001
0010
1000
0010
,
0001
0001
0100
0010
1010
0000
0000
0000
,
0010
0010
0100
0001
0010
1000
0010
0001
,
0100
0100
0001
0010
0011
0000
0000
0000
,
0010
0010
0100
0010
0001
1000
0010
0100
,
0010
0010
1000
0100
1000
1000
0100
0010
,
0100
0100
0010
0001
1000
1000
0001
0100
,
0010
1000
0001
0010
0001
1000
0100
0010
,
0100
1000
0001
0100
0001
0010
0100
0010
,
0011
0000
0000
1100
0000
0000
0101
0000
,
0000
0000
0000
1010
0000
0000
0000
0000
0000
0000
0000
0000
1000
0000
0100
0000
0010
0000
0100
0000
1000
0000
0001
0000
,
0100
0010
1000
0010
0001
0010
0100
0001
,
0010
1000
0010
0100
1000
0100
1000
0001
,
0101
0000
0000
0011
0000
0000
1100
0000
,
0000
0000
0000
1010
0000
0000
0000
0000
0000
0000
0000
0000
1000
0000
0001
0000
0010
0000
0100
0000
0010
0000
0001
0000
,
1000
0000
0100
0000
0010
0000
0100
0000
1000
0000
0001
0100
0001
0100
0001
0100
,
0001
0010
0001
0100
0010
1000
0001
0010
,
0100
0010
0001
1000
0010
1000
0001
0010
,
0100
0000
0010
0000
0001
0000
0100
0000
0010
0000
1000
0100
1000
0100
1000
0100
,
1000
0100
0010
0100
1000
0001
0100
0001
,
0010
0100
0010
0001
1000
0010
1000
0100
,
0010
0000
0001
0000
0010
0000
1000
0000
0010
0000
0100
1000
0100
1000
0100
1000
,
0100
0001
0100
0010
0001
0010
0100
0010
,
0001
0100
1000
0100
0010
1000
0010
0100
,
0001
0000
0010
0000
0100
0000
1000
0000
0100
0000
0010
0001
0010
0001
0010
0001
,
0010
1000
0010
0001
0100
1000
0100
0010
,
1000
0010
0100
0001
0010
0100
0010
0001
,
2000
3020
0230
0302
,
0013
1000
0010
0100
2000
0000
3100
0001
,
0100
0000
0000
0010
0000
0000
0002
0000
0000
0000
0000
0000
0203
0000
0000
0000
0000
0000
0301
0000
1000
0000
0001
0000
,
0200
0000
0000
0000
,
0000
0000
0000
0000
,
03M0
00M0
M000
000M
00M0
M000
00M0
000M
,
0M00
00M0
M000
000M
00M0
0M00
00M0
000M
,
1001
0000
0000
0011
0000
0000
0101
0000
,
0000
0000
0000
1010
0000
0000
0000
0000
0000
0000
0000
0000
1000
0000
0010
0000
0001
0000
0010
0000
1000
0000
0100
0000
,
M010
M000
0M00
000M
0M00
00M0
000M
0M00
,
00M0
M000
000M
00M0
0M00
00M0
000M
M000
,
1010
0000
0000
0011
0000
0000
1100
0000
,
0000
0000
0000
0101
0000
0000
0000
0000
0000
0000
0000
0000
0001
0000
0010
0000
1000
0000
0010
0000
0100
0000
1000
0000
,
0001
0001
1000
0010
0100
0100
0010
1000
,
0001
0010
1000
0010
0100
0001
0100
1000
,
1001
0000
0000
1010
0000
0000
1001
0000
,
0000
0000
0000
0011
0000
0000
0000
0000
0000
0000
0000
0000
0010
0000
0001
0000
0100
0000
0010
0000
0100
0000
0001
0000
,
1000
1000
0100
0001
0100
0100
0010
0001
,
0100
0100
0010
1000
0001
0001
0010
1000
,
1010
0100
0010
0001
,
0100
0000
0000
0010
0000
0000
1000
0100
0010
0001
1000
0100
,
0020
0000
0130
2000
0000
3010
0200
0000
,
0000
0000
0310
1000
0001
0000
0010
0000
0001
0000
1000
0000
0100
0000
0010
0000
,
0200
0000
1300
0002
0000
0103
0020
0000
,
0000
0000
0130
0001
0010
0000
0001
0000
1000
0000
0100
0000
0010
0000
0100
0000
,
2000
0000
0000
3200
0000
1300
0001
0100
,
0010
1000
0010
0100
0001
0100
0010
0100
,
0001
0001
0010
0100
0100
0010
0001
0001
,
1000
0010
0100
0001
0010
0100
0010
0001
0100
0010
1000
0001
,
0010
0000
0100
0000
1000
0000
0010
0000
0100
0000
0001
1000
0001
0010
0001
0100
,
0010
0000
0100
0000
0001
0000
1000
0000
0100
0000
0010
0100
0010
0001
0100
0001
,
0010
0100
0010
0001
1000
0010
0001
0010
,
1000
0000
0001
0010
0001
0000
1000
0000
0001
0000
0100
0000
1000
0000
0100
0000
,
0010
0000
1000
0000
0001
0000
0010
0000
0100
0000
0010
0001
0100
0010
1000
0100
,
0010
0100
1000
0001
0100
0010
1000
0100
,
0010
1000
0010
0001
0100
1000
0100
0001
,
1000
0100
0001
0100
0010
0001
0100
0010
,
1010
0000
0000
0101
0000
0000
0011
0000
,
0000
1100
0000
0000
0100
0010
0100
1000
,
1001
0000
0000
1010
0000
0000
0011
0000
,
0000
0000
0000
0101
0000
0000
0000
0000
0000
0000
0000
0000
0001
0000
0100
0000
0010
0000
1000
0000
0001
0000
0010
0000
,
0110
0000
0000
0011
0000
0000
1001
0000
,
0000
0000
1100
0000
0000
0000
0000
0000
1000
0100
0010
0100
1000
0010
0100
0001
,
1000
0000
0000
0000
,
0001
0000
0000
0100
0000
0000
0010
0000
0000
1000
0000
0000
0000
0000
0000
0000
0000
0000
1000
0000
0000
0010
0000
0000
0100
0000
0000
0001
0000
0000
0000
0000
0000
0000
0000
0000
1000
0000
0000
0000
0001
0000
0000
0000
1000
0000
0000
0000
,
2002
0000
0000
0000
,
0000
0000
0000
0000
,
0000
0000
0000
0000
,
3003
0000
0000
0000
;

//---------------dance-single - ----------------
#NOTES:
     dance-single:
     :
     Medium:
     13:
     0.546769,0.741715,0.347944,0.195188,0.203675,451.000000,410.000000,41.000000,23.000000,16.000000,0.000000,0.546769,0.741715,0.347944,0.195188,0.203675,451.000000,410.000000,41.000000,23.000000,16.000000,0.000000:
0000
0000
0000
0000
,
0000
0000
0000
0000
,
0000
0000
0000
0000
,
0000
0000
0000
0000
,
0000
0000
0000
0000
,
0000
0000
0000
0000
,
0000
0000
0000
0000
,
0000
0000
0000
0000
,
1000
0100
0010
0100
1000
0000
0001
0000
,
0100
0010
1000
0000
0001
0010
0100
0000
,
0010
0001
0100
0010
0100
0000
0010
0000
,
1000
0001
0010
0000
0100
0010
0001
0000
,
0010
1000
0010
0001
1000
0000
0010
0000
,
1000
0001
0010
0000
0100
0010
0001
0000
,
0100
0001
0010
0000
0100
1000
0010
0000
,
0001
0010
1000
0000
1000
0010
0100
0000
,
0001
1000
0001
1000
0001
0000
0000
0000
,
0001
0100
0001
0100
0001
0000
1001
0000
,
1000
0100
1000
0100
1000
0000
0000
0000
,
0001
0010
0001
0010
0001
0000
1000
0000
,
0010
0100
0010
0100
0010
0000
0000
0000
,
1000
0010
1000
0010
1000
0000
1001
0000
,
0001
0010
0100
0000
0010
0001
0100
0000
,
0010
1000
0100
0000
0010
0100
1000
0000
,
0001
1000
0100
1000
,
0010
0100
0001
0010
,
0110
0000
0000
1100
0000
0000
1010
0000
,
0000
0000
0000
0101
0000
0000
0000
0000
0000
0000
0000
0000
0001
0000
0010
0000
0001
0000
0100
0000
0010
0000
1000
0000
,
0100
0010
0100
1000
,
0001
0100
0001
0010
,
0011
0000
0000
0101
0000
0000
1010
0000
,
0000
0000
0000
1100
0000
0000
0000
0000
0000
0000
0000
0000
1000
0000
0010
0000
1000
0000
0001
0000
0100
0000
0001
0000
,
0020
0000
0032
0000
0103
0010
2000
0000
,
3001
0000
0010
0000
0200
0000
1300
0010
,
0100
0000
0002
0000
1003
0001
0010
0100
,
0010
0000
0002
0000
0203
0000
0310
1000
,
0002
0000
2003
0000
3100
0000
1000
0010
,
0200
0000
0320
0000
0130
0001
0010
0100
,
1000
0100
0010
0100
1000
0100
0010
0001
,
0010
0100
0010
0001
1000
0010
0100
0001
,
1000
0010
0100
0001
1000
0010
1000
0001
,
0010
0100
0010
0001
1000
0010
0100
0001
,
0010
0100
0010
0001
0100
0010
1000
0001
,
0010
0100
0010
0001
0100
0010
1000
0100
,
0010
0100
1000
0010
,
0100
0010
1000
0001
0010
0000
0100
0010
,
0001
0000
0000
1000
0000
0000
0001
0000
0000
0000
0000
0000
0100
0000
0000
0000
0000
0000
0010
0000
1000
0000
0100
0000
,
0020
0000
0000
0000
,
0000
0000
0000
0000
,
M030
00M0
0M00
000M
,
00M0
0M00
00M0
000M
,
1001
0000
0000
1010
0000
0000
1001
0000
,
0000
0000
0000
0011
0000
0000
0000
0000
0000
0000
0000
0000
0010
0000
0001
0000
0100
0000
0010
0000
1000
0000
0100
0000
,
001M
0M00
000M
M000
,
0M00
00M0
0M00
M000
,
1001
0000
0000
0011
0000
0000
1001
0000
,
0000
0000
0000
1100
0000
0000
0000
0000
0000
0000
0000
0000
0100
0000
0010
0000
0001
0000
1000
0000
0010
0000
0100
0000
,
0001
0010
0100
0010
,
0001
1000
0010
0100
,
1001
0000
0000
0011
0000
0000
1001
0000
,
0000
0000
0000
1010
0000
0000
0000
0000
0000
0000
0000
0000
1000
0000
0100
0000
0010
0000
0001
0000
1000
0000
0100
0000
,
0010
0100
1000
0010
,
0001
0010
0100
0001
,
2002
0000
3003
0000
,
0000
0000
0000
0000
0000
0000
0001
0010
0001
0100
0010
1000
,
0002
0000
0000
0203
0000
0000
2000
0000
,
3300
1000
0100
0001
0010
0100
0010
0001
,
2000
0000
0000
3200
0000
0000
0002
0000
,
0303
0001
0100
1000
0010
0100
0001
1000
,
0002
0000
0000
0203
0000
0000
0310
0000
,
1000
0000
0000
0100
0000
0000
0010
0001
0100
0010
1000
0001
,
0010
0100
0000
1000
0010
0000
0100
0001
,
0010
0001
0010
0001
0010
0001
1000
0100
1000
0100
1000
0100
,
1000
0001
0110
1000
,
0001
0010
1001
1000
,
0001
0010
1001
0100
,
0101
1010
1001
1100
,
0001
0000
0100
0001
0010
0000
0100
0000
,
0010
0000
0001
1000
0100
0000
1000
0000
,
0010
0100
0001
0000
1000
0100
0010
0000
,
0100
1000
0010
0100
0001
0010
0100
1000
,
1001
0000
0000
0101
0000
0000
0011
0000
,
0000
0110
0000
0000
0100
0010
0001
1000
,
1001
0000
0000
1010
0000
0000
1001
0000
,
0000
0000
0000
0101
0000
0000
0000
0000
0000
0000
0000
0000
0001
0000
0010
0000
0100
0000
0010
0000
0001
0000
1000
0000
,
0100
0000
0000
0011
0000
0000
0101
0000
,
0000
1010
0000
0000
0001
1000
0010
0100
,
0001
0000
0000
0000
,
1000
0000
0000
0001
0000
0000
1000
0000
0000
0001
0000
0000
0000
0000
0000
0000
0000
0000
0001
0000
0000
1000
0000
0000
0001
0000
0000
1000
0000
0000
0000
0000
0000
0000
0000
0000
0001
0000
0000
0000
0100
0000
0000
0000
0010
0000
0000
0000
,
2000
0000
0000
0000
,
0000
0000
0000
0000
,
0000
0000
0000
0000
,
3000
0000
0000
0000
;

//---------------dance-single - ----------------
#NOTES:
     dance-single:
     :
     Easy:
     8:
     0.408562,0.546527,0.347944,0.110324,0.000000,337.000000,296.000000,41.000000,13.000000,0.000000,0.000000,0.408562,0.546527,0.347944,0.110324,0.000000,337.000000,296.000000,41.000000,13.000000,0.000000,0.000000:
0000
0000
0000
0000
,
0000
0000
0000
0000
,
0000
0000
0000
0000
,
0000
0000
0000
0000
,
0000
0000
0000
0000
,
0000
0000
0000
0000
,
0000
0000
0000
0000
,
0000
0000
0000
0000
,
1000
0100
0010
0100
,
1000
1000
0001
0001
,
0100
0010
1000
0200
,
1300
0010
0100
0001
,
0010
0100
0010
0002
,
1003
0001
0100
0001
,
0010
0010
0100
0100
,
1000
1000
0001
0001
,
1000
0010
1000
0010
1000
0000
0000
0000
,
0001
0100
0001
0100
0001
0000
0000
0000
,
1000
0001
1000
0001
1000
0000
0000
0000
,
0010
0100
0010
0100
0010
0000
0000
0000
,
1000
0010
1000
0010
1000
0000
0000
0000
,
0001
0100
0001
0100
0001
0000
0000
0000
,
1000
0100
0010
0100
,
1000
0010
0100
0001
,
1000
0001
0100
0001
,
0010
0100
0010
0001
,
1001
0000
0000
0110
0000
0000
1010
0000
,
0000
0101
0000
0000
0012
0000
0013
0000
,
0001
0010
0001
0100
,
0010
1000
0010
0100
,
1001
0000
0000
1010
0000
0000
1001
0000
,
0000
0101
0000
0000
1002
0000
1003
0000
,
0001
1000
0010
1000
,
0100
0010
0100
1000
,
0010
0100
0001
0010
,
0100
0010
0001
0100
,
0010
1000
0001
0010
,
0001
0100
0010
1000
,
0100
1000
1000
0010
,
0100
0001
0010
0010
,
0100
0010
0010
0100
,
1000
1000
0001
1000
,
0001
0100
0001
0001
,
0010
0100
0100
0010
,
0001
0010
0100
1000
,
0100
0001
0100
1000
,
0010
0001
0010
1000
,
0002
0000
0000
0000
,
0000
0000
0000
0000
,
0003
0000
0000
0000
,
0000
0000
0000
0000
,
1001
0000
0000
1010
0000
0000
1001
0000
,
0000
0011
0000
0000
1001
0000
0110
0000
,
1001
0000
0000
0000
,
0000
0000
0000
0000
,
1001
0000
0000
0101
0000
0000
1001
0000
,
0000
1100
0000
0000
1001
0000
0110
0000
,
1001
0001
1000
0010
,
1000
0100
0001
0100
,
1100
0000
0000
0110
0000
0000
1100
0000
,
0000
0110
0000
0000
0100
0000
0010
0000
,
0001
0010
0100
0010
,
0001
1000
0010
0100
,
1001
0000
0000
0000
,
0000
0000
0001
0100
,
0020
0000
0000
2030
0000
0000
3200
0000
,
0000
1300
0100
1000
,
0020
0000
0000
0230
0000
0000
0302
0000
,
0000
0013
0100
0010
,
0002
0000
0000
1003
0000
0000
0100
0000
,
1000
0010
0100
0001
,
1000
0100
0010
0001
,
0010
0100
0010
0001
,
1000
0001
1000
0001
1000
0000
0001
0000
,
0100
0010
0100
0010
0100
0000
0010
0000
,
1000
0010
1000
0010
1000
0000
0010
0000
,
1000
0100
0010
0001
,
0010
0100
1000
0100
0010
0000
0000
0000
,
0010
0001
0010
0100
0010
0000
0000
0000
,
0100
0010
0001
0100
,
1000
0100
0010
1000
,
1001
0000
0000
1010
0000
0000
1001
0000
,
0000
0011
0000
0000
1000
0001
1000
0001
,
1001
0000
0000
0101
0000
0000
0110
0000
,
0000
1001
0000
0000
1000
0100
0010
0001
,
0110
0000
0000
1100
0000
0000
1010
0000
,
0000
0110
0000
0000
0100
0010
1000
0001
,
0100
0000
0000
0000
,
0001
0100
0000
0100
1000
0000
1000
0100
,
0020
0000
0000
0000
,
0000
0000
0000
0000
,
0000
0000
0000
0000
,
0030
0000
0000
0000
;

//---------------dance-single - ----------------
#NOTES:
     dance-single:
     :
     Beginner:
     4:
     0.184277,0.312301,0.161242,0.059405,0.000000,152.000000,133.000000,19.000000,7.000000,0.000000,0.000000,0.184277,0.312301,0.161242,0.059405,0.000000,152.000000,133.000000,19.000000,7.000000,0.000000,0.000000:
0000
0000
0000
0000
,
0000
0000
0000
0000
,
0000
0000
0000
0000
,
0000
0000
0000
0000
,
0000
0000
0000
0000
,
0000
0000
0000
0000
,
0000
0000
0000
0000
,
0000
0000
0000
0000
,
1000
0000
0000
0000
,
0010
0000
0000
0000
,
0100
0000
0000
0000
,
0001
0000
0000
0000
,
0010
0000
0000
0000
,
0001
0000
0000
0000
,
1000
0000
0000
0000
,
0010
0000
0000
0000
,
0100
0000
0100
0000
,
0010
0000
0000
0000
,
1000
0000
1000
0000
,
0001
0000
0000
0000
,
0010
0000
0010
0000
,
0100
0000
0000
0000
,
0010
0000
0001
0000
,
1000
0000
0100
0000
,
1000
0000
0000
0000
,
0010
0000
0000
0000
,
0110
0000
0000
1001
,
0000
0000
0010
0010
,
1000
0000
0000
0000
,
0001
0000
0000
0000
,
1001
0000
0000
0110
,
0000
0000
0100
0100
,
0001
0000
0000
1000
,
1000
0000
0001
0000
,
1000
1000
0000
0010
,
0010
0000
0000
0100
,
0100
0000
0010
0000
,
1000
1000
0000
0001
,
1000
0000
0000
0001
,
0100
0000
0010
0000
,
1000
0100
0000
1000
,
0100
0000
1000
0000
,
0001
1000
0001
0000
,
0100
0001
0000
0100
,
0010
0000
0000
1000
,
0000
0000
0100
0000
,
0000
0010
0000
0000
,
0002
0000
0000
0000
,
0000
0000
0000
0000
,
0003
0000
0000
0000
,
0000
0000
0000
0000
,
1001
0000
0000
0110
,
0000
0000
1000
0001
,
0110
0000
0000
0000
,
0000
0000
0000
0000
,
0110
0000
0000
1000
,
0000
0000
0110
0000
,
0010
0000
1000
0000
,
0001
0000
0000
0000
,
0010
0000
0000
0001
,
0000
0000
1000
1000
,
1000
0000
0000
0000
,
0001
0000
0000
0000
,
0110
0000
0000
0000
,
0000
0000
0010
0000
,
2000
0000
0000
0000
,
3000
0000
0001
0000
,
0200
0000
0000
0000
,
0300
0000
0010
0000
,
2000
0000
0000
3000
,
0002
0000
0000
0003
,
0100
0000
0010
0000
,
1000
0000
0001
0000
,
1000
1000
1000
0000
,
0001
0001
0001
0000
,
0100
0100
0100
0000
,
0010
0000
0100
0000
,
0001
0001
0001
0000
,
1000
1000
1000
0000
,
0010
0000
0100
0000
,
0001
0000
1000
0000
,
1001
0000
0000
0110
,
0000
0000
0010
1000
,
1001
0000
0000
0001
,
0000
0000
0010
0001
,
1001
0000
0000
0110
,
0000
0000
0100
0010
,
1001
0000
0000
0000
,
0101
0000
1010
0000
,
2002
0000
0000
0000
,
0000
0000
0000
0000
,
0000
0000
0000
0000
,
3003
0000
0000
0000
;

//---------------dance-single - ----------------
#NOTES:
     dance-single:
     :
     Challenge:
     16:
     0.771054,1.054016,0.263080,0.738321,0.496457,636.000000,605.000000,31.000000,87.000000,77.000000,0.000000,0.771054,1.054016,0.263080,0.738321,0.496457,636.000000,605.000000,31.000000,87.000000,77.000000,0.000000:
// measure 0
0000
0000
0000
0000
,  // measure 1
0000
0000
0000
0000
,  // measure 2
0000
0000
0000
0000
,  // measure 3
0000
0000
0000
0000
,  // measure 4
0000
0000
0000
0000
,  // measure 5
0000
0000
0000
0000
,  // measure 6
1000
0000
0100
0000
,  // measure 7
0001
0000
0010
0000
,  // measure 8
1000
0000
0100
0000
1000
0000
0001
0000
0100
0000
0010
1000
0001
0010
0100
0010
,  // measure 9
0001
0010
1000
0010
0001
0100
0010
1000
,  // measure 10
0001
0000
0010
0000
0100
0000
0010
0000
0001
0000
1000
0100
0010
0100
1000
0001
,  // measure 11
0100
0010
1000
0100
0001
0100
0010
0001
,  // measure 12
1000
0000
0001
0000
0100
0000
0001
0000
0010
0000
0100
0010
0001
1000
0010
1000
,  // measure 13
0001
0010
1000
0010
0100
1000
0100
0010
,  // measure 14
0001
0001
0100
0010
1000
1000
0010
0100
,  // measure 15
0001
0010
1000
0010
0001
0100
1000
0100
,  // measure 16
0110
0010
0010
0010
0010
0000
0000
0000
,  // measure 17
0110
0100
0100
0100
0100
0000
1001
0000
,  // measure 18
0011
0010
0010
0010
0010
0000
0000
0000
,  // measure 19
1100
0100
0100
0100
0100
0000
1100
0000
,  // measure 20
0011
0010
0010
0010
0010
0000
0000
0000
,  // measure 21
1001
0001
0001
0001
1000
0001
0100
0001
,  // measure 22
0010
1000
0010
0001
0100
1000
0100
0010
,  // measure 23
1000
0001
0010
1000
0010
0100
0010
0001
,  // measure 24
1000
1000
0100
1000
0010
0010
0100
0001
,  // measure 25
0010
0000
0100
0010
0001
0000
1000
0000
0001
0000
0100
0000
0001
0000
0010
0000
,  // measure 26
0011
0000
0000
MMMM
0000
0000
0100
0000
0000
MMMM
0000
0000
1000
0000
0000
MMMM
,  // measure 27
0000
0000
0000
0000
0000
0000
0010
0000
0000
0000
0000
0000
0000
0000
0000
MMMM
0000
0000
0000
0000
0000
0000
0000
0000
0100
0000
0000
0000
0010
0000
0000
0000
1000
0000
0000
0000
0001
0000
0000
0000
0010
0000
0000
0000
0100
0000
0000
0000
,  // measure 28
1000
1000
0001
0010
0100
0100
0010
0001
,  // measure 29
1000
0010
0001
0010
0100
0001
0010
0100
,  // measure 30
1100
0000
0000
MMMM
0000
0000
0010
0000
0000
MMMM
0000
0000
0001
0000
0000
MMMM
,  // measure 31
0000
0000
0000
0000
0000
0000
0100
0000
0000
0000
0000
0000
0000
0000
0000
MMMM
0000
0000
0000
0000
0000
0000
0000
0000
0010
0000
0000
0000
0100
0000
0000
0000
0001
0000
0000
0000
0010
0000
0000
0000
0100
0000
0000
0000
1000
0000
0000
0000
,  // measure 32
1001
0000
0000
0000
0001
0000
0100
0000
0010
0000
1000
0010
0100
0001
0010
0100
,  // measure 33
0010
0001
0100
0010
1000
0001
0010
1000
,  // measure 34
0010
0001
2000
3002
0203
2300
3200
0302
,  // measure 35
1003
0000
0000
0000
0001
0000
0100
0000
0010
0000
0100
0010
1000
0001
0010
0001
,  // measure 36
1000
0100
1000
0001
0100
0001
0010
0100
,  // measure 37
0010
0001
2000
3200
0302
0203
2300
3020
,  // measure 38
2030
0000
3200
0000
0302
0000
0203
0000
0320
0000
0130
0010
0001
0100
0010
1000
,  // measure 39
0002
0023
2030
3020
0230
2300
3020
0230
,  // measure 40
0302
0023
0230
0320
0032
0203
0320
2030
,  // measure 41
3002
0000
0023
0000
2030
0000
3020
0000
0230
0000
0310
0001
0100
0010
1000
0001
,  // measure 42
0020
0032
0203
0320
0230
0302
2003
3200
,  // measure 43
2300
3002
0203
0302
0023
0230
0320
0032
,  // measure 44
2003
3010
0200
0301
,  // measure 45
0010
0100
1000
0000
0100
0000
0010
0000
0001
0000
0000
0000
1000
0000
0010
0000
,  // measure 46
0100
0000
0000
0001
0000
0000
1000
0000
0000
0000
0000
0000
1100
0000
0000
0000
0000
0000
0010
0000
0001
0000
0100
0000
,  // measure 47
0020
0000
0000
0000
,  // measure 48
0000
0000
0000
0030
,  // measure 49
1000
1000
0100
0010
0100
0100
0010
0001
,  // measure 50
0010
0010
0100
0100
1000
1000
0001
0001
,  // measure 51
1001
0000
0000
MMMM
0000
0000
0110
0000
0000
MMMM
0000
0000
1010
0000
0000
MMMM
,  // measure 52
0000
0000
0000
0000
0000
0000
0101
0000
0000
0000
0000
0000
0000
0000
0000
MMMM
0000
0000
0000
0000
0000
0000
0000
0000
0001
0000
0000
0000
0010
0000
0000
0000
0100
0000
0000
0000
1000
0000
0000
0000
0001
0000
0000
0000
0010
0000
0000
0000
,  // measure 53
0001
0001
0100
0010
1000
1000
0010
0100
,  // measure 54
0010
0010
0100
0100
0010
0010
1000
1000
,  // measure 55
1001
0000
0000
MMMM
0000
0000
1010
0000
0000
MMMM
0000
0000
0011
0000
0000
MMMM
,  // measure 56
0000
0000
0000
0000
0000
0000
1001
0000
0000
0000
0000
0000
0000
0000
0000
MMMM
0000
0000
0000
0000
0000
0000
0000
0000
1000
0000
0000
0000
0100
0000
0000
0000
0010
0000
0000
0000
0001
0000
0000
0000
0010
0000
0000
0000
0001
0000
0000
0000
,  // measure 57
1000
0010
0100
0001
0010
0100
0010
0001
,  // measure 58
1000
0000
0100
1000
0010
0000
0100
0010
1000
0000
0010
1000
0001
0010
0100
0010
,  // measure 59
0001
0000
0000
1100
0000
0000
1010
0000
,  // measure 60
0000
0000
0000
0101
0000
0000
0000
0000
0000
0000
0000
0000
0001
0000
1000
0000
0010
0000
1000
0000
0001
0000
0010
0000
,  // measure 61
0001
1000
0100
0001
0100
1000
0010
0001
,  // measure 62
0100
0000
0001
0000
0100
0000
1000
0000
0100
0010
1000
0001
0010
0100
0010
0001
,  // measure 63
1000
0000
0000
0000
,  // measure 64
0000
0000
0000
0000
0000
0000
0001
0001
0100
0010
0010
1000
,  // measure 65
0200
0000
1300
0020
0000
0230
0002
0000
,  // measure 66
0303
0000
0001
0100
0010
0000
1000
0000
0100
0000
0001
0000
0100
0000
1000
0000
,  // measure 67
0200
0000
0000
0000
0310
0000
0002
0000
0000
0000
1003
0001
0020
0000
0000
0000
,  // measure 68
0000
0000
0130
1000
0001
0000
0100
0000
0001
0000
0010
0000
0100
0000
1000
0000
,  // measure 69
0002
0000
0000
0000
0000
0000
0023
0000
0000
0000
0130
0010
0001
0000
1000
0000
,  // measure 70
0001
0100
1000
0100
0010
1000
0001
0010
,  // measure 71
0110
0110
1000
1001
1001
0001
0101
0101
,  // measure 72
0001
0100
0010
1000
0100
0001
0100
0010
0001
0010
0100
1000
,  // measure 73
0001
0000
0001
0000
0010
0000
0100
0000
0010
0000
0100
0010
0001
0100
0010
1000
,  // measure 74
0001
0000
0001
0000
1000
0000
0001
0000
0100
0000
0001
0100
0010
1000
0100
0010
,  // measure 75
0001
0010
1000
0010
0100
1000
0001
0100
,  // measure 76
0010
0000
0000
1000
0001
1000
0001
0000
0000
0100
0000
0000
0001
0000
0000
0010
0000
0000
0100
0000
0000
1000
0000
0000
,  // measure 77
0001
0000
0010
0000
0100
0000
0010
0000
0001
0000
1000
0100
0010
0100
1000
0001
,  // measure 78
0100
0010
1000
0001
0010
0100
0010
0001
,  // measure 79
2000
3200
0302
0203
0320
0032
0203
2300
,  // measure 80
3200
0320
2030
3002
0023
0230
0320
0032
,  // measure 81
2003
0000
0000
001M
0000
0000
00M1
0000
,  // measure 82
0000
010M
0000
0000
3001
0001
1000
1000
,  // measure 83
1002
0000
0000
M100
0000
0000
0M10
0000
,  // measure 84
0000
0000
0000
10M0
0000
0000
0000
0000
0000
0000
0000
0000
0103
0000
0010
0000
1000
0000
0001
0000
0010
0000
0100
0000
,  // measure 85
0020
0000
0000
0M01
0000
0000
100M
0000
,  // measure 86
0000
0000
M001
0000
0000
0000
0000
0000
0130
0010
0001
1000
0100
0010
0001
1000
,  // measure 87
0001
0000
0001
0000
0001
1000
0010
0000
0010
0000
0010
0100
,  // measure 88
0001
0000
0000
0M10
0000
0000
1000
0000
0000
0M10
0000
0000
0001
0000
0000
0000
0000
0000
0001
0000
0000
01M0
0000
0000
1000
0000
0000
01M0
0000
0000
0001
0000
0000
0000
0000
0000
1000
0000
0000
0000
1000
0000
0000
0000
0001
0000
0000
0000
,  // measure 89
2002
0000
0000
0000
,  // measure 90
0000
0000
0000
0000
,  // measure 91
0000
0000
0000
0000
,  // measure 92
3003
0000
0000
0000
;
