#VERSION:0.83;
#TITLE:Donatello;
#SUBTITLE:;
#ARTIST:Triplestar;
#TITLETRANSLIT:;
#SUBTITLETRANSLIT:;
#ARTISTTRANSLIT:;
#GENRE:RENAISSANCE RAVE;
#ORIGIN:;
#CREDIT:;
#BANNER:banner.png;
#BACKGROUND:background.png;
#PREVIEWVID:;
#JACKET:jacket.png;
#CDIMAGE:;
#DISCIMAGE:;
#LYRICSPATH:;
#CDTITLE:;
#MUSIC:Donatello.ogg;
#OFFSET:0.532000;
#SAMPLESTART:46.056568;
#SAMPLELENGTH:13.714283;
#SELECTABLE:YES;
#BPMS:0.000=175.000;
#STOPS:134.000=0.343,
261.000=0.343;
#DELAYS:;
#WARPS:;
#TIMESIGNATURES:0.000=4=4;
#TICKCOUNTS:0.000=4;
#COMBOS:0.000=1;
#SPEEDS:0.000=1.000=0.000=0;
#SCROLLS:0.000=1.000;
#FAKES:;
#LABELS:0.000=Song Start;
#BGCHANGES:;
#KEYSOUNDS:;
#ATTACKS:
;

//---------------dance-single - ----------------
#NOTEDATA:;
#CHARTNAME:;
#STEPSTYPE:dance-single;
#DESCRIPTION:;
#CHARTSTYLE:;
#DIFFICULTY:Hard;
#METER:13;
#RADARVALUES:0.572935,0.677983,0.315239,0.315239,0.262699,458.000000,422.000000,36.000000,36.000000,0.000000,0.000000,0.000000,0.000000,0.000000,0.572935,0.677983,0.315239,0.315239,0.262699,458.000000,422.000000,36.000000,36.000000,0.000000,0.000000,0.000000,0.000000,0.000000;
#CREDIT:Pandemonium X;
#NOTES:
0000
0000
0000
0000
,
0000
0000
0000
0000
,
0000
0000
0000
0000
,
0000
0000
0000
0000
,
0000
0000
0000
0000
,
1000
0010
0100
0001
0010
0100
1000
0001
,
1000
0010
0100
0001
0010
0100
1000
0001
,
1000
0010
1000
0001
0010
0100
0010
0001
,
1000
0001
0100
0001
0010
0100
1000
0001
,
1000
0000
0000
0000
,
0001
0000
0000
0000
0010
0000
0000
0010
0001
0000
0000
0000
1000
0000
0000
0000
,
0001
0000
0000
0000
1000
0000
0000
1000
0010
0000
0000
0000
0000
0000
0000
0000
,
0100
0010
1000
0001
0010
0000
0100
0000
,
1000
0101
0110
0000
,
1000
0000
0000
0000
0001
0000
0000
0001
1000
0000
0000
0000
0001
0000
0000
0000
,
0100
0000
0000
0000
0010
0000
0000
0010
1000
0000
0000
0000
0000
0000
0100
0000
,
1000
0010
0100
0001
0010
0100
0010
0001
,
1000
0010
1000
0010
1000
0000
0001
0000
0010
0000
0000
0000
0000
0000
0000
0000
,
0200
1300
0020
0130
,
0002
1003
0200
0310
,
2000
3100
0020
0031
,
0200
0310
2000
3001
,
2000
3001
0200
0301
,
0020
0130
0020
0031
,
2000
3100
0002
0103
,
0020
0031
2000
3010
,
0200
0000
0301
0100
0002
0000
0013
0000
,
0200
0000
1300
0100
0020
0000
0130
0000
,
2000
0000
3001
1000
0002
0000
0013
0000
,
0200
0000
0310
0001
0200
0000
0310
0000
,
2000
0000
3020
0000
0130
0001
0010
0000
,
0200
0000
2300
0000
3001
1000
0010
0000
,
0200
0000
0302
0000
0013
0100
1000
0000
,
0001
0000
0000
0100
0000
0000
0010
0000
0000
0000
0000
0000
1001
0000
0000
0001
,
0000
0000
0001
0000
1000
0000
0000
1000
0000
0000
1000
0000
0010
0000
0000
0100
,
0000
0000
0010
0000
1000
0000
0000
0001
0000
0000
0010
0000
0100
0000
0000
0100
,
0000
0000
0010
0000
0001
0000
0000
0001
0000
0000
1000
0000
0001
0000
0000
0100
,
0000
0000
1000
0000
0100
0000
0000
0010
0000
0000
1000
0000
0001
0000
0000
0001
,
0000
0000
0001
0000
0010
0000
0000
0010
0000
0000
0010
0000
0100
0000
0000
0010
,
0000
0000
0001
0000
1000
0000
0000
0010
0000
0000
1000
0000
0100
0000
0000
0010
,
0000
0000
0100
0000
1000
0000
0000
0001
0000
0000
1000
0000
0010
0000
0000
0010
,
0000
0000
1000
0000
0100
0000
0000
0010
0000
0000
0001
0000
1001
0000
0000
0000
,
1010
0000
0000
0001
0010
0000
0000
0000
0110
0000
0000
0000
0011
0000
0000
0000
,
1100
0000
0000
0100
0010
0000
0000
0000
0001
0000
0100
0000
1000
0000
0100
0000
,
0010
0000
1000
0000
0001
0000
0010
0000
0001
0000
1000
0000
0100
0010
0100
0010
,
0100
0010
0002
0000
0000
0000
1003
0000
,
0001
0000
0000
0010
0001
0000
0000
0000
1100
0000
0000
0000
1010
0000
0000
0000
,
0110
0000
0000
0100
0001
0000
0000
0000
0000
0000
1000
0000
0010
0000
0001
0000
,
0010
0000
0100
0000
0001
0000
0010
0000
1000
0000
0010
0000
0100
1000
0100
1000
,
0100
0010
0002
0000
0000
0000
1003
0000
,
0001
0000
0010
0000
0001
0000
0100
0010
,
1000
0010
0100
0000
0000
0000
0001
1000
,
0100
0010
0001
0000
0010
0000
0100
0000
,
0010
0001
0000
1001
,
0110
0000
1001
0000
0001
0000
1000
0010
,
1000
0010
1000
0001
0000
0000
0010
0100
,
0010
0000
0001
0000
1000
0000
0000
0000
0001
0000
1000
0100
1000
0000
0001
0000
,
0010
0000
0001
0000
1000
0000
0000
0000
0000
0000
0000
0000
0001
0000
0000
0001
,
0000
0000
0001
0000
1000
0000
0000
1000
0000
0000
1000
0000
0010
0000
0000
0010
,
0000
0000
0010
0000
0100
0000
0000
0100
0000
0000
0100
0000
0010
0000
0000
0010
,
0000
0000
0010
0000
1000
0000
0000
1000
0000
0000
1000
0000
0001
0000
0000
0001
,
0000
0000
0001
0000
1000
0000
0000
1000
0000
0000
1000
0000
0001
0000
0000
0100
,
0000
0000
0001
0000
0100
0000
0000
0010
0000
0000
0100
0000
0010
0000
0000
1000
,
0000
0000
0010
0000
1000
0000
0000
0100
0000
0000
1000
0000
0100
0000
0000
0010
,
0000
0000
0001
0000
0010
0000
0000
0100
0000
0000
0010
0000
0001
1000
0001
1000
,
0001
0000
1001
0011
,
1001
0000
0000
0000
0010
0000
1000
0000
1001
0000
0000
0000
0011
0000
0000
1000
,
0100
0000
0000
0000
0110
0000
0000
0100
1000
0000
0000
0000
1100
0000
0000
0000
,
0101
0011
1001
0110
,
1001
0000
0000
0000
1001
0000
0000
0000
0011
0000
0000
0000
0110
0000
0000
0100
,
0010
0000
0000
0000
0011
0000
0000
0000
0101
0000
0000
0000
1010
0000
0000
1000
,
0100
0000
1000
0100
0010
0000
0110
0000
,
0011
0000
0101
0000
1010
0000
1000
0100
,
0002
0000
0000
0000
0203
0000
0000
0000
0310
0000
0000
0000
0100
0000
0000
0010
,
0001
0000
0000
0000
1000
0000
0000
0000
0001
0000
0000
0000
0100
0000
0000
0001
,
1000
0000
0000
1000
0001
0100
0010
1000
,
0001
0000
0010
0000
0100
0000
1000
0000
0010
0100
0010
0100
0010
0000
1000
0000
,
0200
0000
0000
0000
0000
0000
0000
0000
0310
0000
0000
0000
0100
0000
0000
1000
,
0001
0000
0000
0000
0100
0000
0000
0000
0010
0000
0000
0000
1000
0000
0000
0001
,
0100
0000
0000
0010
0100
0001
1000
0100
,
0001
0000
0100
0000
0010
0000
0001
0000
1000
0010
1000
0010
1000
0000
0001
0000
,
2000
0000
3000
0000
;

//---------------dance-single - ----------------
#NOTEDATA:;
#CHARTNAME:;
#STEPSTYPE:dance-single;
#DESCRIPTION:;
#CHARTSTYLE:;
#DIFFICULTY:Medium;
#METER:8;
#RADARVALUES:0.371532,0.463883,0.218916,0.332752,0.004378,297.000000,272.000000,25.000000,38.000000,0.000000,0.000000,0.000000,0.000000,0.000000,0.371532,0.463883,0.218916,0.332752,0.004378,297.000000,272.000000,25.000000,38.000000,0.000000,0.000000,0.000000,0.000000,0.000000;
#CREDIT:Pandemonium X;
#NOTES:
0000
0000
0000
0000
,
0000
0000
0000
0000
,
0000
0000
0000
0000
,
0000
0000
0000
0000
,
0000
0000
0000
0000
,
1000
0010
0100
0001
,
1000
0010
0100
0001
,
0010
0100
0010
0001
,
1000
0000
0001
0000
0100
0000
0010
1000
,
0100
0000
0000
0000
,
1000
0001
0100
0101
,
0001
1000
1100
0000
,
1000
0001
0010
0100
,
1100
0101
1100
0000
,
1000
0001
0010
0011
,
0001
0100
0110
0000
,
0010
1000
0001
0010
,
0100
1000
0100
1000
0001
0000
0000
0000
,
2000
0000
3020
0000
,
0230
0000
0302
0000
,
0023
0000
0032
0000
,
0203
0000
0320
0000
,
2030
0000
3002
0000
,
0023
0000
0032
0000
,
2003
0000
3200
0000
,
0320
0000
0230
0000
,
1300
0001
1000
0001
,
0100
0010
0100
0010
,
1000
0010
1000
0010
,
0100
0000
0001
0000
0100
0001
0010
0100
,
0010
0001
0100
0010
,
1000
0001
0010
0100
,
0010
0001
0100
0010
,
2000
0000
3000
0001
,
1000
0010
1000
0100
,
0010
0100
1000
0000
0100
0000
1000
0000
,
0010
0100
0001
0000
1000
0000
0001
0000
,
1000
0010
0100
0000
0010
0000
1000
0000
,
0001
0010
0100
0010
,
0100
1000
0010
0000
0100
0000
0001
0000
,
1000
0001
0010
0000
0100
0000
0010
0000
,
0001
0010
0100
0000
0010
0000
0001
0000
,
0100
0110
1001
0010
,
1000
0000
1010
0000
0000
0000
1000
0010
,
0100
0000
0010
1000
0001
0000
0010
0100
,
1000
0100
0010
0000
0000
0000
0100
0000
,
1000
1100
0011
0001
,
0101
0000
1010
0000
0000
0000
0001
1000
,
0010
0000
1000
0000
0010
0000
0100
0010
,
1000
0001
0010
0000
0000
0000
0200
0000
,
0000
0000
0000
0000
,
0000
0300
0000
0020
,
0000
0030
0000
0002
,
0000
0003
0000
1001
,
0110
1001
1000
0001
,
0010
0100
0000
1000
,
0010
0000
0100
0000
0010
0000
1000
0100
,
0001
0100
0010
0000
0000
0000
0210
0000
,
0000
2300
0000
3020
,
0000
0230
0000
0302
,
0000
2003
0000
3200
,
0000
2300
0000
3020
,
0000
0230
0000
0302
,
0000
0023
0000
0032
,
0000
2003
0000
3002
,
0000
0003
0100
0100
,
0001
0000
0000
0000
0001
0000
1000
0000
0100
0000
0000
0000
0010
0000
0000
0001
,
0100
0000
0010
1000
0001
0000
1000
0000
,
0100
0100
1000
0010
,
0100
0100
0010
1000
,
0001
0010
0100
0010
,
0001
0000
1000
1000
0001
0000
0100
0000
,
0001
0010
0100
0010
,
0002
2003
3010
1000
,
1100
0011
0001
1000
,
0110
0000
0000
0000
0100
0001
0010
0000
,
0100
1000
0010
0000
0100
0010
1000
0001
,
1000
0000
0001
0010
,
1100
0011
0001
0101
,
1010
0000
1000
0001
,
0100
0000
0010
0000
1000
0010
0100
0001
,
0020
0000
0030
0000
;

//---------------dance-single - ----------------
#NOTEDATA:;
#CHARTNAME:;
#STEPSTYPE:dance-single;
#DESCRIPTION:;
#CHARTSTYLE:;
#DIFFICULTY:Easy;
#METER:7;
#RADARVALUES:0.315239,0.499567,0.245186,0.140106,0.000000,252.000000,224.000000,28.000000,16.000000,0.000000,0.000000,0.000000,0.000000,0.000000,0.315239,0.499567,0.245186,0.140106,0.000000,252.000000,224.000000,28.000000,16.000000,0.000000,0.000000,0.000000,0.000000,0.000000;
#CREDIT:Pandemonium X;
#NOTES:
0000
0000
0000
0000
,
0000
0000
0000
0000
,
0000
0000
0000
0000
,
0000
0000
0000
0000
,
0000
0000
0000
0000
,
1000
0001
0010
0001
,
1000
0010
1000
0001
,
1000
0100
0010
0001
,
0010
0100
0010
0001
,
1001
0000
0000
0000
,
1000
0001
0100
0100
,
0001
1000
0100
0000
,
1000
0001
0010
0100
,
0010
0010
0010
0000
,
0100
0010
0001
0001
,
0010
0100
1000
0000
,
0100
1000
0010
0100
,
0002
0000
0003
0000
,
1000
0000
1000
0000
,
0001
0000
0001
0000
,
0100
0000
0100
0000
,
0010
0000
0010
0000
,
1000
0000
0010
0000
,
0100
0000
0001
0000
,
0010
0000
0100
0000
,
0010
0000
0001
0000
,
1000
0001
1000
0000
,
0010
1000
0010
0000
,
0100
0001
0100
0000
,
0001
0010
0001
1000
,
0100
0010
0100
0000
,
1000
0100
1000
0000
,
0010
1000
0010
0000
,
0200
0000
0300
1001
,
0001
0010
0001
1000
,
0100
0001
0100
1000
,
0010
1000
0001
0010
,
0001
1000
1000
0001
,
0010
1000
0010
0100
,
0010
0001
0100
0010
,
1000
0001
0010
0100
,
0010
0001
1000
1001
,
1001
1001
0000
0110
,
0110
0110
0000
0010
,
1000
0010
0100
0002
,
0000
0003
0000
1001
,
1001
1001
0000
0110
,
0110
0110
0000
0010
,
0100
1000
0010
0200
,
0000
0300
0000
0010
,
0000
1000
0000
0001
,
0001
0001
0000
1000
,
0000
0001
0000
0100
,
0100
0100
0000
0010
,
0010
0010
0000
1000
,
0000
0001
0000
1000
,
1000
1000
0000
0001
,
0001
0001
0000
2000
,
0000
0000
3000
0020
,
0000
0000
0030
0200
,
0000
0000
0300
0002
,
0000
0000
0003
2000
,
0000
0000
3000
0020
,
0000
0000
0030
0200
,
0000
0000
0300
0020
,
0000
0030
1000
1000
,
1000
0001
0001
1000
,
1001
0001
0100
0100
,
0010
0010
0110
1001
,
0110
0110
0010
1000
,
0001
0001
0010
0100
,
1000
1000
0001
1000
,
0001
0100
0010
1000
,
0020
2030
3001
1000
,
1001
1001
0001
0010
,
0110
0000
0100
0010
,
0001
1000
1001
0110
,
1001
0000
0001
1000
,
0110
1001
0010
1000
,
1001
0000
0001
1000
,
0010
0100
0020
0000
,
0230
0000
0300
0000
;

//---------------dance-single - ----------------
#NOTEDATA:;
#CHARTNAME:;
#STEPSTYPE:dance-single;
#DESCRIPTION:;
#CHARTSTYLE:;
#DIFFICULTY:Beginner;
#METER:4;
#RADARVALUES:0.148863,0.248251,0.052540,0.008757,0.000000,119.000000,113.000000,6.000000,1.000000,0.000000,0.000000,0.000000,0.000000,0.000000,0.148863,0.248251,0.052540,0.008757,0.000000,119.000000,113.000000,6.000000,1.000000,0.000000,0.000000,0.000000,0.000000,0.000000;
#CREDIT:Pandemonium X;
#NOTES:
0000
0000
0000
0000
,
0000
0000
0000
0000
,
0000
0000
0000
0000
,
0000
0000
0000
0000
,
0000
0000
0000
0000
,
1000
0000
0000
0000
,
1000
0000
0000
0000
,
0010
0000
0100
0000
,
0001
0000
1000
0000
,
0110
0000
0000
0000
,
1000
0000
0000
0000
,
0001
0000
0000
0000
,
0010
0000
0000
0000
,
0001
0001
0001
0000
,
1000
0000
0000
0000
,
0010
0000
0000
0000
,
0100
0000
0010
0000
,
2000
0000
3000
0000
,
0001
0000
0000
0000
,
1000
0000
0000
0000
,
0010
0000
0000
0000
,
0100
0000
0000
0000
,
0001
0000
0000
0000
,
0010
0000
0000
0000
,
0001
0000
0000
0000
,
1000
0000
0000
0000
,
0100
0000
0000
0000
,
1000
0000
0000
0000
,
0010
0000
0000
0000
,
1000
0000
0000
0000
,
0001
0000
0000
0000
,
0010
0000
0000
0000
,
0001
0000
0000
0000
,
1000
0000
0000
0010
,
0000
0010
0000
0010
,
0000
0000
0000
1000
,
0000
0001
0000
1000
,
0000
0000
0000
0100
,
0000
0100
0000
0100
,
0000
0000
0000
0010
,
0000
0001
0000
0010
,
0000
0000
0000
0001
,
0000
1000
0000
0010
,
0010
0010
0000
1000
,
0000
0001
0000
0110
,
0000
0000
0000
0010
,
0000
1000
0000
0001
,
0001
0001
0000
1000
,
0000
0001
0000
0110
,
0000
0000
0000
0100
,
0000
0000
0000
0000
,
0000
0000
0000
1000
,
0000
0000
0000
0000
,
0000
0000
0000
0001
,
0001
0001
0000
0000
,
0000
0000
0000
1000
,
0000
0000
0000
0000
,
0000
0000
0000
0010
,
0000
0000
0000
0100
,
0000
0000
0000
0001
,
0000
0000
0000
1000
,
0000
0000
0000
0100
,
0000
0000
0000
1000
,
0000
0000
0000
0010
,
0000
0000
0000
0100
,
0000
0000
0010
0000
,
0100
0000
0001
0001
,
0001
0000
1000
0000
,
0001
0000
1000
1000
,
1000
0000
0010
0000
,
0100
0000
0010
0010
,
0010
0000
0100
0000
,
0001
0000
1000
1000
,
1000
0000
0001
0000
,
1000
0000
0010
0100
,
0010
0000
1000
0000
,
0001
0000
1001
0000
,
0000
0000
1000
0000
,
0001
0000
0010
0100
,
0010
0000
0100
0000
,
1000
0000
1001
0000
,
0110
0000
0000
0000
;

//---------------dance-single - ----------------
#NOTEDATA:;
#CHARTNAME:;
#STEPSTYPE:dance-single;
#DESCRIPTION:;
#CHARTSTYLE:;
#DIFFICULTY:Challenge;
#METER:16;
#RADARVALUES:0.733056,0.963450,0.437832,0.376536,0.591074,586.000000,536.000000,50.000000,43.000000,0.000000,0.000000,0.000000,0.000000,0.000000,0.733056,0.963450,0.437832,0.376536,0.591074,586.000000,536.000000,50.000000,43.000000,0.000000,0.000000,0.000000,0.000000,0.000000;
#CREDIT:Pandemonium X;
#NOTES:
// measure 0
0000
0000
0000
0000
,  // measure 1
0000
0000
0000
0000
,  // measure 2
0000
0000
0000
0000
,  // measure 3
0000
0000
0000
0000
,  // measure 4
0000
0000
0000
0000
,  // measure 5
0001
0100
0010
1000
0100
0010
0001
1000
,  // measure 6
0001
0100
0010
1000
0100
0010
0001
1000
,  // measure 7
0001
0100
0001
1000
0100
0010
0100
1000
,  // measure 8
0001
0000
1000
0000
0010
0000
1000
0000
0100
0000
0010
0000
0001
0000
1000
0001
,  // measure 9
1000
0000
0000
0000
,  // measure 10
0102
0000
0000
0000
0013
0000
0000
0100
2000
0000
0000
0000
3001
0000
0000
0000
,  // measure 11
1020
0000
0000
0000
0130
0000
0000
0001
2000
0000
0000
0000
3000
0000
0000
0000
,  // measure 12
0100
0100
1000
0010
0210
0000
0301
0000
,  // measure 13
0021
0100
0002
0033
,  // measure 14
2100
0000
0000
0000
3010
0000
0000
0100
0002
0000
0000
0000
0013
0000
0000
0000
,  // measure 15
0210
0000
0000
0000
0310
0000
0000
0100
2000
0000
0000
0000
3000
0000
0001
0000
,  // measure 16
0100
1000
0100
0010
1000
0001
0010
0100
,  // measure 17
1000
0001
1000
0001
1000
0000
0001
0000
0200
0000
0000
0000
0000
0000
0000
0000
,  // measure 18
0310
0000
0000
0010
0000
0000
0010
0000
1000
0000
0000
1000
0000
0000
1000
0000
,  // measure 19
0100
0000
0000
0001
0000
0000
0100
0000
1000
0000
0000
0010
0000
0000
0100
0000
,  // measure 20
0001
0000
0000
0001
0000
0000
0001
0000
0010
0000
0000
0010
0000
0000
0010
0000
,  // measure 21
0100
0000
0000
0010
0000
0000
0001
0000
1000
0000
0000
0010
0000
0000
0100
0000
,  // measure 22
0001
0000
0000
0001
0000
0000
0001
0000
1000
0000
0000
1000
0000
0000
1000
0000
,  // measure 23
0100
0000
0000
0010
0000
0000
0001
0000
0010
0000
0000
0001
0000
0000
0100
0000
,  // measure 24
0010
0000
0000
0010
0000
0000
0010
0000
1000
0000
0000
1000
0000
0000
1000
0000
,  // measure 25
0001
0000
0000
0001
0000
0000
0001
0000
0010
0000
0000
0100
0000
0000
1000
0000
,  // measure 26
0001
0001
0100
0100
,  // measure 27
0010
0000
0010
0000
1000
0000
0100
0100
,  // measure 28
0010
0010
0001
0001
,  // measure 29
1000
0000
1000
0000
0001
0000
0100
0001
,  // measure 30
0010
0000
0000
0100
0000
0000
1000
0000
0010
0000
0000
0100
0000
0000
0001
0000
,  // measure 31
1000
0000
0000
0100
0000
0000
1000
0000
0001
0000
0000
0010
0000
0000
0100
0000
,  // measure 32
1000
0000
0000
0100
0000
0000
0001
0000
0100
0000
0000
0001
0000
0000
0100
0000
,  // measure 33
0010
0000
0000
0001
0000
0000
1000
0000
0000
0000
0000
0000
0101
0000
0001
0100
,  // measure 34
0000
0010
1000
0000
1100
0000
0100
0010
0000
0010
0001
0000
1001
0000
0001
0100
,  // measure 35
0000
0010
1000
0100
0010
0000
0100
1000
0000
0100
0010
0000
1100
0000
1000
0100
,  // measure 36
0000
0010
0001
0000
1001
0000
0001
0100
0000
0010
1000
0000
1100
0000
0100
1000
,  // measure 37
0000
1000
0010
0000
0110
0000
0100
0001
0000
0010
0100
0000
1100
0000
0100
1000
,  // measure 38
0000
0100
0010
0000
0011
0000
0001
0100
0000
0010
1000
0000
1001
0000
0001
1000
,  // measure 39
0000
0010
0100
0000
0101
0000
0001
0010
0000
0100
1000
0000
1100
0000
0100
1000
,  // measure 40
0000
0010
0100
0000
0101
0000
0001
0010
0000
0100
0010
0000
0011
0000
0001
0100
,  // measure 41
0000
0010
1000
0000
1001
0000
0001
0100
0010
0100
0010
0100
0020
0000
0000
0000
,  // measure 42
1000
0000
0000
0130
0002
0000
0000
0000
0013
0000
0000
0000
0200
0000
0000
0000
,  // measure 43
2300
0000
0000
3001
0200
0000
0000
0000
0300
0000
0010
0000
1000
0000
0100
0000
,  // measure 44
0001
0000
0100
0000
0001
0000
0100
0000
0010
0000
0001
0000
1000
0010
1000
0010
,  // measure 45
1000
0010
1000
0010
2000
0000
0000
0000
0000
0000
0000
0000
3002
0000
0000
0000
,  // measure 46
0023
0000
0000
0130
0020
0000
0000
0000
0032
0000
0000
0000
0203
0000
0000
0000
,  // measure 47
0320
0000
0000
0130
0020
0000
0000
0000
0030
0000
0100
0000
0001
0000
0010
0000
,  // measure 48
1000
0000
0010
0000
1000
0000
0010
0000
0100
0000
1000
0000
0010
0100
0010
0100
,  // measure 49
0010
0000
2000
0000
0002
0000
0000
0000
0000
0000
3003
0000
0001
0100
0001
1000
,  // measure 50
0010
1000
0001
0010
0100
0000
0010
0000
0001
0000
1000
0000
0001
0100
0001
1000
,  // measure 51
0001
0010
0001
1000
0001
0100
0001
0000
0000
0000
0000
0000
1000
0100
1000
0000
,  // measure 52
0100
0010
0100
0000
0010
0001
0010
0000
0001
0100
0001
0000
0100
0010
0100
0000
,  // measure 53
0010
1000
0010
0000
1000
0001
1000
0000
0000
0000
0000
0000
1001
0000
0000
0000
,  // measure 54
0110
0000
0000
0000
1001
0000
0000
0000
1000
0000
0000
0100
0010
0000
0100
1000
,  // measure 55
0010
0000
0100
0001
1000
0000
0001
0000
0010
0001
0010
0000
0100
0000
1000
0000
,  // measure 56
0100
0000
1000
0000
0010
0000
0000
0000
0100
0000
0010
1000
0100
0000
0001
0000
,  // measure 57
0100
0000
0010
0000
0001
0000
0000
0000
0000
0000
0000
0000
1000
0000
0001
1000
,  // measure 58
0000
1000
0001
0000
0100
0000
0010
0100
0000
0100
0010
0000
1000
0000
0010
1000
,  // measure 59
0000
1000
0010
0000
0100
0000
0001
0100
0000
0100
0001
0000
0010
0000
0100
0010
,  // measure 60
0000
0010
0100
0000
1000
0000
0001
1000
0000
1000
0001
0000
0100
0000
0001
0100
,  // measure 61
0000
0100
0001
0000
0010
0000
0100
1000
0000
1000
0100
0000
1000
0000
0001
0100
,  // measure 62
0000
0100
0010
0000
0100
0000
0010
1000
0000
1000
0001
0000
0010
0000
0100
1000
,  // measure 63
0000
1000
0001
0000
0100
0000
0001
0100
0000
0100
0010
0000
0100
0000
0001
0100
,  // measure 64
0000
0010
1000
0000
0100
0000
0010
0100
0000
1000
0010
0000
0100
0001
0100
0001
,  // measure 65
0100
0000
1001
1010
,  // measure 66
0011
0000
0000
0000
0010
0000
0100
0000
1100
0000
0000
0000
0110
0000
0000
0010
,  // measure 67
0001
0000
0000
0000
0001
0000
0001
0100
0101
0000
0000
0000
1001
0000
0000
0000
,  // measure 68
0110
1001
1100
0011
,  // measure 69
1001
1001
0101
1010
,  // measure 70
1100
0110
1100
0110
,  // measure 71
0011
0000
0011
0010
0110
0000
1100
0000
,  // measure 72
0110
0000
0011
0000
0110
0000
0100
1000
,  // measure 73
0020
0000
0000
0000
0230
0000
0000
0000
0302
0000
0000
0000
0023
0000
0000
0130
,  // measure 74
2000
0000
0000
0000
3010
0000
0000
0000
0200
0000
0000
0000
0302
0000
0000
1003
,  // measure 75
0020
0000
0030
0100
1000
0100
0001
0100
,  // measure 76
0001
0000
0010
0000
0100
0000
1000
0000
0001
1000
0001
1000
0001
0000
0010
0000
,  // measure 77
0200
0000
0000
0000
0000
0000
0000
0000
0320
0000
0000
0000
0230
0000
0000
1300
,  // measure 78
0200
0000
0000
0000
1300
0000
0000
0000
0020
0000
0000
0000
2030
0000
0000
3100
,  // measure 79
2000
0000
3000
0100
0001
0100
0010
0001
,  // measure 80
0100
0000
0010
0000
1000
0000
0001
0000
0010
0100
0010
0100
0010
0000
0001
0000
,  // measure 81
2000
0000
3010
0000
;
