#TITLE:Dies Irae;
#SUBTITLE:;
#ARTIST:Gram vs Kobaryo;
#TITLETRANSLIT:;
#SUBTITLETRANSLIT:;
#ARTISTTRANSLIT:;
#GENRE:;
#CREDIT:;
#BANNER:banner.png;
#BACKGROUND:background.png;
#LYRICSPATH:;
#CDTITLE:cdtitle.png;
#MUSIC:Dies Irae.ogg;
#OFFSET:0.000000;
#SAMPLESTART:63.783970;
#SAMPLELENGTH:18.378567;
#SELECTABLE:YES;
#BPMS:0.000000=222.000000
,64.000000=111.000000
,68.000000=222.000000
,73.000000=444.000000
,201.000000=111.000000
,207.000000=222.000000
,275.000000=111.000000
,279.000000=222.000000
,348.000000=111.000000
,364.000000=222.000000
,393.000000=444.000000
,581.000000=111.000000
;
#STOPS:72.000000=0.811000,
283.000000=0.811000,
392.000000=0.811000,
535.000000=0.135000,
550.000000=0.135000,
565.000000=0.135000,
580.000000=0.135000
;
#BGCHANGES:;
#KEYSOUNDS:;
#ATTACKS:;

//---------------dance-single - ----------------
#NOTES:
     dance-single:
     :
     Challenge:
     20:
     1.189592,2.868962,0.137765,0.091844,1.017932,1088.000000,1070.000000,18.000000,12.000000,0.000000,0.000000,1.189592,2.868962,0.137765,0.091844,1.017932,1088.000000,1070.000000,18.000000,12.000000,0.000000,0.000000:
0000
0000
0000
0000
,
0000
0000
0000
0000
,
0000
0000
0000
0000
,
0000
0000
0000
0000
,
0000
0000
0000
0000
,
0000
0000
0000
0000
,
0000
0000
0000
0000
,
0000
0000
0000
0000
,
0001
1000
0001
1000
0010
0100
0010
0100
,
0001
0100
0001
0100
0010
1000
0010
1000
,
0100
1000
0001
0100
0001
1000
0010
1000
,
0001
1000
0100
1000
0001
0010
0001
1000
,
0100
0001
0100
1000
0100
0001
0100
1000
,
0010
0001
0010
1000
0010
0001
0010
1000
,
0001
0010
0100
1000
0100
0010
0100
1000
0100
0010
0001
0010
,
0100
0010
0001
1000
0100
0010
0001
0010
0100
0010
0001
0010
,
0200
0000
0000
0000
,
1300
0001
0110
2002
,
0000
3003
0001
0100
0001
0000
0100
0000
,
0010
0000
1000
0100
1000
0000
0001
0000
,
0010
0000
0100
1000
0100
0000
1000
0000
,
0010
0000
0100
0010
0100
0000
0001
0000
,
1000
0000
0001
0010
0001
0000
0010
0000
,
0100
0000
1000
0001
1000
0000
0001
0000
,
0100
0000
0010
1000
0010
0000
0100
0000
,
0001
0000
0010
0100
0010
0000
0100
1000
,
0100
0000
0010
0001
0100
0000
0010
0000
,
1000
0000
0001
1000
0100
0000
0010
0000
,
0100
0000
1000
0010
0100
0000
0001
0000
,
0010
0000
0100
0010
0001
0000
0010
0000
,
0001
0000
0100
0010
1000
0000
0100
0000
,
0010
0000
0001
0010
0100
0000
0010
0000
,
0001
0000
0100
0010
1000
0000
0010
0000
,
0100
0000
0001
1000
0001
1000
0010
0100
,
0010
0100
0001
1000
0001
0000
1000
0000
,
0010
0000
0100
0001
0100
0000
0001
0000
,
0010
0000
0100
1000
0100
0000
1000
0000
,
0010
0000
0100
0001
0100
0000
0001
0000
,
1000
0000
0001
0010
0001
0000
0010
0000
,
0100
0000
1000
0001
1000
0000
0001
0000
,
0100
0000
0010
1000
0010
0000
0100
0000
,
0001
0000
0010
0100
0010
0000
0100
1000
,
0100
0000
0100
0010
0001
0000
0010
0000
,
0100
0000
0010
0001
0100
0000
0010
0000
,
1000
0000
0001
1000
0010
0000
0100
0000
,
0001
0000
0010
0100
1000
0000
0100
0000
,
1000
0000
0010
0100
0001
0000
1000
0000
,
0001
0000
0010
0100
1000
0000
0100
0000
,
1000
0000
0001
0100
0010
1000
0001
0010
,
0100
0010
0001
0100
0010
1000
0001
0000
,
0000
0000
0000
0000
0000
0000
0000
0000
1000
0010
1000
0010
1000
0001
0100
0001
0100
0001
0010
0001
0010
0100
1000
0100
1000
0001
1000
0001
1000
0010
0100
0010
,
0100
0001
0100
0010
1000
0001
0100
0010
1000
0001
0010
0100
1000
0001
0010
0100
1000
0100
0010
0001
0010
0100
0010
0001
1000
0000
0000
0000
0000
0000
0000
0000
,
1000
0000
0000
0000
1000
0000
0000
0000
1001
0000
0000
0000
0001
0100
0010
0000
,
0100
0000
0001
1000
0100
0000
0010
0000
0100
1000
0010
0000
0100
0000
0010
1000
,
0001
0000
1000
0000
0001
0100
0001
0100
0010
1000
0010
1000
0001
1000
0100
0000
,
1000
0000
0000
0000
0000
0000
0010
0000
0000
0100
0000
0000
0001
0000
0000
0000
0000
0000
0010
0000
0000
0000
0000
0000
0100
0000
0000
0010
0000
0000
0001
0000
0000
0000
0000
0000
1000
0000
0000
0000
0100
0000
0000
0000
0010
0000
0000
0000
,
0001
0000
0000
0000
0010
0000
0000
0000
0100
0000
0000
0000
0010
0000
0000
0000
0001
0000
0000
0000
0010
0000
0000
0000
0100
0000
0000
0000
1000
0000
0000
0000
0100
0000
0000
0000
0010
0000
0000
0001
0000
0000
0100
0000
0000
0000
0000
0000
,
0010
0000
1000
0001
0010
0000
0100
0000
0010
0001
1000
0000
0100
0000
0010
0100
,
1000
0000
0001
0000
1000
0010
0100
0001
1000
0001
0010
0100
0010
0001
0100
0000
,
0010
0000
1000
0010
0100
0000
0010
0000
1000
0001
0010
0000
0100
0010
0100
0000
,
0010
0000
0000
0001
0000
0000
0010
0000
0000
0000
0000
0000
0001
0000
0000
0100
0000
0000
0001
0000
0000
0000
0000
0000
0100
0000
0000
0010
0000
0000
0100
0000
0000
0000
0000
0000
0010
0000
0000
0000
1000
0000
0000
0000
0001
0000
0000
0000
,
0010
0100
0010
0001
0100
0010
1000
0100
0010
0100
1000
0010
,
0100
0000
0000
0000
0001
0000
0000
0000
0010
0000
0000
0000
0100
0000
0000
0010
0000
0000
0001
0000
0000
1000
0000
0000
0100
0000
0000
0010
0000
0000
0001
0000
0000
1000
0000
0000
0010
0000
0000
0000
0100
0000
0000
0000
0001
0000
0000
0000
,
1000
0001
0010
0100
0010
0001
0100
0010
1000
0001
0010
0100
,
1000
0000
0000
0000
0100
0000
0000
0000
0010
0000
0000
0000
0100
0000
0000
1000
0000
0000
0010
0000
0000
0100
0000
0000
0001
0000
0000
0010
0000
0000
0100
0000
0000
0010
0000
0000
0001
0000
0000
0000
1000
0000
0000
0000
0001
0000
0000
0000
,
0100
0000
0000
0001
0000
0000
0010
0000
0000
0100
0000
0000
0010
0000
0000
0000
0001
0000
0000
0000
0100
0000
0000
0000
0010
0000
0000
1000
0000
0000
0001
0000
0000
0010
0000
0000
0100
0000
0000
0000
1000
0000
0000
0000
0100
0000
0000
0000
,
0010
0100
1000
0010
0100
0001
1000
0001
0010
0100
1000
0001
1000
0001
0100
0000
,
0010
1000
0001
0000
0010
0100
1000
0000
0100
0010
0001
0000
1000
0000
0010
1000
,
0000
0001
0100
0000
0001
0010
0100
1000
0001
0010
0100
1000
0002
0000
0000
0000
,
0000
0000
0000
1003
,
0001
0000
0110
0000
2002
0000
0000
3003
,
0001
0000
0100
0000
0000
0010
1000
0000
0001
0000
1000
0000
0000
0010
0100
0000
,
0001
0000
0010
0000
0001
0000
0100
0000
0010
0000
1000
0000
0001
1000
0010
0100
,
0001
0000
0010
0000
0000
0001
0010
0000
0100
0000
0010
0000
0000
0001
0100
0000
,
0010
0000
1000
0000
0100
0000
1000
0000
0001
0100
0010
1000
0010
1000
0100
1000
,
0100
0000
0000
1000
0000
0000
0010
0000
0100
0000
0000
0001
0000
0000
1000
0100
,
0010
0000
0000
0100
0000
0000
1000
0000
0010
0000
1000
0001
1000
0000
0100
0000
,
0010
0000
0001
0010
0000
0100
1000
0000
0001
0010
0000
0100
1000
0000
0001
0000
,
0100
0000
0010
1000
0000
0001
0100
0000
0010
1000
0000
0001
0100
0000
0001
0000
,
1000
0000
0001
0000
0000
0010
0100
0000
0010
0000
0001
0000
0000
0010
0100
0000
,
0010
0000
0001
0000
1000
0000
0010
0000
0010
0100
0001
1000
0001
1000
0100
0000
,
0010
0000
0100
0000
0000
1000
0010
0000
0100
0000
0001
0000
0000
1000
0001
0000
,
0010
0000
0100
0000
0010
0000
0001
0000
0100
0010
1000
0001
0010
0100
1000
0100
,
0010
0000
0000
0100
0000
0000
1000
0000
0010
0000
0000
0100
0000
0000
0001
0010
,
0100
0000
0000
0010
0000
0000
0100
0000
1000
0000
0100
0010
0100
0000
1000
0000
,
0001
0000
1000
0100
0000
0100
0010
0000
0010
0001
1000
0001
0100
0010
1000
0000
,
0001
0000
0001
0100
0000
0100
0010
0000
0010
1000
0000
1000
0010
0100
0001
0010
,
0100
0000
0000
0000
0011
0000
0000
0000
0001
0100
0010
0000
1010
0000
0000
0000
,
1000
0000
0000
0000
0000
0000
0000
0000
0011
0000
0000
0000
0000
0000
0000
0000
0010
0100
0010
0000
0100
0000
1000
0000
0000
0000
0000
0000
1000
0000
0100
0000
,
0010
0000
0000
0010
0000
0000
0100
0000
1000
0000
0000
1000
0000
0000
0001
0100
0010
0000
0000
1000
0000
0000
0001
0000
0010
0000
0100
0000
0010
0000
0001
0000
,
1000
0000
0010
1000
0000
0010
0100
0000
0001
0010
0000
0010
0100
0000
0010
0000
0001
0000
0010
0100
0000
0010
0001
0000
0100
0010
0000
1000
0001
0000
1000
0000
,
0100
0010
0001
0100
0010
1000
0001
0010
,
0100
0010
0001
0100
0010
1000
0001
0010
,
1001
1000
0001
0010
0001
0100
0010
1000
,
0001
0010
0100
1000
0001
0010
0100
1000
,
0001
1000
0001
0000
0100
0010
1000
0000
0001
0010
0001
0000
0010
0100
1000
0000
,
0100
0010
0100
0000
0010
0001
0100
0000
0010
1000
0100
0000
0010
0100
0010
0000
,
0100
0010
0001
0100
0010
1000
0001
0010
0100
0010
0001
0100
0010
1000
0001
0010
,
0000
0000
0100
0000
1001
0000
0000
1000
,
0001
0100
0010
0000
1001
0000
0000
0000
,
0001
1000
0100
1000
0010
0100
0010
1000
,
0001
1000
0001
0010
0100
0010
0001
0100
,
0010
0000
0100
0000
1001
0000
0000
1000
,
0001
0100
0010
0000
1010
0000
0000
0010
,
1000
0010
0100
0001
0010
0100
1000
0100
,
0010
0001
0100
0010
1000
0001
1000
0000
,
0100
0000
1000
0000
0100
1000
0000
1000
,
0010
0000
0100
0000
0001
0010
0000
0100
,
0010
0001
1000
0000
0001
0100
0000
0010
,
1000
0000
0001
0000
1000
0010
0100
0000
,
0001
0000
0010
0000
0100
0010
0000
0100
,
1000
0000
0010
0100
0000
0001
1000
0000
,
0001
0000
0100
0010
0100
0010
0100
0010
,
0100
0010
0100
0010
0100
0010
0200
0000
,
0000
0000
0310
0000
1010
0000
0000
1000
,
0001
0010
0100
0000
1100
0000
1000
0100
,
0010
0100
1000
0010
0100
0001
0010
0100
,
0010
0001
1000
0100
0010
0001
1000
0100
,
0010
0001
1000
0000
1001
0000
0000
1000
,
0001
0100
0010
0000
1010
0000
1000
0010
,
1000
0010
0100
0001
0010
0001
0010
0100
,
0010
0100
1000
0100
1000
0001
0100
0001
,
0010
0100
2000
0000
0000
3100
0000
0000
,
0010
0000
0002
0000
0000
0103
0000
0000
,
0010
1000
0002
0000
0000
1003
0000
0000
,
0100
0000
0010
0000
0100
1000
0001
0000
,
1000
0000
0001
0100
0001
0100
0001
0100
,
0001
0100
0001
0100
0001
0100
0001
0100
,
0010
1000
0001
0010
0001
0010
0001
0010
,
0001
0010
0001
0010
0001
0010
0001
0010
,
0001
0000
0000
0010
0000
0000
0001
0000
0000
0000
0010
0000
0000
0000
0100
0000
0000
0000
1000
0000
0000
0000
0100
0000
,
0000
0010
0000
0001
0000
0010
0000
0100
0000
1000
0000
0100
,
0000
0010
0000
0001
0000
0010
0000
0100
0000
1000
0000
0100
,
0000
0010
0000
0001
0000
0010
0000
0100
0000
1000
0000
0000
,
0001
0000
1000
0000
0001
0000
0100
0000
0010
0000
1000
0000
,
0001
0000
0100
0000
0010
0000
1000
0000
0001
0000
0100
0000
,
0010
0000
1000
0000
0001
0000
0100
0000
0010
0000
0100
0000
,
0001
0000
0000
0000
1000
0000
0000
0000
0010
0000
0000
0000
0100
0000
0000
0000
0000
0000
0001
0000
0000
0100
0000
0000
,
0001
0100
0010
1000
0010
1000
0100
1000
,
0100
0010
0001
0010
0001
1000
0001
1000
,
0001
0100
0010
0100
0010
1000
0001
1000
,
0001
0010
0100
0000
1000
0010
0100
0001
,
1000
0010
0100
0001
1000
0010
0100
0001
,
1000
0010
0100
0001
1000
0100
0010
0100
,
1000
0010
0100
0001
0010
0100
0010
0001
,
1000
0220
0000
0000
,
0000
0000
0000
0000
,
0330
0000
0000
0000
;

//---------------dance-single - ----------------
#NOTES:
     dance-single:
     :
     Hard:
     19:
     1.115243,1.856387,0.260223,0.114804,0.853379,1020.000000,986.000000,34.000000,15.000000,0.000000,0.000000,1.115243,1.856387,0.260223,0.114804,0.853379,1020.000000,986.000000,34.000000,15.000000,0.000000,0.000000:
// measure 0
0000
0000
0000
0000
,  // measure 1
0000
0000
0000
0000
,  // measure 2
0000
0000
0000
0000
,  // measure 3
0000
0000
0000
0000
,  // measure 4
0000
0000
0000
0000
,  // measure 5
0000
0000
0000
0000
,  // measure 6
0000
0000
0000
0000
,  // measure 7
0000
0000
0000
0000
,  // measure 8
1000
0010
0100
0001
0010
0100
0010
0001
,  // measure 9
0100
0010
1000
0001
0010
0100
0010
0001
,  // measure 10
1000
0010
0100
0001
0010
0100
0010
0001
,  // measure 11
0100
0010
1000
0100
0010
0100
1000
0001
,  // measure 12
0100
0001
0100
0010
0000
0100
0010
1000
0001
0010
0000
0100
,  // measure 13
0010
0001
1000
0010
0000
1000
0100
0010
0100
1000
0000
0100
,  // measure 14
0010
0001
0010
1000
0000
0010
0100
1000
0100
0001
0000
0100
,  // measure 15
0010
0001
0100
0010
1000
0001
0010
0100
1000
0001
1000
0010
,  // measure 16
2002
0000
0000
3000
,  // measure 17
0103
0100
0110
2002
,  // measure 18
3003
1000
0010
0100
,  // measure 19
0001
0010
0100
0010
,  // measure 20
0001
0100
0010
1000
,  // measure 21
0001
0010
0100
0010
,  // measure 22
0100
0010
0001
0000
1000
0000
0001
0000
,  // measure 23
0100
0001
0010
0100
,  // measure 24
0010
0001
1000
0010
,  // measure 25
0100
0000
0001
0100
0001
0000
0102
0000
,  // measure 26
0000
0013
1000
0010
,  // measure 27
0001
0100
1000
0100
,  // measure 28
0010
1000
0001
0010
,  // measure 29
1000
0000
0010
0000
0100
0000
1000
0001
,  // measure 30
1000
0001
1000
0000
1000
0000
0001
0000
,  // measure 31
0100
0010
0010
0100
,  // measure 32
0001
0000
0010
0100
0010
0100
0010
0100
,  // measure 33
0010
0100
0010
0001
0100
0010
2000
0000
,  // measure 34
0000
0000
3100
1000
0100
0000
1000
0000
,  // measure 35
0010
0100
0001
0010
,  // measure 36
0100
0000
0010
0001
0010
0000
0001
0000
,  // measure 37
0100
0001
1000
0100
,  // measure 38
0010
0000
0100
1000
0100
0000
1000
0000
,  // measure 39
0001
0010
0001
0100
,  // measure 40
0010
0000
1000
0001
1000
0000
0001
0000
,  // measure 41
0010
0000
0001
0100
0001
0000
1000
0010
,  // measure 42
1000
0000
0001
0100
0010
0000
0100
0000
,  // measure 43
0001
0000
1000
0100
0010
0000
0100
0000
,  // measure 44
1000
0000
0001
1000
0010
0000
0100
0000
,  // measure 45
0001
0000
0010
0100
1000
0000
0100
0000
,  // measure 46
1000
0000
0010
0100
0001
0000
1000
0000
,  // measure 47
0001
0000
0010
0100
1000
0000
0100
0000
,  // measure 48
1000
0000
0001
0100
0010
1000
0001
0100
,  // measure 49
0010
1000
0001
0010
0100
1000
0100
0010
,  // measure 50
0001
0000
0000
0000
1000
0100
0001
0100
1000
0010
0001
0010
0100
0001
0010
1000
,  // measure 51
0010
0001
0100
1000
0100
0001
0100
0010
1000
0010
0100
0001
1010
0000
0000
0000
,  // measure 52
0011
0000
0000
0000
1010
0000
0000
0000
1001
0000
0000
0000
1000
0001
1000
0000
,  // measure 53
0001
0000
1000
0001
1000
0000
0001
0000
1000
0001
1000
0000
0001
0000
1000
0001
,  // measure 54
1000
0000
0001
0000
0100
0010
1000
0000
0010
0100
0001
0000
0010
0100
0010
0000
,  // measure 55
0100
0000
0010
0100
0010
0000
0100
0000
0010
0100
0010
0000
0100
0010
0001
0100
,  // measure 56
0010
0100
0010
1000
0001
0010
0100
1000
0100
0010
0001
1000
0001
0100
0001
0000
,  // measure 57
0100
0000
0001
0100
0001
0000
0100
0000
0001
0100
0001
0000
0100
0000
0001
0100
,  // measure 58
0001
0000
0100
0000
0001
0100
0010
1000
0100
0010
0100
1000
0001
1000
0001
0000
,  // measure 59
1000
0000
0001
1000
0001
0000
1000
0000
0001
1000
0001
0000
0100
0001
0100
0001
,  // measure 60
0100
0000
0000
0010
0000
0000
1000
0000
0000
0010
0000
0000
1000
0000
0000
0010
0000
0000
0100
0000
0000
0010
0000
0000
1000
0000
0000
0000
0000
0000
0000
0000
0000
0000
0000
0000
1000
0000
0000
0000
0100
0000
0000
0000
0010
0000
0000
0000
,  // measure 61
0001
0010
0100
1000
0100
0010
0001
0010
0100
1000
0100
0010
,  // measure 62
0001
0010
0100
0010
0001
0100
0010
1000
0001
1000
0100
0010
,  // measure 63
0001
0010
0100
1000
0100
0010
0001
0010
0100
1000
0100
0010
,  // measure 64
0001
0000
0000
0000
0010
0000
0000
0000
0100
0000
0000
0000
0010
0000
0000
0000
0001
0000
0000
0000
1000
0000
0000
0000
0100
0000
0000
0000
0010
0000
0000
0000
0001
0000
0000
0000
1000
0000
0000
0000
0000
0000
0000
0000
0000
1000
0000
0000
,  // measure 65
0100
0000
0000
0100
0010
0000
0000
0010
0001
0000
0000
0001
0100
0000
0000
0100
,  // measure 66
0010
0000
0000
0010
1000
0000
0000
1000
0001
0000
0000
0001
0010
0000
0100
0000
,  // measure 67
1000
0000
0100
0000
0010
0000
0001
0000
1000
0000
0001
0000
1000
0000
0100
1000
,  // measure 68
0000
0100
0010
0000
0100
0010
0001
0010
0001
0100
0010
1000
0002
0000
0000
0000
,  // measure 69
0000
0000
0000
0013
,  // measure 70
0010
0110
2002
3003
,  // measure 71
0001
0100
0000
1000
0100
0001
0000
0100
,  // measure 72
0010
0000
1000
0010
0000
0100
0001
0000
0010
0000
0100
0010
0000
0100
1000
0000
,  // measure 73
0001
0010
0000
0100
1000
0010
0000
0100
,  // measure 74
0001
0000
1000
0010
0000
0100
0001
0000
0010
0100
0000
0010
0001
0000
1000
0000
,  // measure 75
0001
0000
0000
0001
0000
0000
0001
0000
0100
0000
0000
0100
0000
0000
0100
0010
,  // measure 76
1000
0000
0000
1000
0000
0000
0100
0000
0010
0000
0100
1000
0010
0000
0100
0000
,  // measure 77
0001
1000
0001
0000
0100
0010
0100
0000
0010
1000
0010
0000
0100
0001
0100
0000
,  // measure 78
0001
0010
0100
0000
0010
0001
0100
0000
0010
1000
0100
0000
0010
0100
1000
0000
,  // measure 79
0001
0100
0000
1000
0010
0001
0000
0001
,  // measure 80
0010
0000
0100
0001
0010
0000
0100
0000
1000
0000
0100
1000
0010
0000
0100
0000
,  // measure 81
0001
0010
0000
0100
1000
0001
0000
1000
,  // measure 82
0001
0100
0001
0000
0100
0010
0100
0000
0010
1000
0010
0000
1000
0001
1000
0000
,  // measure 83
0001
0000
0000
0010
0000
0000
0100
0000
1000
0000
0000
0100
0000
0000
1000
0010
,  // measure 84
0100
0000
0000
0001
0000
0000
1000
0000
0010
0000
0100
0010
1000
0000
0001
0000
,  // measure 85
1000
0100
1000
0000
0100
0010
0100
0000
0010
0001
0010
0000
0001
0100
0001
0000
,  // measure 86
0100
0010
1000
0001
0010
0100
0010
0001
0100
0010
1000
0001
0010
0100
1000
0100
,  // measure 87
0020
0000
0000
0000
0001
0000
0000
0000
0130
1000
0010
0000
1010
0000
0000
0000
,  // measure 88
0102
0000
0000
0000
0010
0000
0000
0000
1003
0001
0100
0000
0101
0000
0000
0000
,  // measure 89
0001
0000
0000
0010
0000
0000
0100
0000
0010
0000
0000
0001
0000
0000
1000
0000
0010
0000
0000
0100
0000
0000
0010
0000
1000
0000
0001
1000
0001
0000
1000
0000
,  // measure 90
0100
0000
0010
0000
0001
0000
0010
0000
1000
0000
0010
0000
0001
0000
0100
0000
0010
0001
0010
0000
0100
0000
1000
0000
0001
1000
0001
0000
0100
0000
0010
0000
,  // measure 91
1000
0001
0010
0001
1000
0010
1000
0001
,  // measure 92
0010
0001
1000
0010
1000
0001
0010
0001
,  // measure 93
1001
1000
0100
1000
0001
0100
0001
1000
,  // measure 94
0100
1000
0001
0100
0001
1000
0100
1000
,  // measure 95
1001
0000
0000
1000
0000
0000
0010
0000
0100
0000
0000
0001
0000
0000
0010
0000
,  // measure 96
0100
0000
0000
0010
0000
0000
0001
0000
0010
0000
0100
1000
0010
0000
0100
0000
,  // measure 97
0001
0100
0010
1000
0001
0010
0100
0010
0001
0100
0010
1000
0001
0010
0100
1000
,  // measure 98
0001
1000
0010
0000
,  // measure 99
0100
0001
0010
0000
1100
0000
0000
1000
,  // measure 100
0001
0100
0001
0100
0001
1000
0010
1000
,  // measure 101
0010
1000
0010
0100
0010
1000
0001
1000
,  // measure 102
0001
0010
0100
0000
1100
0000
0000
0000
,  // measure 103
0100
0010
0001
0000
0011
0000
0000
0000
,  // measure 104
0000
0001
0010
0100
1000
0001
1000
0010
,  // measure 105
0100
0010
0100
0001
0100
0010
1000
0010
,  // measure 106
1000
0000
1001
0000
0000
0001
0000
0000
,  // measure 107
0100
0000
0110
0000
0000
0010
0000
0000
,  // measure 108
1000
0100
1000
0000
0000
0100
0000
0000
,  // measure 109
0010
0000
0110
0000
0100
0010
0001
0000
,  // measure 110
1000
0000
0001
0000
0100
0010
0000
1000
,  // measure 111
0100
0000
0010
0100
0000
1000
0001
0000
,  // measure 112
0100
0000
0001
0100
0010
1000
0001
0010
,  // measure 113
0100
0010
0001
0100
0010
1000
0100
0010
,  // measure 114
0001
0000
1000
0000
1001
0000
0000
0001
,  // measure 115
0100
0010
1000
0000
1001
0000
0000
1000
,  // measure 116
0100
0010
0001
1000
0001
0100
0001
0100
,  // measure 117
0010
1000
0010
1000
0100
1000
0001
0010
,  // measure 118
0001
0010
0100
0000
1100
0000
0000
1000
,  // measure 119
0100
0010
0001
0000
1001
0000
0000
0001
,  // measure 120
0100
0010
1000
0001
1000
0001
0010
0001
,  // measure 121
0010
0100
0010
0100
1000
0100
1000
0001
,  // measure 122
1000
0000
1001
0000
0000
0101
0000
0000
,  // measure 123
0011
0000
1100
0000
0000
1001
0000
0000
,  // measure 124
1000
0010
0100
0000
0000
1010
0000
0000
,  // measure 125
0110
0000
0101
0000
0001
0100
0010
0000
,  // measure 126
1000
0000
0001
0100
0010
1000
0001
0010
,  // measure 127
0100
0010
0001
0100
0010
1000
0001
0010
,  // measure 128
0100
0010
0001
0100
0010
1000
0001
0010
,  // measure 129
0100
1000
0002
0000
0000
0000
2003
0000
,  // measure 130
0000
0000
0000
3001
0000
0010
0000
0100
0000
1000
0000
0100
,  // measure 131
0000
0010
0000
0001
0000
0010
0000
0100
0000
1000
0000
0100
,  // measure 132
0000
0010
0000
0001
0000
0010
0000
0100
0000
1000
0000
0100
,  // measure 133
0000
0010
0000
0001
0000
0010
0000
0100
0000
1000
0000
0000
,  // measure 134
1000
0000
0100
0000
0010
0000
0001
0000
0010
0000
0100
0000
,  // measure 135
1000
0000
0100
0000
0010
0000
0001
0000
0010
0000
0100
0000
,  // measure 136
1000
0000
0100
0000
0010
0000
0001
0000
0010
0000
0100
0000
,  // measure 137
1000
0000
0000
0000
0100
0000
0000
0000
0010
0000
0000
0000
0001
0000
0000
0000
0000
0000
0001
0000
0000
1000
0000
0000
,  // measure 138
0001
1000
0001
1000
0001
1000
0001
1000
,  // measure 139
0001
1000
0001
1000
0001
1000
0001
1000
,  // measure 140
0001
1000
0001
1000
0001
1000
0001
1000
,  // measure 141
0001
1000
0001
0000
1000
0001
0100
0010
,  // measure 142
1000
0001
0010
0100
0010
0001
0100
0010
,  // measure 143
1000
0001
0010
0100
1000
0100
0010
0100
,  // measure 144
1000
0001
0010
0100
1000
0001
0010
0100
,  // measure 145
1000
2002
0000
0000
,  // measure 146
0000
0000
0000
0000
,  // measure 147
3003
0000
0000
0000
;

//---------------dance-single - ----------------
#NOTES:
     dance-single:
     :
     Easy:
     14:
     0.563088,1.000520,0.260223,0.053575,0.038268,515.000000,481.000000,34.000000,7.000000,0.000000,0.000000,0.563088,1.000520,0.260223,0.053575,0.038268,515.000000,481.000000,34.000000,7.000000,0.000000,0.000000:
// measure 0
0000
0000
0000
0000
,  // measure 1
0000
0000
0000
0000
,  // measure 2
0000
0000
0000
0000
,  // measure 3
0000
0000
0000
0000
,  // measure 4
0000
0000
0000
0000
,  // measure 5
0000
0000
0000
0000
,  // measure 6
0000
0000
0000
0000
,  // measure 7
0000
0000
0000
0000
,  // measure 8
1000
0001
0010
0001
,  // measure 9
0100
0010
1000
0001
,  // measure 10
0010
1000
0010
0100
,  // measure 11
0010
0001
0100
0010
,  // measure 12
1000
0100
0001
0100
,  // measure 13
0010
0001
0100
0010
,  // measure 14
1000
0001
0010
0100
,  // measure 15
0010
0001
0100
0010
,  // measure 16
2002
0000
0000
0000
,  // measure 17
3003
0000
0000
0000
,  // measure 18
0000
1000
0001
0010
,  // measure 19
0000
0100
0010
0001
,  // measure 20
0000
0010
0001
0100
,  // measure 21
0000
0010
1000
0001
,  // measure 22
0000
0010
0100
1000
,  // measure 23
0000
0100
1000
0010
,  // measure 24
0000
0100
0010
1000
,  // measure 25
0000
0001
1000
0010
,  // measure 26
1000
0001
0010
0100
,  // measure 27
0000
0010
0001
0100
,  // measure 28
0000
0010
1000
0001
,  // measure 29
0000
0010
0100
1000
,  // measure 30
0000
0100
1000
0010
,  // measure 31
0000
0100
0010
1000
,  // measure 32
0000
0001
0010
0100
,  // measure 33
1000
0001
0010
0200
,  // measure 34
0000
1300
0100
0010
,  // measure 35
0000
0100
1000
0010
,  // measure 36
0000
0100
0001
1000
,  // measure 37
0000
0100
0010
0001
,  // measure 38
1000
0001
0100
0010
,  // measure 39
0000
1000
0100
0010
,  // measure 40
0000
0001
0100
0010
,  // measure 41
0000
0100
0010
1000
,  // measure 42
0100
0010
0100
1000
,  // measure 43
0000
0001
0100
0010
,  // measure 44
0000
0100
0001
1000
,  // measure 45
0000
0001
1000
0100
,  // measure 46
0010
0100
1000
0010
,  // measure 47
0000
0100
0001
1000
,  // measure 48
0000
0100
0010
0001
,  // measure 49
0010
0001
0100
0010
,  // measure 50
1000
0200
0000
0000
,  // measure 51
0000
0000
0000
1300
,  // measure 52
1000
1000
1001
0010
,  // measure 53
0000
1000
0000
0000
0100
0000
0000
1000
,  // measure 54
0000
0010
0100
0001
,  // measure 55
0000
0010
0000
0000
0100
0000
0010
0000
,  // measure 56
0001
0100
0010
1000
,  // measure 57
0000
0001
0000
0000
0010
0000
0000
0001
,  // measure 58
0000
0100
0001
0010
,  // measure 59
0000
0001
0000
0000
1000
0000
0100
0000
,  // measure 60
1000
0010
0100
0001
,  // measure 61
0010
0001
1000
0001
,  // measure 62
0100
0000
0001
0010
0100
1000
0100
0000
,  // measure 63
1000
0010
0100
0010
,  // measure 64
1000
0000
0001
0010
0100
0010
0001
0000
,  // measure 65
1000
0010
1000
0100
,  // measure 66
1000
0000
0010
0100
0001
1000
0010
0000
,  // measure 67
1000
0100
0010
0100
,  // measure 68
1000
0000
0010
0100
0001
1000
0020
0000
,  // measure 69
0000
0000
0000
0030
,  // measure 70
0000
0000
0000
0000
,  // measure 71
1000
0001
0000
0000
0010
0100
0000
0000
,  // measure 72
0010
0001
0010
0100
,  // measure 73
1000
0100
0000
0000
1000
0010
0000
0000
,  // measure 74
0100
0001
0010
0001
,  // measure 75
1000
0000
0000
0001
0000
0000
0100
0000
0001
0000
0000
0010
0000
0000
0100
0000
,  // measure 76
0010
0000
0000
0001
0000
0000
1000
0000
0100
0000
0000
0000
1000
0000
0000
0000
,  // measure 77
0010
0100
0001
1000
,  // measure 78
0001
0010
0100
0010
,  // measure 79
0100
1000
0000
0000
0100
0010
0000
0000
,  // measure 80
0001
0100
0001
1000
,  // measure 81
0100
0010
0000
0000
0100
1000
0000
0000
,  // measure 82
0100
1000
0010
0100
,  // measure 83
0001
0000
0000
0010
0000
0000
0001
0000
0100
0000
0000
0010
0000
0000
1000
0000
,  // measure 84
0100
0000
0000
1000
0000
0000
0010
0000
0100
0000
0000
0000
0001
0000
0000
0000
,  // measure 85
0010
0001
0100
0010
,  // measure 86
1000
0100
0010
0001
,  // measure 87
1000
0000
0000
0000
0001
0000
0000
0000
0100
0010
0100
0000
0010
0000
0000
0000
,  // measure 88
1000
0000
0000
0000
0001
0000
0000
0000
1000
0100
1000
0000
0100
0000
0000
0000
,  // measure 89
1000
0000
0000
0000
0010
0000
0000
0000
0100
0001
0100
0000
0001
0000
0000
0000
,  // measure 90
0010
0000
0000
0000
0001
0000
0000
0000
1000
0001
1000
0000
0001
0000
0000
0000
,  // measure 91
1001
0001
1000
0010
,  // measure 92
1000
0100
0001
0100
,  // measure 93
1001
0001
0010
0001
,  // measure 94
1000
0010
0001
0010
,  // measure 95
1001
1001
1001
1001
,  // measure 96
0110
0110
0110
0110
,  // measure 97
0101
1010
1100
0011
,  // measure 98
0000
1000
0010
0000
,  // measure 99
0100
0001
0010
0000
,  // measure 100
0010
0001
0100
0010
,  // measure 101
1000
0001
0010
0100
,  // measure 102
1000
0001
0100
0000
,  // measure 103
0001
1000
0100
0000
,  // measure 104
0100
0010
0001
0010
,  // measure 105
0001
0100
0010
1000
,  // measure 106
0001
0000
1000
0000
0000
0010
0000
0000
,  // measure 107
1000
0000
0100
0000
0000
0010
0000
0000
,  // measure 108
0100
0000
1000
0000
0000
0001
0000
0000
,  // measure 109
0100
0001
0010
0100
,  // measure 110
1000
0000
0100
0000
0000
1000
0000
0000
,  // measure 111
0010
0000
0000
0100
0000
0000
0010
0000
,  // measure 112
1000
0000
0001
0000
0000
0010
0000
0000
,  // measure 113
0100
0000
0000
1000
0000
0000
0200
0000
,  // measure 114
0000
1300
0010
0000
,  // measure 115
0100
0001
1000
0000
,  // measure 116
1000
0001
0010
0001
,  // measure 117
0100
0010
1000
0001
,  // measure 118
0010
0100
0010
0000
,  // measure 119
0010
0001
0100
0000
,  // measure 120
0010
1000
0001
0010
,  // measure 121
0100
0010
0001
1000
,  // measure 122
0100
0000
0010
0000
0000
0010
0000
0000
,  // measure 123
0100
0000
1000
0000
0000
1000
0000
0000
,  // measure 124
1000
0000
0001
0000
0000
0100
0000
0000
,  // measure 125
0010
1000
0100
0001
,  // measure 126
0100
0010
0001
0100
,  // measure 127
0010
1000
0001
0010
,  // measure 128
0100
0010
0001
0100
,  // measure 129
0010
1000
0001
0010
,  // measure 130
0100
1100
0000
0011
,  // measure 131
0000
1100
0000
0011
,  // measure 132
0000
1100
0000
0011
,  // measure 133
0000
1100
0000
1001
,  // measure 134
0101
0000
1010
0000
,  // measure 135
0101
0000
1010
0000
,  // measure 136
0101
0000
1010
0000
,  // measure 137
0101
0000
1001
0001
,  // measure 138
0100
0010
1000
0100
,  // measure 139
0010
0100
1000
0010
,  // measure 140
0100
0001
0010
0100
,  // measure 141
1000
1001
1000
0100
,  // measure 142
0010
0001
0010
0100
,  // measure 143
1000
0100
0020
0000
,  // measure 144
0000
0000
0000
0000
,  // measure 145
0130
1001
0000
0000
;

//---------------dance-single - ----------------
#NOTES:
     dance-single:
     :
     Medium:
     16:
     0.706320,1.000520,0.267877,0.099497,0.176033,646.000000,611.000000,35.000000,13.000000,0.000000,0.000000,0.706320,1.000520,0.267877,0.099497,0.176033,646.000000,611.000000,35.000000,13.000000,0.000000,0.000000:
// measure 0
0000
0000
0000
0000
,  // measure 1
0000
0000
0000
0000
,  // measure 2
0000
0000
0000
0000
,  // measure 3
0000
0000
0000
0000
,  // measure 4
0000
0000
0000
0000
,  // measure 5
0000
0000
0000
0000
,  // measure 6
0000
0000
0000
0000
,  // measure 7
0000
0000
0000
0000
,  // measure 8
1000
0001
0010
0001
,  // measure 9
1000
0010
0100
0001
,  // measure 10
0010
0100
1000
0100
,  // measure 11
1000
0010
0100
0001
,  // measure 12
0010
0100
0010
0001
,  // measure 13
0100
0010
1000
0001
,  // measure 14
0010
0100
0010
0001
,  // measure 15
1000
0100
0001
0100
,  // measure 16
2200
0000
0000
3300
,  // measure 17
0010
0001
0011
1100
,  // measure 18
0000
1000
0001
0010
,  // measure 19
0000
0100
0000
0110
,  // measure 20
0000
0010
0001
0100
,  // measure 21
0000
0101
0000
1010
,  // measure 22
0000
1000
0001
0010
,  // measure 23
0000
0100
0000
1100
,  // measure 24
0000
1000
0100
0001
,  // measure 25
0100
0010
0001
0100
,  // measure 26
0010
0100
0001
0100
,  // measure 27
0001
1000
0010
1000
,  // measure 28
0001
1000
0001
1000
,  // measure 29
0100
1000
0100
0010
,  // measure 30
0001
0010
0001
0100
,  // measure 31
0010
1000
0001
0010
,  // measure 32
0100
0010
0001
0100
,  // measure 33
0010
1000
0001
0020
,  // measure 34
0000
0130
1000
0010
,  // measure 35
0000
0100
0000
0101
,  // measure 36
0000
0001
0010
0100
,  // measure 37
0000
0110
0000
1100
,  // measure 38
0000
0100
1000
0010
,  // measure 39
0000
1000
0000
1010
,  // measure 40
0000
1000
0010
0100
,  // measure 41
0000
0101
0000
0011
,  // measure 42
0000
0001
1000
0010
,  // measure 43
0100
0001
1000
0010
,  // measure 44
0100
0001
1000
0100
,  // measure 45
0010
0001
1000
0100
,  // measure 46
0010
0001
0010
0001
,  // measure 47
0100
0010
1000
0001
,  // measure 48
0010
0100
0010
0001
,  // measure 49
0100
0010
1000
0100
,  // measure 50
0010
0000
0001
0010
0100
1000
0100
0010
,  // measure 51
0100
1000
0100
0010
0001
0010
0110
0000
,  // measure 52
0110
0110
1001
0001
,  // measure 53
1000
0010
0000
0100
0001
0000
1000
0010
,  // measure 54
0000
0100
0001
0000
0010
0000
0100
0000
,  // measure 55
1000
0100
0000
0010
0001
0000
1000
0100
,  // measure 56
0001
0000
0001
0100
1000
0000
1000
0000
,  // measure 57
0010
0100
0000
0001
1000
0000
0010
0100
,  // measure 58
0000
0001
1000
0000
0010
0000
0100
0000
,  // measure 59
0001
0010
0000
0100
1000
0000
0100
1000
,  // measure 60
0010
0000
0100
0001
1000
0000
0001
0100
,  // measure 61
0001
0000
0100
0010
0100
0000
0010
1000
,  // measure 62
0010
0000
1000
0010
0100
0001
1000
0100
,  // measure 63
1000
0000
0100
0010
0100
0000
0010
0001
,  // measure 64
0010
0000
0001
0010
0100
1000
0100
1000
,  // measure 65
0100
0000
0010
0100
0010
0000
0001
0010
,  // measure 66
0001
0000
0010
0100
0010
0000
0100
0010
,  // measure 67
0001
0000
0100
0000
0010
0000
1000
0000
0001
0000
0010
0000
0100
0000
0000
0010
,  // measure 68
0000
0001
1000
0001
0100
0010
2020
0000
,  // measure 69
0000
0000
3030
0101
,  // measure 70
0101
1010
1001
0000
,  // measure 71
1000
0100
0000
0010
0001
0100
0000
0010
,  // measure 72
1000
0000
0000
1000
0000
0000
0100
0000
0010
0000
0000
0010
0000
0000
0001
0000
,  // measure 73
0010
0001
0000
0100
0010
1000
0000
0001
,  // measure 74
1000
0000
0000
1000
0000
0000
0010
0000
0100
0000
0000
0100
0000
0000
0010
0000
,  // measure 75
1010
0000
0000
0010
0000
0000
0100
0000
0101
0000
0000
0001
0000
0000
0010
0000
,  // measure 76
0110
0000
0000
0100
0000
0000
0010
0000
0001
0000
1000
0000
0100
0000
0010
0000
,  // measure 77
0100
0000
0000
0100
0000
0000
1000
0000
0000
1000
0000
0000
0001
0000
1000
0000
,  // measure 78
0010
0000
0000
0100
0000
0000
0001
0000
0000
0010
0000
0000
0100
0000
0010
0000
,  // measure 79
0001
0100
0000
0010
1000
0001
0000
0010
,  // measure 80
0100
0000
0000
0100
0000
0000
1000
0000
0010
0000
0000
0010
0000
0000
0100
0000
,  // measure 81
0001
1000
0000
0001
0010
0100
0000
0010
,  // measure 82
0001
0000
0000
0001
0000
0000
1000
0000
0010
0000
0000
0010
0000
0000
0100
0000
,  // measure 83
0101
0000
0000
0010
0000
0000
0100
0000
0110
0000
0000
1000
0000
0000
0010
0000
,  // measure 84
1010
0000
0000
0100
0000
0000
0001
0000
0100
0000
0010
0000
1000
0000
0100
0000
,  // measure 85
0010
0000
0000
0100
0000
0000
0010
0000
0000
0001
0000
0000
0010
0000
0100
0000
,  // measure 86
1000
0000
0000
0100
0000
0000
1000
0000
0000
0010
0000
0000
0100
0000
0010
0000
,  // measure 87
1001
0000
0000
0000
1000
0000
0000
0000
0001
0100
0001
0000
0100
0000
0000
0000
,  // measure 88
0001
0000
0000
0000
0010
0000
0000
0000
0100
0010
0001
0010
1000
0010
0100
0001
,  // measure 89
0100
0000
0000
0000
0010
0000
0000
0000
1000
0010
1000
0000
0010
0000
0000
0000
,  // measure 90
1000
0000
0000
0000
0001
0000
0000
0000
0010
0100
0010
0001
0100
0010
1000
0000
,  // measure 91
0001
0100
0000
0010
1000
0100
0000
0010
,  // measure 92
0200
2300
3020
0230
,  // measure 93
0301
0100
0000
0010
1000
0100
0000
0010
,  // measure 94
0200
0320
0032
0203
,  // measure 95
0310
0010
1000
1000
,  // measure 96
0001
0001
0010
0010
,  // measure 97
0110
1001
0110
1001
,  // measure 98
0000
0001
1000
0000
,  // measure 99
0010
1000
0100
0000
,  // measure 100
0010
0100
1000
0010
,  // measure 101
0100
0001
0010
0100
,  // measure 102
0010
0001
0100
0000
,  // measure 103
1000
0100
0001
0000
,  // measure 104
0100
0010
1000
0001
,  // measure 105
0010
1000
0010
0001
,  // measure 106
0100
0000
0001
0000
0000
0001
0000
0000
,  // measure 107
1000
0000
0010
0000
0000
0010
0000
0000
,  // measure 108
0100
0000
0001
0000
0000
0010
0000
0000
,  // measure 109
0100
0010
0001
0100
,  // measure 110
0010
0000
1000
0000
0010
0100
0000
0001
,  // measure 111
1000
0000
0010
0100
0000
0001
1000
0000
,  // measure 112
0001
0000
1000
0000
0100
1000
0000
0100
,  // measure 113
0010
0000
0001
0010
0000
0100
1000
0000
,  // measure 114
0001
1000
0100
0000
,  // measure 115
0010
0100
1000
0000
,  // measure 116
0100
1000
0010
0100
,  // measure 117
0001
0010
0001
1000
,  // measure 118
0010
1000
0100
0000
,  // measure 119
0001
0100
1000
0000
,  // measure 120
0100
1000
0010
0100
,  // measure 121
0001
0010
0001
0100
,  // measure 122
0010
0000
1000
0000
0000
1000
0000
0000
,  // measure 123
0100
0000
0010
0000
0000
0010
0000
0000
,  // measure 124
0001
0000
0010
0000
0000
0100
0000
0000
,  // measure 125
0010
0001
1000
0010
,  // measure 126
0100
0000
0001
0000
1000
0010
0000
0100
,  // measure 127
0001
0000
0010
0100
0000
0010
0001
0000
,  // measure 128
1000
0000
0001
0000
0010
0100
0000
1000
,  // measure 129
0010
0000
0100
0001
0000
0010
0100
0000
,  // measure 130
1000
0000
0000
0001
0000
0000
0000
1000
0000
0100
0000
0000
,  // measure 131
0000
0100
0000
0010
0000
0000
0000
0010
0000
0001
0000
0000
,  // measure 132
0000
0010
0000
0100
0000
0000
0000
1000
0000
0100
0000
0000
,  // measure 133
0000
1000
0000
0010
0000
0000
0000
0100
0000
0001
0000
0000
,  // measure 134
1000
0000
0000
0000
0001
0000
0010
0000
0000
0000
0100
0000
,  // measure 135
1000
0000
0000
0000
0100
0000
0010
0000
0000
0000
0001
0000
,  // measure 136
0100
0000
0000
0000
0010
0000
1000
0000
0000
0000
0100
0000
,  // measure 137
0010
0000
0000
0000
0001
0000
1000
0000
0000
0001
0000
0000
,  // measure 138
0100
0010
1000
0001
,  // measure 139
0010
0100
0010
0001
,  // measure 140
0100
0010
1000
0001
,  // measure 141
0010
0000
1001
0000
1000
0100
1000
0000
,  // measure 142
0001
0000
0100
0000
0010
0100
0010
0000
,  // measure 143
0100
0000
0010
0000
1000
0001
1000
0001
,  // measure 144
1000
0001
1000
0001
1000
0001
1000
0001
,  // measure 145
1000
0110
0000
0000
;

//---------------dance-single - ----------------
#NOTES:
     dance-single:
     :
     Beginner:
     8:
     0.249290,0.389091,0.045922,0.000000,0.000000,228.000000,222.000000,6.000000,0.000000,0.000000,0.000000,0.249290,0.389091,0.045922,0.000000,0.000000,228.000000,222.000000,6.000000,0.000000,0.000000,0.000000:
// measure 0
0000
0000
0000
0000
,  // measure 1
0000
0000
0000
0000
,  // measure 2
0000
0000
0000
0000
,  // measure 3
0000
0000
0000
0000
,  // measure 4
0000
0000
0000
0000
,  // measure 5
0000
0000
0000
0000
,  // measure 6
0000
0000
0000
0000
,  // measure 7
0000
0000
0000
0000
,  // measure 8
1000
0000
0000
0000
,  // measure 9
0001
0000
1000
0010
,  // measure 10
1000
0000
0001
0000
,  // measure 11
0010
0000
0000
0100
,  // measure 12
0010
0000
0000
0000
,  // measure 13
0001
0000
0000
0000
,  // measure 14
1000
0000
0001
0000
,  // measure 15
0100
0000
0010
0000
,  // measure 16
1001
0000
0000
0000
,  // measure 17
0000
0000
0000
0000
,  // measure 18
0000
1000
0000
0000
,  // measure 19
0000
1000
0000
0000
,  // measure 20
0000
0001
0000
0000
,  // measure 21
0000
0001
0000
0000
,  // measure 22
0000
1000
0000
0000
,  // measure 23
0000
0001
0000
0000
,  // measure 24
0000
1000
0000
0000
,  // measure 25
0000
0010
0000
1000
,  // measure 26
0000
0100
0000
0000
,  // measure 27
0000
0100
0000
0000
,  // measure 28
0000
0010
0000
0000
,  // measure 29
0000
0010
0000
0000
,  // measure 30
0000
0001
0000
0000
,  // measure 31
0000
0001
0000
0000
,  // measure 32
0000
1000
0000
0001
,  // measure 33
0000
0100
0000
0110
,  // measure 34
0000
0010
0000
0000
,  // measure 35
0000
0010
0000
0000
,  // measure 36
0000
0100
0000
0000
,  // measure 37
0000
0100
0000
0000
,  // measure 38
0000
0001
0000
0000
,  // measure 39
0000
0001
0000
0000
,  // measure 40
0000
1000
0000
0000
,  // measure 41
0000
1000
0000
0001
,  // measure 42
0000
0100
0000
0000
,  // measure 43
0000
0010
0000
0000
,  // measure 44
0000
1000
0000
0000
,  // measure 45
0000
0100
0000
0000
,  // measure 46
0000
0010
0000
0000
,  // measure 47
0000
0100
0000
0000
,  // measure 48
0000
0010
0000
0001
,  // measure 49
0000
0100
0000
0010
,  // measure 50
0000
1000
0000
0000
,  // measure 51
0000
0000
0000
0000
,  // measure 52
0000
0000
0000
0001
,  // measure 53
0000
0000
0001
0000
,  // measure 54
0000
0001
1000
0010
,  // measure 55
0000
0000
0010
0100
,  // measure 56
0000
0010
0000
1000
,  // measure 57
0000
0000
1000
0000
,  // measure 58
0000
1000
0001
0010
,  // measure 59
0000
0000
0010
0001
,  // measure 60
0000
0100
0000
0010
,  // measure 61
0000
1000
0000
0100
,  // measure 62
0000
0010
0100
1000
,  // measure 63
0000
0100
0000
0010
,  // measure 64
0000
0001
0010
0100
,  // measure 65
0000
0010
0000
0001
,  // measure 66
0000
1000
0000
0010
,  // measure 67
0000
0100
0000
0001
,  // measure 68
0000
1000
0100
0010
,  // measure 69
0000
0000
0000
0100
,  // measure 70
0100
0100
0100
0000
,  // measure 71
0010
0000
0001
0000
,  // measure 72
1000
0001
0100
0001
,  // measure 73
0010
0000
0001
0000
,  // measure 74
1000
0100
0010
0100
,  // measure 75
1000
0000
0010
0000
,  // measure 76
0100
0000
0001
0000
,  // measure 77
1000
0000
0001
0000
,  // measure 78
0100
0000
0001
0000
,  // measure 79
0010
0000
0001
0000
,  // measure 80
1000
0010
1000
0100
,  // measure 81
0010
0000
0100
0000
,  // measure 82
0010
0001
0010
0100
,  // measure 83
1000
0000
0100
0000
,  // measure 84
1000
0000
0010
0000
,  // measure 85
0100
0000
0010
0000
,  // measure 86
1000
0000
0001
0000
,  // measure 87
1000
0000
0001
0000
,  // measure 88
0100
0000
0010
0000
,  // measure 89
1000
0000
0001
0000
,  // measure 90
0010
0000
0100
0000
,  // measure 91
1000
0000
1000
0000
,  // measure 92
1000
0000
0000
0000
,  // measure 93
1001
0000
0001
0000
,  // measure 94
0001
0000
0000
0000
,  // measure 95
0110
0000
0000
0000
,  // measure 96
1001
0000
0000
0000
,  // measure 97
0001
0001
1000
1000
,  // measure 98
0000
0001
0000
0000
,  // measure 99
0000
1000
0000
0000
,  // measure 100
0000
0010
0000
1000
,  // measure 101
0000
0010
0000
0100
,  // measure 102
0000
0001
0000
0000
,  // measure 103
0000
0010
0000
0000
,  // measure 104
0000
0100
0000
0010
,  // measure 105
0000
0001
0000
1000
,  // measure 106
0000
0010
0000
0000
,  // measure 107
0000
1000
0000
0000
,  // measure 108
0000
0001
0000
0000
,  // measure 109
0000
0010
0000
0000
,  // measure 110
0000
0001
0000
1000
,  // measure 111
0000
0001
0000
1000
,  // measure 112
0000
0001
0000
0100
,  // measure 113
0000
0010
0100
0010
,  // measure 114
0000
1000
0000
0000
,  // measure 115
0000
0010
0000
0000
,  // measure 116
0000
0100
0000
0001
,  // measure 117
0000
0010
0000
0100
,  // measure 118
0000
0010
0000
0000
,  // measure 119
0000
0001
0000
0000
,  // measure 120
0000
1000
0000
0100
,  // measure 121
0000
0010
0000
0100
,  // measure 122
0000
1000
0000
0000
,  // measure 123
0000
0100
0000
0000
,  // measure 124
0000
1000
0000
0000
,  // measure 125
0000
0010
0000
0000
,  // measure 126
0000
0100
0000
0010
,  // measure 127
0000
1000
0000
0001
,  // measure 128
0000
0010
0000
0100
,  // measure 129
0000
0010
0000
0001
,  // measure 130
0000
1000
0000
0000
,  // measure 131
0000
1000
0000
0000
,  // measure 132
0000
1000
0000
0000
,  // measure 133
0000
1000
0000
0000
,  // measure 134
0001
0000
0000
0000
,  // measure 135
0001
0000
0000
0000
,  // measure 136
0001
0000
0000
0000
,  // measure 137
0001
0000
0000
0100
,  // measure 138
0000
0000
0000
0100
,  // measure 139
0000
0000
0000
0100
,  // measure 140
0000
0000
0000
0100
,  // measure 141
0000
0000
0010
0000
,  // measure 142
0000
0000
0010
0000
,  // measure 143
0000
0000
0100
0000
,  // measure 144
0010
0000
1000
0000
,  // measure 145
0001
1001
0000
0000
;
