#TITLE:DYSYLM;
#SUBTITLE:;
#ARTIST:Gammer & Darren Styles;
#TITLETRANSLIT:;
#SUBTITLETRANSLIT:;
#ARTISTTRANSLIT:;
#GENRE:HDM;
#CREDIT:;
#BANNER:banner.png;
#BACKGROUND:background.png;
#LYRICSPATH:;
#CDTITLE:cdtitle.png;
#MUSIC:DYSYLM.ogg;
#OFFSET:1.220000;
#SAMPLESTART:45.348236;
#SAMPLELENGTH:22.588242;
#LASTBEATHINT:0.623333;
#SELECTABLE:YES;
#BPMS:0.000000=170.000000
;
#STOPS:
;
#BGCHANGES:;
#KEYSOUNDS:;
#ATTACKS:;

//---------------dance-single - ----------------
#NOTES:
     dance-single:
     :
     Hard:
     12:
     0.471101,0.584723,0.390052,0.177296,0.070918,465.000000,410.000000,55.000000,25.000000,0.000000,0.000000,0.471101,0.584723,0.390052,0.177296,0.070918,465.000000,410.000000,55.000000,25.000000,0.000000,0.000000:
// measure 0
0000
0000
0000
0000
,  // measure 1
0000
0000
0000
0000
,  // measure 2
0000
0000
0000
0000
,  // measure 3
0000
0000
0000
0000
,  // measure 4
0000
0000
0000
0000
,  // measure 5
0000
0000
0000
0000
,  // measure 6
0000
0000
0000
0000
,  // measure 7
0000
0000
0000
0000
,  // measure 8
0000
0000
0000
0000
,  // measure 9
1000
1000
0001
1000
,  // measure 10
0001
0010
0001
0100
0000
0000
0000
0010
,  // measure 11
1000
1000
0100
1000
,  // measure 12
0100
0010
0100
1000
0000
0000
0000
0001
,  // measure 13
1000
1000
0010
1000
,  // measure 14
0010
0100
0001
1000
0000
0000
0000
0100
,  // measure 15
0010
0100
1000
0001
1000
0000
0001
0000
,  // measure 16
0020
0000
0100
0200
0000
0000
0330
0000
,  // measure 17
1001
0001
1000
1000
,  // measure 18
0001
0100
1000
0100
0000
0000
0000
0100
,  // measure 19
0010
0010
1000
1000
,  // measure 20
1000
0010
0001
0010
0000
0000
0000
0100
,  // measure 21
0001
0001
0010
0010
,  // measure 22
1000
0010
0001
0100
0000
0000
0000
0100
,  // measure 23
1000
1000
0100
0100
,  // measure 24
0100
0100
0010
1000
0000
0000
0000
0000
,  // measure 25
1001
1000
0001
0000
0100
0001
0100
0000
,  // measure 26
0010
1000
0010
0000
0001
0010
0001
0000
,  // measure 27
1000
0100
1000
0000
0100
0010
0100
0000
,  // measure 28
0010
0001
0010
0000
0001
0100
0001
0000
,  // measure 29
1000
0100
0010
0001
1000
0100
0010
0001
,  // measure 30
1000
0100
0010
0001
1000
0100
0010
0001
,  // measure 31
2000
0100
0010
0001
,  // measure 32
3002
0000
0000
2000
0000
0000
3003
0000
,  // measure 33
0101
0101
0011
0011
,  // measure 34
0010
0000
0010
0000
0100
0000
1000
0000
0000
0000
0000
0000
0000
0000
0001
1000
,  // measure 35
0001
0011
1001
1001
,  // measure 36
0010
0000
1000
0000
0010
0000
0100
0000
0000
0000
0000
0000
0000
0010
0100
0001
,  // measure 37
1000
1001
0011
0011
,  // measure 38
0010
0000
0100
0000
0010
0000
0001
0000
0000
0000
0000
0000
0000
0000
1000
0100
,  // measure 39
1000
1100
1010
1010
,  // measure 40
0010
0010
0100
0001
0000
0000
0000
0000
,  // measure 41
1000
0110
0011
0011
,  // measure 42
0010
0000
0100
0000
0010
0000
0001
0000
0000
0000
0000
0000
0000
0000
1000
0001
,  // measure 43
0100
0101
0011
0011
,  // measure 44
0010
0000
0100
0000
1000
0000
0100
0000
0000
0000
0000
0000
0000
0010
0001
0100
,  // measure 45
0010
1010
1001
1001
,  // measure 46
0001
0000
0010
0000
0001
0000
0100
0000
0000
0000
0000
0000
0000
0000
0010
1000
,  // measure 47
0100
0110
0011
0011
,  // measure 48
0001
0010
0001
0100
0000
0000
0000
0000
,  // measure 49
1020
0000
0000
0000
,  // measure 50
0230
0000
0000
0002
0000
0000
0000
0303
,  // measure 51
0200
0000
0000
0000
,  // measure 52
0320
0000
0000
2000
0000
0000
0000
3030
,  // measure 53
0200
0000
0000
0000
,  // measure 54
0302
0000
0000
0020
0000
0000
0000
0033
,  // measure 55
2000
0000
0000
0000
,  // measure 56
3002
0000
0000
2000
0000
0000
0000
3003
,  // measure 57
0110
0100
0001
0010
,  // measure 58
0100
0010
0001
1000
0000
0000
0000
0001
,  // measure 59
1000
0100
1000
0001
,  // measure 60
0100
0001
0010
0100
0000
0000
0000
0010
,  // measure 61
0001
0100
0001
1000
,  // measure 62
0100
0010
0100
1000
0000
0000
0000
0100
,  // measure 63
1000
1000
0001
0100
,  // measure 64
0020
0230
0302
0020
0000
0000
0000
0033
,  // measure 65
0001
1000
0100
1000
,  // measure 66
0100
0000
0100
0000
0010
0000
0001
0000
0000
0000
0000
0000
0000
0000
0010
0100
,  // measure 67
1000
1000
0001
0001
,  // measure 68
1000
0000
0010
0000
1000
0000
0001
0000
0000
0000
0000
0000
0001
0010
0100
1000
,  // measure 69
0100
0100
0010
0100
,  // measure 70
0010
0000
0001
0000
1000
0000
0010
0000
0000
0000
0000
0000
0000
0000
0100
0001
,  // measure 71
0100
0100
0001
0001
,  // measure 72
1000
0100
1000
0001
0000
0000
0000
0000
,  // measure 73
1000
0010
1000
0000
0010
0100
0010
0000
,  // measure 74
0100
0001
0100
0000
0001
0010
0001
0000
,  // measure 75
0010
0100
0010
0000
0100
1000
0100
0000
,  // measure 76
1000
0001
1000
0000
0001
0100
0001
0000
,  // measure 77
1000
0100
0010
0001
1000
0100
0010
0001
,  // measure 78
1000
0100
0010
0001
1000
0100
0010
0001
,  // measure 79
1000
0010
0001
0010
2000
0000
3002
0000
,  // measure 80
0023
0000
0000
0200
0000
0000
0330
0000
,  // measure 81
1001
0110
1010
0101
,  // measure 82
0001
0000
0001
0000
0010
0000
0100
0000
0000
0000
0000
0000
0000
0000
0010
0001
,  // measure 83
0100
0101
1010
1001
,  // measure 84
1000
0000
0100
0000
1000
0000
0010
0000
0000
0000
0000
0000
0000
0100
0010
1000
,  // measure 85
0100
0110
0011
0101
,  // measure 86
0010
0000
1000
0000
0001
0000
0010
0000
0000
0000
0000
0000
0000
0000
0100
0010
,  // measure 87
0001
1100
1010
0101
,  // measure 88
0001
1000
0001
0100
0000
0000
0000
0000
,  // measure 89
0010
1001
1010
1001
,  // measure 90
0001
0000
0010
0000
0001
0000
0100
0000
0000
0000
0000
0000
0000
0000
0010
1000
,  // measure 91
0100
0110
0011
0101
,  // measure 92
1000
0000
0010
0000
1000
0000
0100
0000
0000
0000
0000
0000
0010
0100
1000
0001
,  // measure 93
1000
1001
0011
1001
,  // measure 94
1000
0000
0001
0000
0010
0000
0100
0000
0000
0000
0000
0000
0000
0000
0010
0001
,  // measure 95
0100
0101
0011
0110
,  // measure 96
1000
1000
0001
1000
0000
0000
0000
0000
,  // measure 97
0110
0000
0000
0000
;

//---------------dance-single - ----------------
#NOTES:
     dance-single:
     :
     Medium:
     8:
     0.312041,0.378350,0.028367,0.063827,0.000000,308.000000,304.000000,4.000000,9.000000,0.000000,0.000000,0.312041,0.378350,0.028367,0.063827,0.000000,308.000000,304.000000,4.000000,9.000000,0.000000,0.000000:
0000
0000
0000
0000
,
0000
0000
0000
0000
,
0000
0000
0000
0000
,
0000
0000
0000
0000
,
0000
0000
0000
0000
,
0000
0000
0000
0000
,
0000
0000
0000
0000
,
0000
0000
0000
0000
,
0000
0000
0000
0000
,
1000
0001
0010
0001
,
1000
0000
0001
1000
0000
0000
0000
0000
,
0010
1000
0100
0010
,
0100
0000
1000
0010
0000
0000
0000
0000
,
0100
0001
0010
0001
,
1000
0000
0001
0100
0000
0000
0000
0000
,
0001
1000
0010
0100
,
0002
0000
0000
0020
0000
0000
0033
0000
,
1100
0100
1000
1000
,
0001
1000
0010
1000
0000
0000
0000
0000
,
0010
0010
1000
1000
,
0001
0010
0001
0010
0000
0000
0000
0000
,
0001
0001
1000
1000
,
0010
0100
0010
0100
0000
0000
0000
0000
,
0010
0010
1000
1000
,
0100
0100
0010
0100
0000
0000
0000
0000
,
0010
0000
0001
0000
,
1000
0000
0100
0000
,
1000
0000
0010
0000
,
0100
0000
0001
0000
,
1000
0100
0010
0001
,
1000
0100
0010
0001
,
0010
1000
0010
0001
,
2000
0000
0000
0002
0000
0000
3003
0000
,
0001
0100
0010
1000
,
0010
0100
0001
1000
0000
0000
0000
0100
,
1000
0010
0001
0010
,
0100
0010
1000
0100
0000
0000
0000
0010
,
0100
0010
0001
0100
,
0001
0100
0001
0010
0000
0000
0000
0100
,
0010
0100
1000
0100
,
1000
1000
0001
1000
0000
0000
0000
0000
,
0010
1001
0001
1000
,
0010
1000
0100
0010
0000
0000
0000
0100
,
1000
0010
0100
0001
,
0010
0100
0010
0001
0000
0000
0000
1000
,
0001
0100
0010
1000
,
0100
1000
0001
0100
0000
0000
0000
0010
,
1000
0001
0010
0100
,
0010
0010
0100
1000
0000
0000
0000
0000
,
0002
0000
0000
0000
,
0000
0000
0000
0000
,
0100
0000
0000
0000
,
0010
0000
0000
0003
,
2000
0000
0000
0000
,
0000
0000
0000
0000
,
0010
0000
0000
0000
,
0001
0000
0000
0000
,
3100
0000
1000
0000
,
0010
1000
0010
0000
,
0100
0000
0001
0000
,
0010
0100
0010
0000
,
0100
1000
0001
0100
,
0001
1000
0000
0000
,
0100
1000
0010
0100
,
0002
0000
0000
0000
,
1003
0100
0010
0100
,
0010
0001
0010
0001
0000
0000
0000
0000
,
0010
0001
0100
0010
,
1000
0001
1000
0001
0000
0000
0000
0000
,
1000
0010
1000
0100
,
0010
0001
0010
0001
0000
0000
0000
0000
,
0010
0001
0100
0010
,
1000
0001
1000
0001
0000
0000
0000
0000
,
1000
0000
0010
0000
,
0100
0000
0001
0000
,
0010
0000
0100
0000
,
0010
0000
0001
0000
,
1000
0100
0010
0001
,
1000
0100
0010
0001
,
0100
1000
0100
0001
,
2000
0000
0000
0002
0000
0000
3003
0000
,
1000
0001
0100
0001
,
0010
0100
0010
0001
0000
0000
0000
0010
,
0100
0010
0001
1000
,
0010
1000
0100
0010
0000
0000
0100
1000
,
0010
0100
0001
1000
,
0001
1000
0100
0010
0000
0000
0000
0100
,
0010
0001
0100
0010
,
1000
1000
0001
1000
0000
0000
0000
0000
,
0010
1001
0001
1000
,
0010
1000
0100
0010
0000
0000
0000
0100
,
1000
0010
0001
0010
,
0100
1000
0100
0001
0000
0000
0000
0010
,
0100
0010
0001
0010
,
1000
0010
0001
0100
0000
0000
0000
1000
,
0100
0010
1000
0001
,
1000
0100
0010
0001
0000
0000
0000
0000
,
0110
0000
0000
0000
;

//---------------dance-single - ----------------
#NOTES:
     dance-single:
     :
     Easy:
     5:
     0.219847,0.309559,0.028367,0.042551,0.000000,217.000000,213.000000,4.000000,6.000000,0.000000,0.000000,0.219847,0.309559,0.028367,0.042551,0.000000,217.000000,213.000000,4.000000,6.000000,0.000000,0.000000:
0000
0000
0000
0000
,
0000
0000
0000
0000
,
0000
0000
0000
0000
,
0000
0000
0000
0000
,
0000
0000
0000
0000
,
0000
0000
0000
0000
,
0000
0000
0000
0000
,
0000
0000
0000
0000
,
0000
0000
0000
0000
,
1000
0000
1000
0000
,
1000
0000
0000
0000
,
0001
0000
0001
0000
,
0001
0000
0000
0000
,
0100
0000
0100
0000
,
0100
0000
0000
0000
,
0010
0000
0010
0000
,
0020
0000
0000
0030
,
0100
0000
0001
0000
,
1000
0001
0000
0000
,
1000
0000
0010
0000
,
0100
0001
0000
0000
,
0010
0000
0100
0000
,
1000
0100
0000
0000
,
1000
0000
0001
0000
,
0100
0100
0000
0000
,
0010
0000
1000
0010
,
0100
0100
0001
0001
,
0000
0000
1000
0001
,
0010
0010
0001
0001
,
0000
0000
1000
0001
,
0100
0001
0010
0100
,
0010
0001
1000
0010
,
0200
0000
0000
0300
,
0010
1000
0010
1000
,
0010
0100
0000
0000
,
0001
0100
0001
0100
,
0001
0010
0000
0000
,
0100
0010
0001
0010
,
0100
0000
0000
0000
,
0010
0100
1000
0001
,
1000
1000
0000
0000
,
0001
1001
1000
0001
,
0010
0010
0000
0000
,
0100
0010
0001
0100
,
0010
0010
0000
0000
,
1000
0010
0100
0001
,
1000
1000
0000
0000
,
0001
0001
1000
1000
,
0001
1000
0000
0000
,
0020
0000
0000
0000
,
0000
0000
0000
0000
,
0000
0000
0000
0000
,
0000
0000
0000
0030
,
0200
0000
0000
0000
,
0000
0000
0000
0000
,
0000
0000
0000
0000
,
0000
0000
0000
0300
,
1001
0000
0001
0000
,
1000
0001
0000
0000
,
0100
0000
0010
0000
,
1000
0010
0000
0000
,
0100
0000
0001
0000
,
0010
0001
0000
0000
,
1000
0100
0010
0001
,
0200
0000
0000
0300
,
0010
0000
1000
0000
,
0001
1000
0000
0000
,
0100
0000
1000
0000
,
0010
1000
0000
0000
,
0010
0000
0100
0000
,
0001
1000
0000
0000
,
0100
0000
1000
0000
,
0010
0010
0000
0000
,
0100
0000
0001
0000
,
0010
0010
0001
0001
,
0000
0000
1000
0001
,
0100
0100
0001
0001
,
0000
0000
1000
0100
,
0010
0001
0010
0100
,
0010
0001
1000
0010
,
0200
0000
0000
0300
,
0001
1000
0010
1000
,
0100
0100
0100
0000
,
0010
0001
0100
0010
,
1000
1000
1000
0000
,
0001
1000
0010
1000
,
0100
0100
0100
0000
,
0010
0001
0100
0010
,
1000
1000
0000
0000
,
0010
1001
0001
1000
,
0010
0010
0010
0000
,
0100
0001
0010
0100
,
1000
1000
1000
0000
,
0100
1000
0010
0100
,
0001
0001
0001
0000
,
1000
1000
0001
0001
,
0100
0010
1000
0000
,
0110
0000
0000
0000
;

//---------------dance-single - ----------------
#NOTES:
     dance-single:
     :
     Beginner:
     4:
     0.123601,0.206373,0.021276,0.014184,0.000000,122.000000,119.000000,3.000000,2.000000,0.000000,0.000000,0.123601,0.206373,0.021276,0.014184,0.000000,122.000000,119.000000,3.000000,2.000000,0.000000,0.000000:
0000
0000
0000
0000
,
0000
0000
0000
0000
,
0000
0000
0000
0000
,
0000
0000
0000
0000
,
0000
0000
0000
0000
,
0000
0000
0000
0000
,
0000
0000
0000
0000
,
0000
0000
0000
0000
,
0000
0000
0000
0000
,
1000
0000
0000
0000
,
0000
0000
0000
0000
,
0001
0000
0000
0000
,
0000
0000
0000
0000
,
0100
0000
0000
0000
,
0000
0000
0000
0000
,
0010
0000
0000
0000
,
0000
0000
0000
0000
,
1000
0000
1000
0000
,
1000
0000
0000
0000
,
0001
0000
0001
0000
,
0001
0000
0000
0000
,
0100
0000
0100
0000
,
0100
0000
0000
0000
,
0010
0000
0010
0000
,
0010
0000
0000
0000
,
1001
0000
1000
0000
,
0001
0000
0000
0000
,
0000
0000
0100
0000
,
0010
0000
0000
0000
,
2000
0000
0000
0000
,
0000
0000
0000
0000
,
3000
0000
0000
0000
,
0010
0000
0000
0000
,
0001
0000
1000
0000
,
0010
0000
0000
0000
,
0100
0000
0001
0000
,
0010
0000
0000
0000
,
0100
0000
1000
0000
,
0010
0000
0000
0000
,
0100
0000
0001
0000
,
1000
0000
0000
0000
,
0000
0001
0000
0000
,
1000
0000
0000
0000
,
0010
0000
1000
0000
,
0100
0000
0000
0000
,
0010
0000
0001
0000
,
0100
0000
0000
0000
,
0010
0000
1000
0000
,
0001
0000
0000
0000
,
1000
0000
0000
0000
,
0000
0000
0000
0000
,
0010
0000
0000
0000
,
0100
0000
0000
0001
,
1000
0000
0000
0000
,
0001
0000
0000
0000
,
0010
0000
0000
0000
,
0100
0000
0000
0000
,
1001
0000
0001
0000
,
1000
0000
0000
0000
,
0010
0000
0010
0000
,
1000
0000
0000
0000
,
0001
0000
0001
0000
,
0010
0000
0000
0000
,
0100
0000
0100
0000
,
2000
0000
0000
3000
,
0001
0000
1000
0000
,
0010
0000
0000
0000
,
1000
0000
0001
0000
,
0010
0000
0000
0000
,
0001
0000
1000
0000
,
0010
0000
0000
0000
,
1000
0000
0001
0000
,
0010
0000
0000
0000
,
0100
0000
0000
0000
,
0010
0000
0000
0000
,
0001
0000
0000
0000
,
1000
0000
0000
0000
,
0010
0000
0000
0000
,
0100
0000
0000
0000
,
0001
0000
1000
0000
,
0010
0000
0000
0000
,
0100
0000
0010
0000
,
1000
1000
0000
0000
,
0001
0000
1000
0000
,
0100
0100
0000
0000
,
0010
0000
0100
0000
,
1000
1000
0000
0000
,
0001
0000
0100
0000
,
0010
0010
0000
0000
,
0000
0001
0000
0000
,
1000
1000
0000
0000
,
0001
0000
0010
0000
,
0100
0100
0000
0000
,
0010
0000
0001
0000
,
1000
1000
0000
0000
,
0001
0000
1000
0000
,
0010
0010
0000
0000
,
1001
0000
0000
0000
;
