#TITLE:DEATH ZIGOQ;
#SUBTITLE:-ikari no kousoku bakusou yarou-;
#ARTIST: L.E.D.ALiCE(DJ NAGAI Vs. "L.E.D.-G";
#TITLETRANSLIT:;
#SUBTITLETRANSLIT:;
#ARTISTTRANSLIT:;
#GENRE:;
#CREDIT:;
#BANNER:banner.png;
#BACKGROUND:background.png;
#LYRICSPATH:;
#CDTITLE:;
#MUSIC:DEATH ZIGOQ ~ikari no kousoku bakusou yarou~.ogg;
#OFFSET:-0.620000;
#SAMPLESTART:93.000008;
#SAMPLELENGTH:14.400002;
#SELECTABLE:YES;
#BPMS:0.000000=200.000000
;
#STOPS:
;
#BGCHANGES:;
#KEYSOUNDS:;
#ATTACKS:;

//---------------dance-single - ----------------
#NOTES:
     dance-single:
     :
     Hard:
     14:
     0.620322,0.750745,0.216281,0.257873,0.074866,522.000000,496.000000,26.000000,31.000000,0.000000,0.000000,0.620322,0.750745,0.216281,0.257873,0.074866,522.000000,496.000000,26.000000,31.000000,0.000000,0.000000:
0000
0000
0000
0000
,
0000
0000
0000
0000
,
0000
0000
0000
0000
,
0000
0000
0000
0000
,
0000
0000
0000
0000
,
0000
0000
0000
0000
,
0000
0000
0000
0000
,
0000
0000
0000
0000
,
0000
0000
1000
0001
1000
0000
0100
0000
0001
0000
0100
0000
1000
0000
0100
0000
,
0001
0100
1000
0100
0010
0001
1001
0000
,
0000
0000
0001
0000
0010
0000
1000
0000
0010
0000
0001
0000
0010
0000
0100
0010
,
0100
0010
0001
0010
0100
1000
1001
0000
,
0220
0330
0220
0330
0000
0000
0000
0000
,
2010
0000
3100
0010
0001
1000
0100
0010
,
0001
1000
0100
0010
0001
0010
0100
0010
,
0001
0100
0010
1000
0001
0100
0010
1000
,
0001
0100
0010
0100
0001
1000
0200
0300
,
0010
0001
0100
0001
0010
0100
1000
0100
,
0010
0100
1000
0010
0100
0001
0010
0100
,
0010
0001
1000
0100
1000
0010
0100
0001
,
0010
0100
0000
0100
0010
0000
0010
0100
,
2001
0000
3100
0000
1000
0001
0010
0100
,
1000
0100
1000
0010
1000
0001
0100
0001
,
0100
0010
0100
0010
1000
0010
0100
0001
,
0100
0001
0010
0001
1000
0100
2000
3000
,
0010
0100
0001
1000
0001
0010
0100
1000
,
0001
0100
0001
1000
0010
1000
0010
0100
,
0001
0010
0100
0010
0001
1000
0010
0100
,
0001
0100
0000
0100
1000
0000
1000
0100
,
0010
2000
0000
0000
0000
0000
3000
0000
,
0000
0000
0000
0000
0000
0000
0000
0000
0000
0000
0000
0000
0000
0000
0001
0100
,
0001
0000
1000
0020
0000
0130
0002
0000
,
0023
0000
0230
0000
0310
0001
1000
0100
,
0010
0000
0001
0100
0000
0010
0100
0001
,
1000
0000
0001
0100
0000
0010
0100
0010
,
1000
0000
0000
0010
0000
0000
1000
0000
0001
0000
0000
0100
0000
0000
0001
0000
,
1000
0000
0100
0000
0010
0000
0001
0010
,
0200
0000
1000
1300
0000
1000
0010
0100
,
0002
0000
0010
0013
0000
0100
0010
0001
,
1000
0000
0000
0001
0000
0000
0010
0000
0001
0000
0000
1000
0000
0000
0010
0000
,
0100
0000
0001
0000
0010
0000
0100
0010
,
0002
0000
0100
0103
0000
0010
1000
0100
,
0020
0000
0001
0031
0000
1000
0100
1000
,
0001
0000
0000
0100
0000
0000
0001
0000
0010
0000
0000
0100
0000
0000
0010
0000
,
0002
0013
2000
3100
,
1001
0000
0010
0010
0000
0000
0000
0000
,
1001
0000
0100
0100
0000
0000
0000
0000
,
1001
0000
0010
0010
0000
0100
0010
0010
,
1001
0000
0100
1001
0000
0000
0000
0000
,
0101
0001
1100
0010
,
0101
0010
1100
0001
,
1100
0101
1100
0101
,
0010
0000
0010
0000
0010
1000
0001
0000
,
0220
0000
0000
0000
0330
0000
1000
0100
,
0000
1000
0010
0000
0100
0001
0000
0010
,
0100
0010
0000
0100
1000
0000
0010
0100
,
0000
0001
0010
0000
0100
1000
0100
0001
,
0100
0010
0000
0100
1000
0000
0010
0100
,
0000
0001
0010
0000
0100
0010
0000
0000
,
0100
1000
0000
0100
0010
0000
0001
0100
,
0020
0030
0200
0300
0010
0100
1001
0000
,
0000
0000
0001
0100
0010
0000
1000
0000
0100
0000
0001
0000
0100
0000
0010
0000
,
0001
0100
1000
0100
0010
0100
1001
0000
,
0000
0000
1000
0000
0010
0000
0100
0000
0001
0000
0010
0000
0100
0000
0010
0001
,
0100
0001
1000
0100
0010
0100
1001
0000
,
0000
0000
0001
0010
0100
0000
1000
0000
0100
0000
0001
0000
0100
0000
0010
0000
,
0001
0100
1000
0100
0010
1000
1001
0000
,
0000
0000
0001
0000
0100
0000
1000
0000
0100
0000
0010
0000
1000
0000
0010
1000
,
0200
0000
0300
0020
0200
0000
0000
0330
,
4004
0000
0000
0000
,
0000
0000
0000
0000
,
0000
0000
0000
0000
,
0000
0000
0000
0000
,
0000
0000
0000
0000
,
0000
0000
0000
3003
,
0010
0100
0010
0000
0000
0000
0100
0010
0100
0000
0000
0000
0010
0100
0010
0000
,
0000
0000
0100
0010
0100
0000
0000
0000
0010
0100
0010
0000
1001
0000
0000
0000
,
0001
0100
1000
0100
0000
0010
1000
0001
,
1000
0100
0001
0100
0000
0010
0100
1000
,
0001
0100
0001
0010
0100
0010
0001
0100
,
0010
1000
0100
0010
0001
0010
0100
0010
,
0001
0100
1000
0100
0000
0010
1000
0001
,
0010
1000
0010
0001
0000
0010
0100
1000
,
0001
0100
0001
0100
0010
1000
0010
1000
,
0100
0000
0010
0200
0000
0310
0001
1000
,
0100
0001
0100
0010
0000
0100
0010
0001
,
0100
1000
0100
0001
0000
0100
0010
1000
,
0100
1000
0010
0100
0001
0010
0100
0010
,
0001
0100
0010
1000
0100
0010
0001
0100
,
0001
0010
1000
0010
0000
0100
0010
0001
,
0100
1000
0100
0010
0000
0100
0010
1000
,
0001
0010
0100
0010
0001
0100
0010
1000
,
0200
0000
1300
0020
0000
0130
0002
0020
,
0000
0000
0000
0000
,
0000
0000
0000
0000
,
0033
0000
0000
0000
;

//---------------dance-single - ----------------
#NOTES:
     dance-single:
     :
     Medium:
     12:
     0.524065,0.671719,0.199644,0.266192,0.000000,441.000000,417.000000,24.000000,32.000000,0.000000,0.000000,0.524065,0.671719,0.199644,0.266192,0.000000,441.000000,417.000000,24.000000,32.000000,0.000000,0.000000:
0000
0000
0000
0000
,
0000
0000
0000
0000
,
0000
0000
0000
0000
,
0000
0000
0000
0000
,
0000
0000
0000
0000
,
0000
0000
0000
0000
,
0000
0000
0000
0000
,
0000
0000
0000
0000
,
0000
1000
1000
0001
0010
0001
0100
0001
,
0010
0001
0100
0001
0010
0001
1001
0000
,
0000
1000
0010
0100
0010
1000
0100
1000
,
1000
0010
1000
0100
1000
0010
1001
0000
,
0200
0320
0030
0000
,
1002
0000
0013
0001
0100
0000
0010
1000
,
0001
0000
1000
0001
0010
0000
0100
0000
,
0010
0001
1000
0000
0010
1000
0001
0000
,
0100
0010
0001
0000
0010
0000
0200
0300
,
0010
0001
0100
0000
0010
1000
0001
0000
,
1000
0010
0100
0000
0010
1000
0001
0010
,
0100
0010
0001
0000
0010
0100
1000
0000
,
0001
0001
0000
1000
1000
0000
0010
0010
,
0200
0000
0301
0010
0100
0000
0010
0001
,
0100
0000
0010
1000
0001
0000
0010
0100
,
1000
0000
0100
1000
0010
0000
0100
0001
,
0010
0000
0100
0010
0001
0000
1200
0000
,
0310
0001
0100
0000
0010
1000
0001
0000
,
0010
0100
1000
0000
0100
0001
0100
0000
,
0010
0001
0100
0000
0010
1000
0001
0000
,
1000
1000
0000
0001
0001
0000
0100
0100
,
0010
2000
0000
0000
3000
0000
0000
0000
,
0000
0000
0000
0000
0000
0000
0000
0010
,
0100
0000
0001
0100
0000
0001
0010
0000
,
0100
0000
0010
0000
0001
0100
0010
0000
,
2000
0000
0000
3010
0000
0000
0100
0000
,
0002
0000
0000
0013
0000
0000
0100
0000
,
0010
0001
0100
1000
,
0100
0000
0010
0000
1000
0000
0010
1000
,
0002
0000
1003
0001
0000
0010
0100
0010
,
0200
0000
1300
0100
0000
0010
0100
1000
,
0001
1000
0010
0001
,
0010
0000
0100
0000
0001
0000
0100
0010
,
2000
0000
3100
1000
0000
0100
0010
0100
,
0020
0000
0031
0010
0000
0010
0100
1000
,
0001
0100
1000
0100
,
0010
0100
0001
0010
,
0001
0000
0001
0100
0000
0000
0000
0000
,
0100
0000
0100
0010
0000
0000
0000
0000
,
0010
0000
0010
1000
0000
0001
1000
0001
,
1000
0000
1000
0100
0000
0000
0000
0000
,
1100
0000
0011
0000
,
0101
0000
1010
0000
,
1001
0110
1010
0101
,
0002
0003
0020
0030
0100
0010
1001
0000
,
0202
0000
0000
0000
0303
0000
1000
0010
,
0000
1000
0001
0000
0010
0000
0100
0000
,
0010
0001
0000
0010
0100
0000
1000
0010
,
0000
0100
0001
0000
1000
0000
0001
0000
,
1000
0100
0000
1000
0010
0000
0100
0001
,
0000
0010
0100
0000
0010
0001
0000
0001
,
1000
0001
0000
0100
0010
0000
1000
0001
,
0020
0030
0200
0300
0010
0100
1001
0000
,
0000
1000
0010
0100
0010
1000
0010
0100
,
0010
1000
0010
0100
0010
1000
1001
0000
,
0000
0001
0010
0100
0010
0001
0010
0100
,
0010
0001
0010
0100
0010
0001
1001
0000
,
0000
0001
1000
0010
1000
0001
0010
0001
,
1000
0010
1000
0001
0010
0001
1001
0000
,
0001
1000
0100
1000
0001
0100
0001
1000
,
0200
0000
0300
2000
0002
0000
3003
0000
,
0220
0000
0000
0000
,
0330
0000
0000
0000
,
0220
0000
0000
0000
,
0330
0000
0000
0000
,
0220
0000
0000
0000
,
0330
0000
0000
0000
,
1000
0010
0000
0001
0010
0000
1000
0100
,
0000
0001
0100
0000
0110
0000
1001
0000
,
0001
0100
0010
1000
0000
0010
0100
0000
,
0010
1000
0100
0010
0000
0100
1000
0000
,
0001
1000
0010
0000
1000
0100
0000
0001
,
0100
0000
1000
0100
0000
0001
0100
0000
,
0010
0001
0100
0010
0000
0100
0001
0000
,
0010
0100
0010
0001
0000
1000
0010
0000
,
2000
3100
0002
0103
,
0001
0000
0010
0100
0000
0010
0001
0100
,
1000
0100
0010
1000
0000
0010
1000
0100
,
0010
0100
1000
0001
0000
1000
0001
0010
,
0100
0010
0001
0100
,
0010
1000
0001
0010
,
0100
0010
0001
0100
0000
0010
1000
0100
,
0010
0100
1000
0001
0000
1000
0001
0010
,
0100
0010
0001
0100
,
1010
0000
0001
0100
0000
0010
2000
0002
,
0000
0000
0000
0000
,
0000
0000
0000
0000
,
3003
0000
0000
0000
;

//---------------dance-single - ----------------
#NOTES:
     dance-single:
     :
     Easy:
     8:
     0.381463,0.671719,0.124777,0.133096,0.000000,321.000000,306.000000,15.000000,16.000000,0.000000,0.000000,0.381463,0.671719,0.124777,0.133096,0.000000,321.000000,306.000000,15.000000,16.000000,0.000000,0.000000:
0000
0000
0000
0000
,
0000
0000
0000
0000
,
0000
0000
0000
0000
,
0000
0000
0000
0000
,
0000
0000
0000
0000
,
0000
0000
0000
0000
,
0000
0000
0000
0000
,
0000
0000
0000
0000
,
0000
1000
0001
0000
0010
0000
0001
0000
,
0100
0000
0010
0000
1000
0001
1000
0000
,
0000
0001
0100
0000
0001
0000
0010
0000
,
0001
0000
1000
0000
0001
1000
0001
0000
,
0110
0110
0000
0000
,
0020
1030
0010
0100
,
0001
0010
0100
0010
,
0001
1000
0100
0010
,
0100
1000
0010
0200
,
0301
0010
1000
0010
,
0001
0100
1000
0100
,
0010
1000
0010
0100
,
0001
1000
0000
0001
1000
0000
1000
0001
,
2000
3010
1000
0010
,
0100
0001
0010
0100
,
0010
0001
0100
0010
,
1000
0001
0100
0020
,
1030
0010
0100
0001
,
0010
1000
0010
0100
,
0010
0001
0010
1000
,
0010
0001
0000
0010
0001
0000
0001
0100
,
0000
0020
0000
0000
0030
0000
0000
0000
,
0000
0000
0000
0000
,
0100
0000
0000
0001
0000
0000
0010
0000
,
0100
0010
0001
1000
,
0001
0000
0000
0001
0000
0000
0001
0000
,
1000
0000
0000
1000
0000
0000
1000
0000
,
0010
1000
0010
0100
,
0001
0010
0100
0010
,
0002
0000
0000
0103
0000
0000
0001
0000
,
2000
0000
0000
3100
0000
0000
0100
0000
,
1000
0010
0100
0010
,
1000
0001
0010
0100
,
0020
0000
0000
0031
0000
0000
1000
0000
,
0002
0000
0000
0103
0000
0000
0001
0000
,
0100
0010
1000
0010
,
0200
0000
0000
0300
,
0001
0000
1000
0001
0000
0000
0000
0000
,
1000
0000
0001
1000
0000
0000
0000
0000
,
0001
0000
1000
0001
0000
0000
0000
0000
,
1000
0000
0001
1000
0000
0000
0000
0000
,
1001
0000
0110
0000
,
1010
0000
0101
0000
,
0011
0110
1100
0110
,
1001
0000
1001
0000
0001
1000
0010
0000
,
2002
0000
0000
0000
3003
0000
0010
1000
,
0000
0010
1000
0000
0000
0000
0000
0000
,
0001
0100
0000
0001
0100
0000
0001
0100
,
0000
0001
0100
0000
0000
0000
0000
0000
,
0010
0100
0000
0010
0100
0000
0010
0100
,
0000
0010
0100
0000
0000
0000
0000
0000
,
0001
1000
0000
0001
1000
0000
0001
1000
,
0010
0000
0100
0000
0010
1000
0001
0000
,
0000
1000
0100
0000
1000
0000
0010
0000
,
0100
0000
0001
0000
0010
0001
0010
0000
,
0000
0001
0100
0000
0001
0000
1000
0000
,
0100
0000
0001
0000
0100
0010
0001
0000
,
0000
0010
0100
0000
0010
0000
0001
0000
,
0100
0000
0010
0000
1000
0001
0010
0000
,
0000
0100
0010
0000
0001
0000
0100
0000
,
0020
0000
2000
3030
,
0102
0000
0000
0000
,
0000
0000
0000
0000
,
1000
0000
0000
0000
,
0000
0000
0000
0000
,
1000
0000
0000
0000
,
0000
0000
0000
0003
,
1000
0001
0000
0001
1000
0000
1000
0010
,
0000
0010
0100
0000
0010
0000
1001
0000
,
1000
0100
0100
1000
,
0010
0010
0100
0001
,
1000
0100
0001
0100
,
1000
0100
0001
0100
,
1000
1000
0010
0100
,
0001
0001
0010
0100
,
0010
0001
0010
1000
,
0010
0000
0010
0001
0000
0001
0100
0010
,
1000
0001
1000
0010
,
1000
0001
0010
0100
,
0010
0010
0100
0100
,
1000
1000
0001
0001
,
1000
0010
0100
0001
,
0010
0100
0010
0001
,
1000
1000
0001
0001
,
0100
0000
0010
1000
0000
0001
0010
0200
,
0000
0000
0000
0000
,
0000
0000
0000
0000
,
0300
0000
0000
0000
;

//---------------dance-single - ----------------
#NOTES:
     dance-single:
     :
     Beginner:
     3:
     0.163993,0.385770,0.116459,0.016637,0.000000,138.000000,124.000000,14.000000,2.000000,0.000000,0.000000,0.163993,0.385770,0.116459,0.016637,0.000000,138.000000,124.000000,14.000000,2.000000,0.000000,0.000000:
0000
0000
0000
0000
,
0000
0000
0000
0000
,
0000
0000
0000
0000
,
0000
0000
0000
0000
,
0000
0000
0000
0000
,
0000
0000
0000
0000
,
0000
0000
0000
0000
,
0000
0000
0000
0000
,
0000
1000
0000
0000
,
0000
0000
0001
0001
,
0000
1000
0000
0000
,
0000
0000
0100
0100
,
1001
1001
0000
0000
,
0010
1000
0000
1000
,
0000
1000
0000
0000
,
0001
0000
0001
0000
,
0001
0000
0000
0100
,
0010
0000
0010
0000
,
0010
0000
0000
0000
,
1000
0000
1000
0000
,
1001
0000
0000
0000
,
0010
0000
1000
0000
,
0100
0000
0000
0000
,
0010
0000
0001
0000
,
1000
0000
0000
0000
,
1000
0000
0001
0000
,
0100
0000
0000
0000
,
0010
0000
1000
0000
,
1001
0000
0000
0000
,
0010
0000
0000
0000
,
0000
0000
0000
0000
,
0100
0000
0000
0000
,
0000
0000
0000
0000
,
0001
0000
0000
0000
,
0001
0000
0000
0000
,
1000
0000
0001
0000
,
0100
0000
0010
0000
,
1000
0000
0000
0001
,
1000
0000
0000
0001
,
1000
0000
0010
0000
,
0100
0000
0000
0000
,
0010
0000
0000
1000
,
0001
0000
0000
1000
,
0001
0000
0010
0000
,
0100
0000
0000
0000
,
1001
0000
0000
0000
,
0110
0000
0000
0000
,
1001
0000
0000
0000
,
0110
0000
0000
0000
,
1000
0000
0100
0000
,
0010
0000
0001
0000
,
1000
1000
0100
0100
,
1000
1000
1000
1000
,
1001
0000
0000
0010
,
0010
0000
0000
0000
,
0100
0000
0000
0000
,
0001
0000
0000
0000
,
1000
0000
0000
0000
,
0010
0000
0000
0000
,
1000
0000
0000
0000
,
0001
0001
1000
1001
,
0000
0001
0000
0000
,
0000
0000
0000
0000
,
0000
1000
0000
0000
,
0000
0000
0000
0000
,
0000
0010
0000
0000
,
0000
0000
0000
0000
,
0000
0100
0000
0000
,
0010
0000
0100
0000
,
2002
0000
0000
0000
,
0000
0000
0000
0000
,
0000
0000
0000
0000
,
0000
0000
0000
0000
,
0000
0000
0000
0000
,
0000
0000
0000
3003
,
0000
0000
0000
0000
,
0000
0000
0010
1001
,
0001
0000
0000
1000
,
0001
0000
0000
1000
,
0100
0000
1000
0000
,
0010
0000
0100
0000
,
0001
0000
0000
0100
,
0001
0000
0000
0100
,
0010
0000
1000
0000
,
1001
0000
0000
0000
,
0010
0000
0000
1000
,
0001
0000
0000
1000
,
0100
0000
1000
0000
,
0010
0000
0100
0000
,
0001
0000
0000
0100
,
0010
0000
0000
0100
,
0010
0000
1000
0000
,
1001
0000
0000
0010
;

//---------------dance-single - ----------------
#NOTES:
     dance-single:
     :
     Challenge:
     17:
     0.872254,1.303925,0.274510,0.349377,0.686276,734.000000,701.000000,33.000000,42.000000,29.000000,0.000000,0.872254,1.303925,0.274510,0.349377,0.686276,734.000000,701.000000,33.000000,42.000000,29.000000,0.000000:
// measure 0
0000
0000
0000
0000
,  // measure 1
0000
0000
0000
0000
,  // measure 2
0000
0000
0000
0000
,  // measure 3
0000
0000
0000
0000
,  // measure 4
0000
0000
0000
0000
,  // measure 5
0000
0000
0000
0000
,  // measure 6
0000
0000
0000
0000
,  // measure 7
0000
0000
0000
0000
,  // measure 8
0000
0000
1000
0010
0100
0000
0100
0000
0100
0000
0100
0000
0100
0000
0100
0000
,  // measure 9
0100
0100
0100
0100
0010
0100
1001
0000
,  // measure 10
0000
0000
0010
0000
0010
0000
0010
0000
0010
0000
0010
0000
0010
0000
0010
1000
,  // measure 11
0001
0001
0001
0001
1000
0001
0110
0000
,  // measure 12
20M2
0000
3003
M000
2002
0000
3003
0000
0M00
0000
0000
0000
M00M
0000
0000
0000
,  // measure 13
1020
0000
0130
0001
0010
0100
0010
0001
,  // measure 14
1000
0010
1000
0100
0010
0100
1000
0001
,  // measure 15
0010
0000
0001
0000
1000
0010
1000
0010
0100
0000
0001
0000
0010
0000
0100
0000
,  // measure 16
0010
0001
1000
0010
0100
0001
0020
0030
,  // measure 17
0001
0010
0011
0001
0100
0010
1010
1000
,  // measure 18
0010
0100
0101
0001
0010
0100
1100
0100
,  // measure 19
0010
0001
0010
1000
0010
0100
0010
0001
,  // measure 20
1000
1000
0000
0001
0001
0000
1000
1000
,  // measure 21
0010
0000
0210
0000
0301
0010
0001
1000
,  // measure 22
0100
0010
0100
0001
0100
0010
1000
0001
,  // measure 23
0010
0001
1000
0100
0010
0100
1000
0010
,  // measure 24
0100
0001
0010
0100
0010
0001
2000
3000
,  // measure 25
0001
0100
0101
0001
0100
0010
1010
1000
,  // measure 26
0100
0010
0110
0010
0001
1000
1001
1000
,  // measure 27
0010
0000
0000
0000
0000
0000
0100
0001
1000
0000
0001
0000
0010
0001
0010
0001
,  // measure 28
1000
0010
0100
0000
0010
0100
0000
0010
0100
0001
1000
0000
0100
0010
0000
0100
,  // measure 29
2000
0002
0000
0000
0000
3003
0000
0000
,  // measure 30
1000
0000
0100
0000
1000
0000
0100
0000
0010
0000
0001
0000
1000
0000
0001
0100
,  // measure 31
0020
0000
1030
0200
0000
0310
0200
0000
,  // measure 32
2300
0000
3002
0000
0103
0001
0010
0100
,  // measure 33
2000
0000
0010
3010
0000
0100
0001
0010
,  // measure 34
0200
0000
0010
0310
0000
0100
0010
0001
,  // measure 35
1000
0001
1000
0001
1000
0001
1000
0001
1000
0001
1000
0001
1000
0001
1000
0001
,  // measure 36
1000
0001
1000
0001
1000
0001
1000
0001
1000
0001
1000
0001
1000
0001
1000
0001
,  // measure 37
0020
0000
0000
0000
0100
0000
0130
0000
0000
0000
0010
0000
0001
0000
0100
0010
,  // measure 38
2000
0000
0000
0000
0001
0000
3001
0000
0000
0000
1000
0000
0100
0000
0010
0001
,  // measure 39
1000
0000
0000
0001
0000
0000
0100
0000
0001
0000
0000
0010
0000
0000
0100
0000
,  // measure 40
0020
0000
0000
0000
0032
0000
0000
0000
0203
0000
0000
0000
0310
0000
1000
0001
,  // measure 41
0200
0000
0000
0000
0001
0000
0301
0000
0000
0000
0100
0000
0010
0000
1000
0100
,  // measure 42
0020
0000
0000
0000
0100
0000
0130
0000
0000
0000
0010
0000
0001
0000
1000
0001
,  // measure 43
0100
0000
0000
0001
0000
0000
0010
0000
0100
0000
0000
0010
0000
0000
0001
0000
,  // measure 44
2000
3200
0320
0032
,  // measure 45
1003
0000
0001
1100
0000
0000
0000
0000
,  // measure 46
1010
0000
0001
0110
0000
0000
0000
0000
,  // measure 47
1010
0000
0000
0000
0001
0000
1100
0000
0000
0000
0001
0000
1000
0001
1000
0000
,  // measure 48
1000
0000
0000
0000
0010
0000
0110
0000
0000
0000
0100
0010
0200
0000
0300
0000
,  // measure 49
1001
0010
1001
0100
,  // measure 50
1001
0010
1001
0100
,  // measure 51
1001
0110
1001
0110
,  // measure 52
0010
0000
0010
0000
0010
0100
0001
0000
,  // measure 53
2002
0000
0000
0000
0000
0000
0000
0000
3003
0000
0000
0000
1000
0010
1000
0010
,  // measure 54
0100
0001
0010
0100
0010
0001
1000
0010
,  // measure 55
1000
0100
0010
0100
1000
0010
0100
0001
,  // measure 56
0010
0100
0010
0001
1000
0010
0100
0001
,  // measure 57
1000
0001
1000
0000
0001
0000
0010
0000
0100
0000
0010
0000
0001
0000
1000
0000
,  // measure 58
0010
0100
0001
0010
0100
0010
0001
1000
,  // measure 59
0010
0100
0001
0010
0100
1000
0100
1000
,  // measure 60
0004
0003
4000
3000
0040
0130
1001
0000
,  // measure 61
0000
0000
0001
0100
0010
0000
0010
0000
0010
0000
0010
0000
0010
0000
0010
0000
,  // measure 62
0010
0010
0010
0010
0100
0001
1001
0000
,  // measure 63
0000
0000
1000
0000
1000
0000
1000
0000
1000
0000
1000
0000
1000
0000
1000
0001
,  // measure 64
0100
0100
0100
0100
0010
0100
1001
0000
,  // measure 65
0000
0000
1000
0001
0100
0000
0100
0000
0100
0000
0100
0000
0100
0000
0100
0000
,  // measure 66
0100
0100
0100
0100
0010
0100
1001
0000
,  // measure 67
0000
0000
0001
0000
0001
0000
0001
0000
0001
0000
0001
0000
0001
0000
0001
1000
,  // measure 68
0020
0000
0030
0200
0002
0000
0000
0303
,  // measure 69
1000
0001
1000
0001
1000
0001
1000
0001
1000
0001
1000
0001
1000
0001
1000
0001
,  // measure 70
10M0
0000
0000
0001
0000
0000
1000
0000
0M00
0001
0000
0000
1000
0000
0000
0001
00M0
0000
1000
0000
0000
0001
0000
0000
1M00
0000
0000
0001
0000
0000
1000
0000
00M0
0001
0000
0000
1000
0000
0000
0001
0M00
0000
1000
0000
0000
0001
0000
0000
,  // measure 71
10M0
0000
0000
0001
0000
0000
1000
0000
0M00
0001
0000
0000
1000
0000
0000
0001
0000
0000
1000
0000
00M0
0001
0000
0000
1000
0000
0000
0001
0000
0000
1000
0000
0000
0001
0000
0000
1M00
0000
0000
0001
0000
0000
1000
0000
0000
0001
0000
0000
,  // measure 72
1000
0000
0000
0001
00M0
0000
1000
0000
0000
0001
0000
0000
1000
0000
0000
0001
0000
0000
1000
0000
0M00
0001
0000
0000
1M00
0000
0000
0001
0M00
0000
1000
0000
0M00
0001
0000
0000
1M00
0000
0000
0001
0M00
0000
1000
0000
0M00
0001
0000
0000
,  // measure 73
1M00
0001
1000
0001
1000
0001
1000
0001
1000
0001
1000
0001
1000
0001
1000
0001
,  // measure 74
10M0
0001
1M00
0001
1000
0001
10M0
0001
1000
0001
1000
0001
1MM0
0000
0000
0000
,  // measure 75
0001
0100
1000
0000
0000
0000
1000
0100
0001
0000
0000
0000
0001
0010
1000
0000
,  // measure 76
0000
0000
1000
0010
0001
0000
0000
0000
0010
0100
1000
0001
1000
0000
0000
0000
,  // measure 77
0001
0010
0001
0000
0010
0000
0001
0000
0000
0000
1000
0010
1000
0000
0010
0000
,  // measure 78
0100
0001
0100
0000
0010
0000
1000
0000
0000
0000
0001
1000
0001
0000
1000
0000
,  // measure 79
0001
0100
0010
1000
0100
0000
0010
0100
1000
0100
0010
0000
0100
1000
0001
0100
,  // measure 80
0010
0000
0100
0001
1000
0100
0010
0000
0100
1000
0100
0010
0001
0010
0001
1000
,  // measure 81
0010
1000
0100
0000
0010
0000
0100
0000
0000
0000
0010
0001
0100
0000
0010
0000
,  // measure 82
1000
0010
1000
0000
0010
0000
0100
0000
0000
0000
0010
1000
0010
0000
0100
0000
,  // measure 83
0001
0100
0010
0000
0100
0010
0000
0100
0010
1000
0001
0000
0010
0100
0000
0010
,  // measure 84
0002
0000
0103
0020
0000
0130
0001
2000
,  // measure 85
3100
0010
0100
0000
1000
0000
0001
0000
0000
0000
1000
0010
1000
0000
0001
0000
,  // measure 86
0010
0100
0010
0000
0001
0000
1000
0000
0000
0000
0001
0100
0001
0000
0100
0000
,  // measure 87
0010
1000
0010
0100
0010
0000
1000
0001
0010
0100
0010
0000
0100
1000
0001
0100
,  // measure 88
0010
0000
0100
0001
0010
0100
0010
0000
0100
0010
0001
1000
0010
0100
0001
1000
,  // measure 89
0100
0010
0100
0000
1000
0000
0001
0000
0000
0000
0100
0010
0100
0000
0010
0000
,  // measure 90
1000
0001
1000
0000
0001
0000
0010
0000
0000
0000
0100
0010
0001
0000
1000
0000
,  // measure 91
0001
0100
0010
0000
0100
0010
0000
0100
0010
1000
0001
0000
0010
0100
0000
0010
,  // measure 92
0002
0000
0103
2000
0000
3200
0320
0200
,  // measure 93
0000
0000
0000
0000
,  // measure 94
0000
0000
0000
0000
,  // measure 95
0330
0000
0000
0000
;
