#TITLE:Crystal Hail;
#SUBTITLE:;
#ARTIST:Nhato;
#TITLETRANSLIT:;
#SUBTITLETRANSLIT:;
#ARTISTTRANSLIT:;
#GENRE:TRANCE STEP;
#CREDIT:;
#BANNER:Crystal Hail-banner.png;
#BACKGROUND:Crystal Hail-background.png;
#LYRICSPATH:;
#CDTITLE:cdtitle.png;
#MUSIC:Crystal Hail.ogg;
#OFFSET:-0.290000;
#SAMPLESTART:64.300003;
#SAMPLELENGTH:19.199997;
#SELECTABLE:YES;
#BPMS:0.000000=75.000000
,32.000000=150.000000
,96.000000=75.000000
,128.000000=150.000000
;
#STOPS:
;
#BGCHANGES:;
#KEYSOUNDS:;
#ATTACKS:;

//---------------dance-single - ----------------
#NOTES:
     dance-single:
     :
     Medium:
     11:
     0.386413,0.815587,0.219687,0.274608,0.164765,394.000000,362.000000,32.000000,40.000000,0.000000,0.000000,0.386413,0.815587,0.219687,0.274608,0.164765,394.000000,362.000000,32.000000,40.000000,0.000000,0.000000:
0000
0000
0000
0000
,
0000
0000
0000
0000
,
0000
0000
0000
0000
,
0000
0000
0000
0000
,
1000
0000
0000
0100
0000
0000
1000
0000
0000
0000
0100
0010
0001
0000
0100
0000
,
0010
0000
0000
1000
0000
0000
0010
0000
0100
0000
0000
0001
0000
0000
0010
0000
,
0100
0000
0000
0010
0000
0000
0001
0000
0000
0000
1000
0001
0100
0000
0001
0000
,
0020
0000
0000
0000
0000
0000
0000
0000
0200
0000
0000
0330
1001
0000
0110
0000
,
1001
1000
0010
0100
,
0001
0010
1000
0010
,
0001
0100
0001
0000
0100
0010
0100
0000
,
0010
1000
0010
0000
1000
0000
1001
0000
,
2000
0000
3010
0200
0000
0310
2000
0000
,
3100
0000
0010
0001
1000
0000
0010
0000
,
0100
0100
0001
0001
0100
0100
0010
0000
,
0200
0310
0002
1003
,
0100
0000
0000
1000
0000
0000
0010
0000
0100
0000
0000
0001
0000
0000
0010
0000
,
0001
0000
0000
0100
0000
0000
0001
0000
1000
0000
0000
0100
0000
0000
1000
0000
,
0010
0000
0000
0100
0000
0000
0001
0000
1000
0000
0000
0100
0000
0000
0010
0000
,
0100
0000
0000
0010
0000
0000
0001
0000
0100
0000
0000
0010
0000
0000
0100
0000
,
0001
0000
0000
1000
0000
0000
0100
0000
1000
0000
0000
0010
0000
0000
0100
0000
,
0001
0000
0000
0100
0000
0000
0010
0000
1000
0000
0000
0100
0000
0000
1000
0000
,
0001
0000
0000
0100
0000
0000
0001
0000
0010
0000
0000
0100
0000
0000
0010
0000
,
0021
0000
0000
0100
0000
0031
0200
0000
,
0310
0000
0000
1000
0000
0000
0100
0000
0000
0000
0010
0100
1000
0000
0100
0000
,
1100
0000
0000
1000
0000
0000
0001
0000
0101
0000
0000
0001
0000
0000
1000
0000
,
1001
0000
1000
0000
0010
0000
0000
0100
0000
0100
0001
0000
1000
0100
0020
0000
,
0130
0000
0000
0010
0000
0000
0010
0000
0000
0001
0000
0000
1000
0000
0000
1000
0000
0000
0001
0000
0000
0100
0000
0000
0001
0000
0000
1000
0000
0000
0100
0000
0000
0010
0000
0000
0100
0000
0010
0000
0001
0000
0100
0000
0010
0000
1000
0000
,
0100
0000
0000
1000
0000
0000
0010
0000
1000
0000
0010
0000
1000
0000
0000
0000
0000
0000
0001
0000
0000
0000
0000
0000
0110
0000
0000
0000
0000
0000
0010
0000
0000
0000
0000
0000
0011
0000
0000
0000
0000
0000
0001
0000
0000
0000
0000
0000
,
0200
0000
0301
0020
0000
1030
0020
0000
0032
0000
0103
2000
0000
3100
0020
0000
,
2030
0000
0000
0002
0000
0000
0000
0000
0000
0000
0000
0000
3003
0001
0010
0100
,
1100
0000
0000
0101
0000
0000
1020
0000
0000
0000
0000
0000
0000
0000
0030
0000
,
1002
0010
0010
0013
,
2001
0100
0100
3100
,
1002
0000
1003
0020
0000
1030
0200
0000
,
0320
0000
0130
2000
0000
3010
0200
0000
,
0302
0000
1003
0200
0010
0000
0010
0000
,
0010
0000
0010
0000
0310
0100
0010
0001
,
2000
0000
3001
0200
0000
0310
2000
0000
,
0000
0000
0000
0000
0000
3100
0010
0001
,
2000
3010
0200
0301
,
0002
0013
0200
1300
,
0002
1003
0020
0130
,
0200
0301
0200
0310
,
1000
0010
1000
0000
0001
0100
0001
0000
,
0001
0010
0001
0000
1000
0100
1000
0000
,
0100
0010
0001
0010
0100
1000
0010
0100
,
0001
1000
0010
0100
0001
0000
0000
0000
,
0001
0010
0000
0000
0000
1100
0000
0011
,
0000
0000
0000
0000
0000
0001
0100
0100
,
0010
0000
0000
0000
0000
1010
0000
0101
,
0000
0000
0000
0000
0000
0001
0010
0010
,
0100
0010
0011
0000
0000
1001
0000
1010
,
0000
0000
0110
0000
0000
0100
0010
1000
,
1100
0000
0000
0000
0000
0011
0000
1001
,
0000
0000
0000
0000
0000
0001
0010
0010
,
0100
0000
1000
0000
0100
0010
0100
1000
,
0001
0000
0100
0000
0001
0000
0010
0100
,
0010
0000
0100
0000
0010
0001
0100
0001
,
1000
0000
0100
0000
0010
0100
0100
0010
,
0001
1000
1010
0000
0000
0101
0000
0011
,
0000
0001
1000
0000
0001
0100
1000
0100
,
0001
0000
0000
0100
0000
0000
1000
0000
,
0010
0000
0000
0001
0000
0000
1000
0000
,
1001
0000
0001
0100
0000
0001
1000
0000
,
0100
0000
0010
0100
1000
0000
0100
0000
,
0010
0000
0100
1000
0000
0100
0010
0000
,
0100
0000
1000
0010
0000
0010
0100
0000
,
0001
0000
0001
0100
0000
0100
0010
0000
,
1000
0000
1000
0100
0010
0000
0100
0000
,
1000
0000
0000
0001
0000
0000
0100
0000
,
0001
0000
0000
0010
0000
0000
0100
0000
,
1001
0000
0000
0000
;

//---------------dance-single - ----------------
#NOTES:
     dance-single:
     :
     Hard:
     14:
     0.505083,1.038019,0.233417,0.226552,0.504593,515.000000,481.000000,34.000000,33.000000,0.000000,0.000000,0.505083,1.038019,0.233417,0.226552,0.504593,515.000000,481.000000,34.000000,33.000000,0.000000,0.000000:
0000
0000
0000
0000
,
0000
0000
0000
0000
,
0000
0000
0000
0000
,
0000
0000
0000
0000
,
1001
0000
0000
0000
0000
0000
0010
0000
0000
0000
0000
0000
0100
0000
0000
0000
0000
0000
0000
0000
0010
1000
0010
1000
0010
0000
0000
0000
0100
0000
0000
0000
,
0001
0000
0000
0010
0000
0000
1000
0000
0010
0000
0000
0001
0000
0000
0100
0000
,
0010
0000
0000
0000
0000
0000
1000
0000
0000
0000
0000
0000
0100
0000
0000
0000
0000
0000
0000
0000
0010
0001
0010
0001
0010
0000
0000
0000
0001
0000
0000
0000
,
2000
0000
0000
0000
0000
0000
0000
0000
0000
0000
0000
0000
0000
0000
0000
0000
0000
0000
0000
0000
0000
0000
0000
0000
0002
0000
0000
0000
0000
0000
0000
0000
3003
0000
0000
0000
0110
0000
0000
0010
0000
0000
0100
0000
0000
0010
0000
0000
,
1000
0000
0000
0100
0000
0000
1000
0000
0001
0000
0000
0100
0000
0000
0001
0000
,
0010
0000
0000
0100
0000
0000
0010
0000
0001
1000
0001
1000
0001
0000
0000
0000
,
1000
0000
0000
0010
0000
0000
1000
0000
0100
0000
0000
1000
0000
0000
0001
0000
,
0100
0000
0000
0001
0000
0000
0010
0000
0100
0000
0000
0000
0010
0001
0010
0100
,
0010
0000
0000
0001
0000
0000
0100
0000
0001
0000
0000
0010
0000
0000
0001
0000
,
1000
0000
0000
0100
0000
0000
0010
0100
1000
0000
0000
0000
0020
0000
0000
0000
,
0030
1000
0001
1000
0000
0001
1000
0001
0000
1000
0001
1000
0200
0000
0000
0000
,
0310
0000
0000
0001
0000
0000
0100
0000
0001
0000
0000
1000
0000
0000
0100
0000
,
0010
0000
0001
0010
0000
0010
0100
0000
1000
0000
0100
0010
0000
0010
0001
0000
,
1000
0000
0001
0100
0000
0100
0010
0000
0100
0000
0010
1000
0000
1000
0001
0000
,
0010
0000
0100
0010
0000
0010
0001
0000
1000
0000
0001
0100
0000
0100
0010
0000
,
0100
0000
0010
1000
0000
1000
0100
0000
0010
0000
0100
1000
0000
1000
0001
0000
,
0100
0000
0001
0010
0000
0010
0100
0000
0010
0000
0001
0100
0000
0100
0010
0000
,
0100
0000
0010
1000
0000
1000
0100
0000
0010
0000
0100
0010
0000
0010
0001
0000
,
1000
0000
0001
0100
0000
0100
0010
0000
1000
0000
0010
1000
0000
1000
0100
0000
,
0110
0000
0000
0000
0000
0000
0201
0000
0300
0000
1020
0000
1030
0100
0010
0001
,
1000
0000
0000
0000
0000
0000
0100
0000
0000
0000
0000
0000
0001
0000
0000
0000
0000
0000
0000
0000
0100
0010
0100
0010
0100
0000
0000
0000
1000
0000
0000
0000
,
0001
0000
0000
0100
0000
0000
0001
0000
0010
0000
0000
0100
0000
0000
0010
0000
,
0001
0000
0000
0000
1010
0000
0000
0100
0000
0100
0010
0000
1001
1000
0200
0000
,
0300
0000
0000
0000
0000
0000
0000
0000
0000
0000
0000
0000
0010
0000
0000
0000
0000
0000
0000
0000
0000
0000
0000
0000
0010
0000
0000
0000
0000
0000
0100
0000
0000
0000
0000
0000
0010
0000
0000
0000
0000
0000
0000
0000
0000
0000
0000
0000
0100
0000
0000
0000
0000
0000
1000
0000
0000
0000
0000
0000
0100
0000
0000
0000
0000
0000
1000
0000
0000
0000
0000
0000
0100
0000
0000
0000
0000
0000
0000
0000
0000
0000
0000
0000
0000
0000
0000
0000
0000
0000
0000
0000
0000
0000
0000
0000
0010
0000
0000
0000
0000
0000
0000
0000
0000
0000
0000
0000
0000
0000
0000
0000
0000
0000
0001
0000
0000
0000
0000
0000
1000
0000
0000
0000
0000
0000
0001
0000
0000
0000
0000
0000
1000
0000
0000
0000
0000
0000
0001
0000
0000
0000
0000
0000
1000
0000
0000
0000
0000
0000
0000
0000
0100
0000
0000
0000
0000
0000
0000
0000
0001
0000
0000
0000
0000
0000
0000
0000
0100
0000
0000
0000
0000
0000
0000
0000
0010
0000
0000
0000
0000
0000
0000
0000
0001
0000
0000
0000
0000
0000
0000
0000
,
1000
0000
0000
0000
0000
0000
0000
0000
0000
0000
0000
0000
0100
0000
0000
0000
0000
0000
0000
0000
0000
0000
0000
0000
0010
0000
0000
0000
0000
0000
0000
0000
0100
0000
0000
0000
0000
0000
0000
0000
1000
0000
0000
0000
0000
0000
0000
0000
0001
0000
0000
0000
0000
0000
0000
0000
0000
0000
0000
0000
0000
0000
0000
0000
0000
0000
0000
0000
0000
0000
0000
0000
0100
0000
0000
0000
0000
0000
0001
0000
0000
0000
0000
0000
0100
0000
0000
0000
0000
0000
0001
0000
0000
0000
0000
0000
0100
0000
0000
0000
0000
0000
0000
0000
0000
0000
0000
0000
0000
0000
0000
0000
0000
0000
0000
0000
0000
0000
0000
0000
0010
0000
0000
0000
0000
0000
1000
0000
0000
0000
0000
0000
0010
0000
0000
0000
0000
0000
1000
0000
0000
0000
0000
0000
0010
0000
0000
0000
0000
0000
0000
0000
0000
0000
0000
0000
0000
0000
0000
0000
0000
0000
0000
0000
0000
0000
0000
0000
1000
0000
0000
0000
0000
0000
0100
0000
0000
0000
0000
0000
0010
0000
0000
0000
0000
0000
0001
0000
0000
0000
0000
0000
,
1000
0000
0000
0000
1000
0000
0000
0000
0000
0000
0011
0000
0000
0000
1100
0000
0000
0000
0100
0000
0100
0000
0000
0000
0010
0000
0001
1000
0001
1000
0001
0000
,
0000
0000
0101
0000
0000
0011
0000
1010
0000
1000
1000
0000
1100
0100
0001
0100
,
0020
0000
0000
0032
0000
0000
0203
0000
0000
0000
0000
0000
0000
0000
0000
0000
,
0302
0010
0100
0013
,
2000
0100
0010
3100
,
0020
0000
1030
0002
0000
0103
0002
0000
,
0023
0000
0130
0020
0000
0031
2000
0000
,
3002
0000
0103
0020
0100
0000
1000
0000
,
0100
0000
1000
0000
0130
0010
1000
0001
,
1000
0001
0100
0001
0000
0100
0001
0100
0000
0001
0100
0001
0100
0000
0010
0000
,
2000
0000
0000
0000
0000
3100
0010
0001
,
0100
0000
0000
0100
0000
0000
0100
0000
0010
0000
0000
0010
0000
0000
0010
0000
,
1000
0000
0000
0001
0000
0000
0010
0000
0100
0000
0000
0010
0000
0000
0001
0000
,
1000
0000
0000
1000
0000
0000
1000
0000
0001
0000
0000
0001
0000
0000
0001
0000
,
0100
0000
0000
0001
0000
0000
0010
0000
1000
0000
0000
0010
0000
0000
0001
0000
,
1000
0010
0100
0001
0010
0100
1000
0100
,
1000
0010
0100
0001
0010
0001
1000
0100
,
0010
0001
0010
0001
0010
0001
0010
0001
0010
0100
1000
0100
1000
0100
1000
0100
,
0020
0000
0030
0000
,
1001
1001
0000
0000
0000
1010
0000
0101
,
0000
0000
0000
0000
0000
0000
0000
0000
0000
0000
0001
0010
0001
0000
0010
0000
,
1100
1100
0000
0000
0000
1001
0000
0101
,
0000
0000
0000
0000
0000
0000
0000
0000
0000
0000
0001
1000
0001
0000
0100
0000
,
0001
0010
1100
0000
0000
1010
0000
0101
,
0000
0000
1001
0000
0000
0001
0010
0100
,
1100
0000
0000
0000
0000
1001
0000
0110
,
0000
0000
0000
0000
0000
0000
0000
0000
0000
0000
0100
0001
0100
0000
0100
0000
,
0001
1000
0001
0000
0010
0100
0100
1000
,
0001
0000
0000
0000
0100
0000
0000
0000
0010
0000
1000
0010
1000
0000
0010
0000
,
0100
0100
0001
0000
0010
0001
0001
1000
,
0100
0000
0000
0000
0010
0000
0000
0000
0100
0000
0010
0001
0010
0000
0010
0000
,
0001
1000
0101
0000
0001
1100
0000
0011
,
0000
0000
1001
0000
0000
0100
0010
1000
,
0100
0100
0010
0001
0001
0010
1000
0010
,
0001
0100
0001
0000
0100
0010
0100
0000
0010
1000
0010
0000
1000
0001
1000
0000
,
0210
0000
0301
0020
0000
1030
0020
0000
,
0130
0000
0000
0000
0010
0001
0010
0001
0020
0000
0000
0000
0230
0000
0000
0000
,
2300
0000
3010
0200
0000
0301
0020
0000
,
0230
0000
0301
0200
0000
1300
0020
0000
,
0130
0000
0000
0001
0000
0000
0010
0000
,
0000
0000
0000
0000
0100
0010
0100
0010
0100
0000
0000
0000
1000
0000
0000
0000
,
0001
0000
0000
0100
0000
0000
1000
0000
,
0010
0000
0000
0001
0000
0000
1000
0000
,
1001
0000
0000
0000
;

//---------------dance-single - ----------------
#NOTES:
     dance-single:
     :
     Easy:
     4:
     0.181438,0.247148,0.089248,0.219687,0.000000,185.000000,172.000000,13.000000,32.000000,0.000000,0.000000,0.181438,0.247148,0.089248,0.219687,0.000000,185.000000,172.000000,13.000000,32.000000,0.000000,0.000000:
0000
0000
0000
0000
,
0000
0000
0000
0000
,
0000
0000
0000
0000
,
0000
0000
0000
0000
,
1000
0000
0010
0000
0000
0100
0001
0000
,
0010
0000
0100
0000
0000
0010
0001
0000
,
1000
0000
0001
0000
0000
0100
0010
0000
,
1000
0000
0001
0000
,
0110
0000
0010
0000
,
1000
0000
0100
1000
,
0010
0000
0100
0000
,
0010
0000
0100
0010
,
1000
0000
0001
0000
,
0010
0000
0100
0010
,
0001
0000
1000
0000
,
0110
0000
1001
0000
,
0001
0000
1000
0000
,
0010
0000
1000
0000
,
0100
0000
0010
0000
,
0100
0000
1000
0000
,
0001
0000
0100
0000
,
0010
0000
1000
0000
,
0100
0000
1000
0000
,
1001
0000
0000
0010
0000
0010
2000
0000
,
3100
0000
0000
0000
,
1001
0000
0110
0000
,
1010
0100
0000
0010
,
1000
0000
0001
0000
0100
0000
0010
1000
,
0002
1003
0200
0310
,
0200
1300
0020
0130
,
0002
0000
0000
0000
0000
0000
0000
1003
,
0200
0000
0000
0020
0000
0000
0000
0330
,
1002
0000
0000
0000
,
0203
0000
0000
0000
,
0302
0000
0000
2003
0000
0000
3200
0000
,
2300
0000
0000
3020
0000
0000
0230
0000
,
0320
0000
0000
2030
0000
0000
0000
0000
,
0000
0000
0000
0000
0000
3100
0010
0001
,
0200
0000
0000
0320
0000
0000
2000
0000
,
0000
0000
0000
3030
,
0102
0000
0000
0000
,
0023
0000
0000
0000
,
0032
0000
0000
2003
0000
0000
3020
0000
,
2030
0000
0000
3020
0000
0000
0230
0000
,
0302
0000
0000
2000
0000
0000
0000
0000
,
0000
0000
0000
0000
,
0000
0000
0000
0000
,
0000
0000
3003
0000
,
0010
0100
0000
0000
0000
0010
0000
0010
,
0000
0000
0000
1001
,
1000
0100
0000
0000
0000
0010
0000
0010
,
0000
0000
0000
1001
,
0001
0000
0101
0000
0000
0001
0000
1000
,
0000
0000
0100
0000
0000
0010
0100
1000
,
0001
0000
0000
0000
0000
0100
0000
0001
,
0000
0000
0000
0000
0000
0010
0100
0000
,
0010
0000
0000
0000
0000
0100
0000
1000
,
0000
0000
0000
0000
0000
0010
0100
0000
,
0001
0000
0000
0000
0000
1000
0000
0001
,
0000
0000
0000
1000
,
0001
0100
0010
0000
0000
1000
0000
0010
,
0000
0000
0100
0000
0000
0000
0010
1000
,
0001
0000
0000
0010
0000
0000
1000
0000
,
0010
0000
0000
0001
0000
0000
1000
0000
,
0001
0000
0000
0100
0000
0000
0010
0000
,
0000
2000
3100
1000
,
0010
0000
0000
0100
0000
0000
0001
0000
,
0010
0000
0000
0100
0000
0000
0010
0000
,
0001
0000
0000
1000
0000
0000
0010
0000
,
0000
0000
1000
0010
0100
0000
0010
0000
,
1000
0000
0000
0100
0000
0000
0010
0000
,
0001
0000
0000
0010
0000
0000
0100
0000
,
1001
0000
0000
0000
;

//---------------dance-single - ----------------
#NOTES:
     dance-single:
     :
     Beginner:
     3:
     0.114747,0.197718,0.089248,0.000000,0.000000,117.000000,104.000000,13.000000,0.000000,0.000000,0.000000,0.114747,0.197718,0.089248,0.000000,0.000000,117.000000,104.000000,13.000000,0.000000,0.000000,0.000000:
0000
0000
0000
0000
,
0000
0000
0000
0000
,
0000
0000
0000
0000
,
0000
0000
0000
0000
,
1000
0000
0000
0000
,
0001
0000
1000
0000
,
0010
0000
0000
0000
,
0100
0000
0010
0000
,
1000
0000
0000
0000
,
0001
0000
1000
0000
,
0010
0000
0000
0000
,
0100
0000
0010
0000
,
1000
0000
0000
0000
,
0000
0001
1000
0000
,
0100
0000
1000
0000
,
0010
0000
0000
0000
,
0100
0000
0100
0000
,
0100
0000
0100
0000
,
0010
0000
0010
0000
,
0010
0000
0010
0000
,
1001
0000
1000
0000
,
0001
0000
0100
0000
,
0001
0000
1000
0000
,
0110
0000
0000
0100
,
1001
0000
0000
0000
,
1000
0000
0001
0000
,
0100
0000
0000
0000
,
0010
0010
0010
1000
,
1001
0000
0010
0000
,
0100
0000
0001
0000
,
1000
0000
0000
0000
,
1001
0000
0000
0110
0000
0000
0000
0000
,
0100
0000
0000
0000
,
0010
0000
0000
0000
,
1000
0000
0000
0000
,
0001
0000
0000
0000
,
0010
0000
0000
0000
,
0000
0000
0000
0001
,
1000
0000
0010
0000
,
0100
0000
0000
0010
,
1000
0000
0000
0000
,
0100
0000
0000
0000
,
1000
0000
0000
0000
,
0001
0000
0000
0000
,
0100
0000
0000
0000
,
0000
0000
0000
0000
,
0010
0000
0000
0000
,
1000
0000
0000
0000
,
1001
0000
0000
0000
0000
0001
0000
0001
,
0000
0000
0000
0000
,
1001
0000
0000
0000
0000
1000
0000
1000
,
0000
0000
0000
0000
,
0000
0000
0110
0000
0000
0010
0000
0010
,
0000
0100
0000
0000
,
0010
0000
0000
0000
0000
1000
0000
1000
,
0000
0000
0000
0000
,
1001
0000
0000
0000
0000
0010
0000
0010
,
0000
0000
0000
0000
,
1001
0000
0000
0000
0000
0100
0000
0100
,
0000
0000
0000
0000
,
0000
0000
1001
0000
0000
0010
0000
0010
,
0000
0100
0000
0010
,
1000
0000
0000
0000
,
0001
0000
0000
0000
,
0100
0000
0000
0000
,
0000
0000
0010
1000
,
0001
0000
0000
0000
,
1000
0000
0000
0000
,
0100
0000
0000
0000
,
0000
0010
0001
1000
,
0001
0000
0000
0000
,
1000
0000
0000
0000
,
0110
0000
0000
0000
;

//---------------dance-single - ----------------
#NOTES:
     dance-single:
     :
     Challenge:
     16:
     0.617869,1.087449,0.254013,0.302069,0.796364,630.000000,593.000000,37.000000,44.000000,109.000000,0.000000,0.617869,1.087449,0.254013,0.302069,0.796364,630.000000,593.000000,37.000000,44.000000,109.000000,0.000000:
// measure 0
0000
0000
0000
0000
,  // measure 1
0000
0000
0000
0000
,  // measure 2
0000
0000
0000
0000
,  // measure 3
0000
0000
0000
0000
,  // measure 4
1020
0000
0000
0000
0000
0000
0000
0000
0000
0000
0000
0000
0000
0000
0000
0000
0000
0000
0000
0000
0000
0000
0000
0000
0000
0000
0000
0000
0000
0000
0000
0000
0000
0000
0000
0000
0230
0000
0000
0000
0000
0000
0000
0000
0000
0000
0000
0000
0000
0000
0000
0000
0000
0000
0000
0000
0000
0000
0000
0000
0000
0000
0000
0000
0000
0000
0000
0000
0000
0000
0000
0000
0302
0000
0000
0000
0000
0000
0000
0000
0000
0000
0000
0000
0000
0000
0000
0000
0000
0000
0000
0000
0000
0000
0000
0000
0000
0000
0000
0000
0000
0000
0000
0000
0000
0000
0000
0000
0000
0000
0000
0000
0003
0000
0000
0000
0000
0000
0000
0000
0010
0000
0000
0000
0000
0000
0001
0000
0000
0000
0000
0000
0010
0000
0000
0000
0000
0000
0100
0000
0000
0000
0000
0000
2000
0000
0000
0000
0000
0000
0000
0000
0000
0000
0000
0000
0000
0000
0000
0000
0000
0000
0000
0000
0000
0000
0000
0000
3200
0000
0000
0000
0000
0000
0000
0000
0000
0000
0000
0000
0000
0000
0000
0000
0000
0000
0000
0000
0000
0000
0000
0000
,  // measure 5
0320
0000
0000
0130
0000
0000
1000
0000
0020
0000
0000
0130
0000
0000
0010
0000
,  // measure 6
2000
0000
0000
0000
0000
0000
3002
0000
0000
0000
0000
0000
0020
0000
0000
0000
0000
0000
0033
0000
0010
0100
0010
0001
1000
0000
0000
0000
0001
0000
0000
0000
,  // measure 7
0200
0000
0000
0000
0000
0000
0000
0000
0000
0000
0000
0000
0000
0000
0000
0000
0320
0000
0000
0000
0000
0000
0000
0000
0130
0000
0010
1000
0010
0100
0001
0010
,  // measure 8
0100
0000
0010
0001
0000
1000
0010
0000
0000
0000
1000
0001
0000
0010
0100
0010
,  // measure 9
0000
0000
0100
1000
0000
0001
0100
0000
0010
1000
0010
1000
0100
0010
0100
0010
,  // measure 10
0000
0000
0010
0001
0000
0010
0100
0000
0000
0000
0010
0100
0000
1000
0001
1000
,  // measure 11
0000
0000
0001
0100
0000
0010
1000
0000
0000
0000
0000
0000
0001
0100
1000
0100
,  // measure 12
0010
0000
1000
0010
0000
0100
0001
0000
0000
0000
0010
0100
0000
0010
0001
1000
,  // measure 13
0000
0000
0001
0100
0000
0001
0010
0000
0000
0000
0100
0000
2000
0000
3020
0000
,  // measure 14
0130
0000
0000
0010
0000
0000
1000
0000
0000
0001
0000
0000
0000
0000
0000
0001
0000
0000
0100
0000
0000
0010
0000
0000
0000
0000
0000
0000
0100
0000
0010
0000
0100
0000
0010
0000
0200
0000
0000
0000
0000
0000
0300
0000
0000
0000
0000
0000
,  // measure 15
0001
0000
1000
0100
0010
0000
0100
0000
1000
0000
0001
0100
0010
0000
1000
0000
,  // measure 16
0001
0000
1000
0010
0000
0010
0100
0000
0010
0000
1000
0001
0000
0001
0010
0000
,  // measure 17
0100
0000
0010
0001
0000
0001
0100
0000
0010
0000
0100
0010
0000
0010
1000
0100
,  // measure 18
0010
0000
0100
1000
0000
1000
0010
0000
0100
0000
0001
0010
0000
0010
0001
0000
,  // measure 19
1000
0000
0001
0100
0000
0100
0010
0000
1000
0000
0010
1000
0000
1000
0100
0010
,  // measure 20
0001
0010
0001
0010
0100
1000
0100
1000
0010
1000
0010
1000
0001
0100
0001
0100
,  // measure 21
0001
0100
0010
1000
0001
0010
0100
0010
0001
1000
0100
0010
0100
1000
0001
0100
,  // measure 22
0001
1000
0001
1000
0010
0100
0010
0100
0001
0100
0001
0100
0010
1000
0010
1000
,  // measure 23
2100
0000
0000
0000
0000
0000
0000
0000
0000
0000
0000
0000
0000
0000
0000
3000
0000
0000
0201
0000
0000
0000
0000
0000
0000
0000
0000
0000
0300
0000
1002
0000
0000
0000
0000
0000
0013
0000
0100
0000
0010
0000
0100
0000
0010
0000
0001
0000
,  // measure 24
1000
0000
0000
0000
0000
0000
0100
0000
0000
0000
0000
0000
0001
0000
0000
0000
0000
0000
0000
0000
0100
0010
0001
0010
0100
0000
0000
0000
0010
0000
0000
0000
,  // measure 25
1001
0000
0000
0001
0000
0000
1000
0000
0101
0000
0000
0001
0010
0010
0100
0100
,  // measure 26
1100
0000
1000
0010
1001
0000
0000
1000
0000
0001
0010
0000
1100
0100
0020
0000
,  // measure 27
0130
0000
0000
0000
0000
0000
0000
0000
0000
0000
0000
0000
0010
0000
0000
0000
0000
0000
0000
0000
0000
0000
0000
0000
0001
0000
0000
0000
1000
0000
0000
0000
0001
0000
0000
0000
1000
0000
0000
0000
0000
0000
0000
0000
0000
0000
0000
0000
0010
0000
0000
0000
0000
0000
0000
0000
0000
0000
0000
0000
1000
0000
0000
0000
0000
0000
0001
0000
0000
0000
0000
0000
0010
0000
0000
0000
0000
0000
0000
0000
0000
0000
0000
0000
0000
0000
0000
0000
0000
0000
0000
0000
0000
0000
0000
0000
0100
0000
0000
0000
0000
0000
0000
0000
0000
0000
0000
0000
0010
0000
0000
0000
0000
0000
0100
0000
0000
0000
0000
0000
1000
0000
0000
0000
0000
0000
0010
0000
0000
0000
0000
0000
0100
0000
0000
0000
0000
0000
0001
0000
0000
0000
0000
0000
0010
0000
0000
0000
0000
0000
0000
0000
0010
0000
0000
0000
0000
0000
0000
0000
0001
0000
0000
0000
0000
0000
0000
0000
1000
0000
0000
0000
0000
0000
0000
0000
1000
0000
0000
0000
0000
0000
0000
0000
0010
0000
0000
0000
0000
0000
0000
0000
,  // measure 28
0100
0000
0000
0000
0000
0000
0000
0000
0000
0000
0000
0000
0001
0000
0000
0000
0000
0000
0000
0000
0000
0000
0000
0000
0010
0000
0000
0000
0000
0000
0000
0000
0010
0000
0000
0000
0000
0000
0000
0000
0010
0000
0000
0000
0000
0000
0000
0000
0200
0000
0000
0000
0000
0000
0000
0000
0000
0000
0000
0000
0000
0000
0000
0000
0000
0000
0000
0000
0000
0000
0000
0000
0310
0000
0000
0000
0000
0000
0001
0000
0000
0000
0000
0000
1000
0000
0000
0000
0000
0000
0010
0000
0000
0000
0000
0000
2000
0000
0000
0000
0000
0000
0000
0000
0000
0000
0000
0000
0000
0000
0000
0000
0000
0000
0000
0000
0000
0000
0000
0000
3010
0000
0000
0000
0000
0000
1000
0000
0000
0000
0000
0000
0010
0000
0000
0000
0000
0000
0100
0000
0000
0000
0000
0000
0002
0000
0000
0000
0000
0000
0000
0000
0000
0000
0000
0000
0000
0000
0000
0000
0000
0000
0000
0000
0000
0000
0000
0000
1003
0000
0000
0000
0000
0000
0100
0000
0000
0000
0000
0000
0010
0000
0000
0000
0000
0000
0100
0000
0000
0000
0000
0000
,  // measure 29
2000
0000
0000
0000
3000
0000
0000
0000
0001
0000
0100
0000
0000
0000
0100
0000
0000
0000
0010
0000
0010
0000
0000
0000
1000
0010
1000
0010
0100
0001
0100
0001
,  // measure 30
0000
0000
1100
0000
0000
1001
0000
0101
0000
0011
1100
0000
1001
0001
0100
1000
,  // measure 31
1200
0000
0000
0320
0000
0000
2000
0000
0000
0000
0000
0000
0000
0000
3030
0000
,  // measure 32
M001
0000
M000
0100
M000
0000
M010
0000
M100
0000
M000
0001
M000
0000
1000
0000
,  // measure 33
010M
0000
000M
0010
000M
0000
010M
0000
100M
0000
000M
0100
000M
0000
0010
0000
,  // measure 34
0M01
0000
0M00
1000
0M00
0000
00M1
0000
01M0
0000
00M0
0001
M000
0000
M010
0000
,  // measure 35
01M0
0000
00M0
1000
00M0
0000
0M01
0000
1M00
0000
0M00
0010
000M
0000
100M
0000
,  // measure 36
01M0
0000
00M0
1000
00M0
0000
0M01
0000
1M00
0000
0M00
0010
0M00
0000
1M00
0000
,  // measure 37
0M01
0000
0M00
0010
0M00
0000
0M10
0000
0M01
0000
10M0
0000
0M02
0000
M000
0003
,  // measure 38
000M
0100
001M
0100
000M
0010
M100
0001
M000
0001
M100
0001
01M0
0000
00M0
0000
,  // measure 39
00M2
00M0
00M0
00M0
00M3
0M10
01M0
10M0
,  // measure 40
0M01
0000
1000
0002
0000
0103
0001
0000
0010
0000
0100
2000
0000
3100
1000
0000
,  // measure 41
0100
0000
1000
0002
0000
0103
0001
0000
0010
0000
0100
0020
0000
0130
0010
0000
,  // measure 42
0100
0000
1000
0020
0000
0130
0010
0000
0100
0000
0001
2000
0000
3100
1000
0000
,  // measure 43
0100
0000
1000
0020
0000
0130
0010
0000
0100
0000
0001
0020
0000
0130
0010
0000
,  // measure 44
0001
0010
0100
0010
0001
0100
0010
1000
,  // measure 45
0100
0010
0100
1000
0001
0100
0010
1000
,  // measure 46
0001
0100
0001
0100
0001
1000
0010
1000
0010
1000
0010
0100
0010
0100
0010
0100
,  // measure 47
0004
4000
0000
0000
0000
0000
0000
0000
0000
0000
0000
0000
3003
0000
0000
0000
0000
0000
0000
0000
0000
0000
0000
0000
,  // measure 48
1M0M
0000
00MM
0100
0000
0000
1000
0000
0000
0010
M00M
0000
0100
0000
M0M1
0000
,  // measure 49
0010
0000
0000
0001
0000
0000
0100
0000
0000
0001
M000
0M00
M010
0000
0M01
0000
,  // measure 50
10M0
0000
000M
0010
0000
0000
0100
0000
0000
0001
M0M0
0000
0010
0000
MM01
0000
,  // measure 51
0100
0000
0000
0001
0000
0000
1000
0000
0000
0010
000M
0M00
100M
0000
01M0
0000
,  // measure 52
0010
0100
1MM1
0000
1001
MM01
0110
M1M1
,  // measure 53
0000
0000
1MM1
0000
0000
11MM
0100
0010
,  // measure 54
MM11
0000
0000
0010
0000
0000
0001
0000
0000
0100
M00M
0000
0010
0000
1M0M
0000
,  // measure 55
0001
0000
0000
1000
0000
0000
0100
0000
0000
0010
0001
1000
0001
0000
0110
0000
,  // measure 56
1001
0000
0001
0100
0000
0010
1000
0000
0001
0100
0000
0010
1000
0000
0001
0000
,  // measure 57
0010
0000
0100
0010
0000
0100
1000
0000
0010
0100
0000
0001
0010
0000
0100
0000
,  // measure 58
0010
0000
0001
0010
0000
0001
0100
0000
0010
1000
0000
0001
0010
0000
0100
0000
,  // measure 59
0010
0000
0001
0100
0000
0010
1000
0000
0100
0010
0000
0100
1000
0000
0001
0000
,  // measure 60
0100
0010
1MM1
0000
0101
1M1M
0001
1MM1
,  // measure 61
0000
0000
M11M
0000
0100
0010
1000
0001
,  // measure 62
0021
0100
0130
2100
0001
3001
1000
0001
,  // measure 63
1000
0100
1000
0000
0100
0010
0100
0000
0010
0001
0010
0000
0001
0100
0001
0000
,  // measure 64
0100
0000
0100
0010
0000
1000
0001
0000
,  // measure 65
0010
0000
0000
0000
0100
0010
0001
0010
0011
0000
0000
0000
0101
0000
0000
0000
,  // measure 66
0110
0000
0001
0100
0000
0100
1000
0000
,  // measure 67
1100
0000
1000
0100
0000
0100
0010
0000
,  // measure 68
1010
0000
0010
1000
0000
1000
0001
0000
,  // measure 69
0010
0000
0000
0000
0100
0010
0001
1000
0010
0000
0000
0000
0100
0000
0000
0000
,  // measure 70
0002
0000
0000
0203
0000
0000
2300
0000
,  // measure 71
3020
0000
0000
0032
0000
0000
2003
0000
,  // measure 72
3001
0000
0000
0000
;
