#VERSION:0.83;
#TITLE:Couleur=Blanche;
#SUBTITLE:;
#ARTIST:#FFFFFF;
#TITLETRANSLIT:;
#SUBTITLETRANSLIT:;
#ARTISTTRANSLIT:FFFFFF;
#GENRE:TRANCE CORE;
#ORIGIN:;
#CREDIT:;
#BANNER:banner.png;
#BACKGROUND:background.png;
#PREVIEWVID:;
#JACKET:jacket.png;
#CDIMAGE:;
#DISCIMAGE:;
#LYRICSPATH:;
#CDTITLE:;
#MUSIC:Couleur=Blanche.ogg;
#OFFSET:-14.275988;
#SAMPLESTART:92.869804;
#SAMPLELENGTH:20.756760;
#SELECTABLE:YES;
#BPMS:0.000=185.000,
92.000=184.615,
94.000=169.681,
96.000=157.137,
98.000=150.031,
99.000=140.207,
100.000=135.894,
101.000=124.924,
102.000=124.919,
103.000=109.673,
104.000=106.615,
105.000=100.000,
106.000=96.566,
107.000=84.112,
108.000=90.000,
110.000=110.260,
111.000=115.644,
112.000=114.472,
113.000=121.581,
114.000=129.712,
115.000=135.568,
116.000=133.161,
117.000=139.779,
118.000=153.289,
121.000=159.822,
122.000=169.781,
123.000=170.424,
124.000=181.726,
125.000=179.910,
126.000=187.135,
127.000=190.703,
128.000=199.474,
129.000=200.362,
130.000=216.038,
131.000=210.480,
132.000=220.251,
135.000=239.362,
137.000=238.727,
138.000=249.351,
139.000=252.145,
140.000=257.926,
141.000=263.206,
142.000=270.321,
143.000=286.681,
144.000=300.000,
145.000=228.426,
146.000=152.542,
147.000=149.300,
148.000=91.324,
149.000=46.668,
150.000=92.453,
151.000=185.000,
215.000=370.000,
229.000=185.000,
294.000=92.500,
300.000=370.000,
316.000=185.000;
#STOPS:109.000=1.333;
#DELAYS:;
#WARPS:;
#TIMESIGNATURES:0.000=4=4;
#TICKCOUNTS:0.000=4;
#COMBOS:0.000=1;
#SPEEDS:0.000=1.000=0.000=0;
#SCROLLS:0.000=1.000;
#FAKES:;
#LABELS:0.000=Song Start;
#BGCHANGES:;
#KEYSOUNDS:;
#ATTACKS:
;

//---------------dance-single - ----------------
#NOTEDATA:;
#CHARTNAME:;
#STEPSTYPE:dance-single;
#DESCRIPTION:;
#CHARTSTYLE:;
#DIFFICULTY:Hard;
#METER:16;
#RADARVALUES:0.687328,0.883268,0.462778,0.414905,0.402936,603.000000,545.000000,58.000000,52.000000,10.000000,0.000000,4.000000,0.000000,0.000000,0.687328,0.883268,0.462778,0.414905,0.402936,603.000000,545.000000,58.000000,52.000000,10.000000,0.000000,4.000000,0.000000,0.000000;
#CREDIT:Pandemonium X;
#NOTES:
1000
0000
1000
0000
0000
0001
0000
0000
1000
0000
0000
0001
0000
0000
1000
0000
,
0010
0000
0010
0000
0100
0010
0000
0100
0010
0000
1000
0001
0000
0010
0100
0000
,
1000
0100
0010
0100
1000
0010
0100
0001
0010
0100
0010
0001
0100
0010
1000
0001
,
4000
0004
0000
0000
0000
0000
0000
0000
0000
0000
0000
0000
3003
0000
0000
0000
,
2000
0010
3010
0100
0002
0100
0103
0010
,
0200
0000
0001
0000
0301
0000
1000
0000
0110
0000
0000
0001
1000
0000
0000
0000
,
0002
0010
0013
0100
2000
0010
3010
0100
,
0002
0000
1000
0000
1003
0000
0100
0000
0110
0000
0000
0001
1000
0000
0000
0000
,
0002
0100
0103
1000
0200
0010
0310
1000
,
0200
0000
0010
0000
0310
0000
0001
0000
1001
0000
0000
0100
0010
0000
0000
0000
,
0200
0010
0310
1000
0002
0010
0013
0100
,
0020
0000
0100
0000
0130
0010
0001
0000
0010
0000
0100
1000
0001
0000
0000
0000
,
1010
0010
0100
1010
0000
0010
0100
0000
,
0010
0000
1000
0100
0000
0010
0001
0000
,
1100
1000
0001
0110
0000
0100
0001
0000
,
0010
0000
0100
1000
0000
0100
0010
0000
,
0110
1000
0001
1010
0000
1000
0001
0000
,
0010
0000
0100
1000
0000
0100
0010
0000
,
0011
0001
0100
0110
0000
0010
0100
0000
,
1001
0001
0100
1000
0010
0001
1000
0000
,
0101
0010
1000
1100
0000
0100
0110
0000
,
1001
0000
0100
0100
0110
0010
1000
1001
,
0000
1000
1001
0000
0101
0000
1010
0000
,
1001
0000
0000
0001
0000
0000
0010
0000
0000
0110
0000
0000
0010
0000
0001
0000
0010
0000
0001
0000
1000
0000
0000
0000
,
0010
1000
0001
0010
0100
0000
0010
0001
1000
0100
0000
0000
,
0110
0000
0010
0000
0001
0000
1001
0000
0001
1000
0001
0010
0100
0000
0000
0000
,
0100
0010
0001
1000
0010
0100
0010
0000
0010
0100
0001
0010
0100
0000
0000
0000
,
2002
0000
0000
0000
3000
0000
0000
0000
1003
0000
0000
0001
0100
0001
0010
0000
,
0100
1000
0100
0010
0001
0000
1000
0000
1001
0000
0000
0001
0200
0000
0000
0310
,
2000
0000
0000
3100
0020
0000
0000
0000
0031
0010
0001
0100
0010
1000
0001
0010
,
0100
0010
0001
1000
0100
0010
0000
0000
2002
0000
0000
3003
1000
0010
0000
0010
,
1000
0001
0010
0000
1100
0100
0110
0010
,
0011
0001
0101
0100
0110
0010
1010
0202
,
0000
0303
1002
0203
,
1300
0100
0002
0000
0013
1000
0010
0100
,
0010
0001
0010
0100
1000
0100
1000
0010
,
0100
0000
0001
0000
0010
0100
1000
0002
2000
0000
0000
0000
0000
0000
0000
0000
,
0000
0000
0000
0000
0000
0000
0000
0000
3003
0000
0000
0000
0001
0000
0000
1000
,
0000
0100
0000
0010
0001
0100
0001
1000
,
0000
0100
0000
0000
0001
0000
0100
0000
0010
0000
0001
0000
1000
0000
0000
1000
,
0000
0000
1000
0000
0001
0000
0000
0001
0000
0000
0001
0000
0010
0000
0001
0000
,
0100
0000
0000
0010
0000
0000
0100
0000
0001
0000
1000
0000
0100
0000
0000
1000
,
0000
0010
0100
0010
1000
0001
0010
0001
,
0000
0100
0000
0000
0010
0000
0100
0000
0010
0000
1000
0000
0001
0000
0100
0000
,
0001
0020
0000
0000
0031
1000
0001
0200
,
0000
0000
0000
0000
0301
0000
0010
0000
0100
0000
1000
0000
1001
0000
0000
1000
,
0000
0100
1000
0010
0001
0010
0100
0001
,
0000
0010
0000
0000
1000
0000
0010
0000
0100
0000
1000
0000
0001
0000
0000
0001
,
0000
0000
0010
0000
0100
0000
0000
0100
0000
0000
0010
0000
0001
0000
1000
0000
,
0010
0000
0000
0100
0000
0000
1000
0000
0100
0000
0001
0000
0010
0000
0000
0100
,
0010
0000
0000
0010
0100
0000
0000
0100
0010
0000
0001
0000
1000
0000
0000
0010
,
0100
0000
0000
0100
0010
0000
0000
0010
0100
0000
0001
0000
1000
0000
0100
0000
,
0010
0000
0200
0000
1000
0000
1300
0000
0100
0000
0010
0000
0001
0010
0001
0010
,
0100
1000
0100
1000
0001
1000
0001
1000
0010
0100
0010
4000
0004
0000
0000
0000
,
0000
0000
0000
0000
,
0000
0000
0000
0000
,
0000
0000
0000
0000
,
0000
0000
0000
0000
3003
0000
0000
0000
1020
0000
0000
0130
0000
0000
0010
0000
,
1010
0000
1000
0000
0100
0000
0010
0000
0100
0000
1200
0000
0000
0302
0000
0000
,
0103
0000
0010
0000
0001
0000
1000
0000
1002
0000
0000
0013
0000
0000
0100
0000
,
2100
0000
0000
3010
0000
0000
0100
0000
0001
0000
0010
0000
0210
0000
0000
1300
,
0000
0000
0100
0000
0010
0000
0001
0000
1002
0000
0000
0103
0000
0000
0001
0000
,
0010
0000
0100
0000
0010
0000
0001
0000
1000
0000
0201
0000
0000
0310
0000
0000
,
0100
0001
0010
0100
1001
0100
0010
2020
,
0000
3030
1010
0100
0001
0022
0000
0033
,
1000
0100
0010
0001
1000
0100
0010
0001
2000
0000
0000
3100
0000
0000
0010
0000
,
0110
0000
0100
0000
1000
0000
0010
0000
0100
0000
0021
0000
0000
0130
0000
0000
,
0011
0000
0001
0000
0100
0000
0010
0000
0120
0000
0000
1030
0000
0000
0100
0000
,
0012
0000
0000
1003
0000
0000
1000
0000
0001
0000
0100
0000
0120
0000
0000
1030
,
0000
1000
0110
0001
1000
1000
0001
1000
,
0010
1000
0100
0010
0001
0001
0010
0001
,
1000
0000
0100
0000
0010
0001
0010
0001
0010
0000
0100
0000
1000
0000
2020
0000
,
0000
3030
1000
0001
0010
0220
0000
0330
,
0100
0010
0001
1000
0010
0100
0001
1000
0000
0000
0000
0000
0000
0000
0000
0000
,
M0MM
0MM0
M000
MMMM
,
1000
0100
1000
0100
1000
0100
1000
0100
,
0001
0100
0001
0100
0001
0100
0001
0100
,
0001
0100
0010
1000
0001
0010
0100
0010
,
0001
1000
0010
0100
0001
0010
0100
2000
,
0002
0000
0000
0000
,
0000
0000
0000
0000
,
0000
0000
0000
0000
,
3003
0000
0000
0000
;

//---------------dance-single - ----------------
#NOTEDATA:;
#CHARTNAME:;
#STEPSTYPE:dance-single;
#DESCRIPTION:;
#CHARTSTYLE:;
#DIFFICULTY:Easy;
#METER:7;
#RADARVALUES:0.272424,0.409718,0.063831,0.319157,0.000000,239.000000,231.000000,8.000000,40.000000,0.000000,0.000000,0.000000,0.000000,0.000000,0.272424,0.409718,0.063831,0.319157,0.000000,239.000000,231.000000,8.000000,40.000000,0.000000,0.000000,0.000000,0.000000,0.000000;
#CREDIT:Pandemonium X;
#NOTES:
1000
0000
0001
0000
,
0100
0000
0010
0000
,
1000
0010
0100
0001
,
0020
0000
0000
0030
,
1200
0000
0320
0000
,
0032
0000
1003
0000
,
0021
0000
0230
0000
,
2300
0000
3001
0000
,
1020
0000
0230
0000
,
0302
0000
0013
0000
,
0210
0000
0320
0000
,
0230
0000
0000
0300
,
0010
0001
1000
0001
0000
0000
0000
0000
,
0000
0000
0000
0000
,
1000
0100
0010
0001
0000
0000
0000
0000
,
0000
0000
0000
0000
,
0010
0001
1000
0100
0000
0000
0000
0000
,
0000
0000
0000
0000
,
1000
0010
0100
0001
0000
0000
0000
0000
,
0000
0000
0000
0000
,
1000
0100
0010
0001
0000
1000
1000
0000
,
0001
0000
0000
0000
0100
1000
0100
0010
,
0000
0100
0100
0000
0010
0000
0000
0000
,
0001
0010
0100
1000
0000
0000
0000
0000
,
0000
0000
0000
0000
,
1000
0100
0010
0001
0000
0000
0000
0000
,
0000
0000
0000
0000
,
0220
0330
2000
0000
,
3200
0000
2300
3002
,
0203
0320
1030
0100
,
0001
0100
0010
0001
,
1000
0010
0100
0100
,
0001
0001
1000
0001
,
2000
0000
3001
0100
,
0010
0010
0100
0010
,
1000
0001
0100
0010
,
1000
0001
2002
0000
,
0000
0000
3003
0110
,
0000
0010
0000
1000
,
0000
0001
0000
0010
,
0000
0001
0000
1000
,
0000
0100
0000
1000
,
0000
0010
0000
0100
,
0000
0000
0010
0000
0000
0000
1000
0001
,
1000
0001
0000
0000
0100
0001
0100
0001
,
0000
0000
0010
0100
1000
0001
1000
0000
,
0100
1000
0100
0010
,
0001
0010
0001
0100
,
0001
0100
0010
1000
,
0001
0010
0001
0100
,
0100
0010
0010
1000
,
1000
0000
0001
0000
0001
0000
1000
0010
,
0100
0001
0000
0000
0100
0010
1000
0001
,
0000
0000
1000
0100
0010
0001
0200
0000
,
0000
0000
0000
0000
,
0000
0000
0000
0000
,
0000
0000
0000
0000
,
0000
0300
0020
0130
,
0001
1000
0100
0001
,
0100
1000
0200
0310
,
0020
0031
0010
0001
,
0100
0010
2000
3001
,
0010
0001
0100
0010
,
1000
0000
0100
0000
0010
0100
1000
0002
,
0000
0000
1003
0010
0100
0002
0000
0000
,
0103
0010
1000
0100
0020
0000
0130
0000
,
1000
0001
0010
1000
,
0010
0001
0200
0310
,
2000
3001
0010
0001
,
0100
0010
2000
3100
,
0010
0100
2000
3001
,
1000
0000
0010
0000
1000
0100
0010
0002
,
0000
0000
0013
0100
1000
0020
0000
0000
,
0130
0010
1000
0001
0000
0000
0000
0000
,
0000
0000
0000
0000
,
0220
0000
0000
0000
,
0000
0000
0000
0000
,
0000
0000
0000
0000
,
0000
0000
0000
0000
,
0330
0000
0000
0000
;

//---------------dance-single - ----------------
#NOTEDATA:;
#CHARTNAME:;
#STEPSTYPE:dance-single;
#DESCRIPTION:;
#CHARTSTYLE:;
#DIFFICULTY:Medium;
#METER:11;
#RADARVALUES:0.432002,0.535786,0.135642,0.311178,0.063831,379.000000,362.000000,17.000000,39.000000,0.000000,0.000000,2.000000,0.000000,0.000000,0.432002,0.535786,0.135642,0.311178,0.063831,379.000000,362.000000,17.000000,39.000000,0.000000,0.000000,2.000000,0.000000,0.000000;
#CREDIT:Pandemonium X;
#NOTES:
1000
0000
0010
0000
0000
0100
0000
0000
0010
0000
0000
1000
0000
0000
0001
0000
,
0010
0100
1000
0000
0100
1000
0010
0000
,
0100
0010
1000
0001
0100
0010
1000
0001
,
0020
0000
0000
0030
,
0200
0000
1300
0010
0200
0000
0310
1000
,
0200
0000
1300
0010
0100
0000
1001
0000
,
0200
0000
0301
0010
0200
0000
0310
0001
,
0200
0000
0310
1000
0100
0000
1001
0000
,
0200
0000
1300
0001
0200
0000
0310
1000
,
0200
0000
0310
0001
0100
0000
1001
0000
,
0002
0000
0013
0100
2000
0000
3100
0001
,
0200
0000
1300
0010
0200
0000
0001
0000
,
0310
1000
0100
0010
0000
0100
1000
0000
,
1000
0000
0001
0100
0000
0100
0001
0000
,
0010
0100
1000
0001
0000
1000
0010
0000
,
0100
0000
0001
0010
0000
0100
0010
0000
,
0100
0010
0001
1000
0000
0001
0100
0000
,
0010
0000
1000
0100
0000
1000
0010
0000
,
0100
0010
1000
0100
0000
0010
0100
0000
,
1000
0000
0100
1000
0000
0100
0010
0000
,
1001
0001
0010
0100
0000
0010
0010
0000
,
1001
0000
0110
0000
1001
0001
1000
0100
,
0000
0010
0010
0000
0110
0000
1100
0000
,
1000
0100
0010
0001
1000
0000
0000
0000
,
0001
0000
0100
0000
,
0010
1000
0100
0010
0001
0000
0000
0000
,
1000
0000
0010
0000
,
2002
3003
2000
3100
,
0002
0103
2000
3200
,
0320
0000
0032
0000
1003
0001
0100
0000
,
0001
0100
0010
0000
1020
0000
0130
0000
,
2100
0000
3010
0000
1000
0001
0100
0010
,
1000
0000
0001
0000
0010
0100
1000
0200
,
0000
0000
1300
0100
,
0010
0001
0010
0000
0100
0000
1000
0000
,
0010
0100
0010
1000
,
0001
0000
0010
0200
0000
0000
0000
0000
,
0000
0000
0300
1000
,
0001
0100
0001
0010
,
0100
0010
0001
1000
,
0010
1000
0001
1000
,
0001
0001
1000
0001
,
0100
0001
0010
0100
,
0010
0000
0001
0000
1000
0000
0010
0100
,
0010
1000
0000
0000
1000
0100
0010
0001
,
0000
0000
0001
0010
0100
1000
0001
0000
,
1000
0010
1000
0001
,
0010
0100
0010
0001
,
0001
1000
1000
0001
,
1000
0010
1000
1001
,
0001
0010
0100
0010
,
0001
0000
0100
0000
0010
0000
1000
0010
,
0100
0001
0000
0000
0010
0100
1000
0100
,
0000
0000
1000
0100
0010
0001
2002
0000
,
0000
0000
0000
0000
,
0000
0000
0000
0000
,
0000
0000
0000
0000
,
0000
0000
0000
0000
3003
0000
0000
0000
0001
0000
0000
0010
0000
0000
0001
0000
,
1000
0000
0100
0000
1000
0000
0010
0000
0100
0000
0010
0000
0000
1000
0000
0000
,
0001
0000
0010
0000
0100
0000
1000
0000
0100
0000
0000
0100
0000
0000
1000
0000
,
0010
0000
0000
0010
0000
0000
0100
0000
0001
0000
1000
0000
0100
0000
0000
0010
,
0000
0000
0100
0000
0010
0000
0001
0000
1000
0000
0000
0001
0000
0000
1000
0000
,
0001
0000
0100
0000
0001
0000
0010
0000
0100
0000
1000
0000
0000
0001
0000
0000
,
0100
0001
0010
0100
0010
0001
1000
0002
,
0000
0003
1000
0100
1000
0020
0000
0030
,
0100
0000
0010
0000
1000
0000
0001
0000
2000
0000
0000
3010
0000
0000
0100
0000
,
0001
0000
0010
0000
0100
0000
0010
0000
0001
0000
1000
0000
0000
0001
0000
0000
,
0010
0000
0001
0000
1000
0000
0100
0000
0020
0000
0000
0130
0000
0000
1000
0000
,
0020
0000
0000
0130
0000
0000
0010
0000
0100
0000
0001
0000
2000
0000
0000
3002
,
0000
0000
0013
0000
0100
0000
1000
0000
2001
0000
0000
3010
0000
0000
0100
0000
,
0010
0000
1000
0000
0100
0000
0010
0000
0001
0000
0021
0000
0000
0130
0000
0000
,
0010
0001
0100
0010
1000
0100
0001
0200
,
0000
0300
1000
0010
0001
0020
0000
0030
,
0100
0010
1000
0001
0000
0000
0000
0000
,
0000
0000
0000
0000
,
4004
0000
0000
0000
,
0000
0000
0000
0000
,
0000
0000
0000
0000
,
0000
0000
0000
0000
,
3003
0000
0000
0000
;

//---------------dance-single - ----------------
#NOTEDATA:;
#CHARTNAME:;
#STEPSTYPE:dance-single;
#DESCRIPTION:;
#CHARTSTYLE:;
#DIFFICULTY:Beginner;
#METER:4;
#RADARVALUES:0.135642,0.220618,0.079789,0.000000,0.000000,119.000000,109.000000,10.000000,0.000000,0.000000,0.000000,0.000000,0.000000,0.000000,0.135642,0.220618,0.079789,0.000000,0.000000,119.000000,109.000000,10.000000,0.000000,0.000000,0.000000,0.000000,0.000000,0.000000;
#CREDIT:Pandemonium X;
#NOTES:
// measure 0
1000
0000
0000
0000
,  // measure 1
0001
0000
0000
0000
,  // measure 2
0100
0000
0000
0000
,  // measure 3
0010
0000
0000
1001
,  // measure 4
0010
0000
0010
0000
,  // measure 5
0010
0000
0000
0000
,  // measure 6
0100
0000
0100
0000
,  // measure 7
0100
0000
0000
0000
,  // measure 8
0001
0000
0001
0000
,  // measure 9
0001
0000
0000
0000
,  // measure 10
1000
0000
1000
0000
,  // measure 11
1000
0000
0000
0000
,  // measure 12
0010
0000
0000
0000
,  // measure 13
1000
0000
0000
0000
,  // measure 14
0001
0000
0000
0000
,  // measure 15
0010
0000
0000
0000
,  // measure 16
0100
0000
0000
0000
,  // measure 17
0010
0000
0000
0000
,  // measure 18
0001
0000
0000
0000
,  // measure 19
1000
0000
0000
0000
,  // measure 20
1001
0000
0000
0010
,  // measure 21
0010
0000
1001
0000
,  // measure 22
0000
0100
0100
0000
,  // measure 23
0110
0000
0000
0000
,  // measure 24
0010
0000
0000
0000
,  // measure 25
1001
0000
1000
0000
,  // measure 26
0001
0000
1000
0000
,  // measure 27
0110
0000
0010
0000
,  // measure 28
1000
0000
0001
1000
,  // measure 29
0001
0000
0100
0000
,  // measure 30
0010
0000
1000
1000
,  // measure 31
1000
0000
0001
0000
,  // measure 32
1000
0000
0010
0010
,  // measure 33
0010
0000
0100
0000
,  // measure 34
0010
0000
1000
0000
,  // measure 35
0001
0000
0010
0000
,  // measure 36
0100
0000
0000
0000
,  // measure 37
0000
0000
0000
1000
,  // measure 38
0000
0000
0000
0001
,  // measure 39
0000
0000
0000
0100
,  // measure 40
0000
0000
0000
0010
,  // measure 41
0000
0000
0000
1000
,  // measure 42
0000
0000
0000
0100
,  // measure 43
0000
0000
0000
1000
,  // measure 44
0000
0000
0001
0000
,  // measure 45
0000
1000
0000
0110
,  // measure 46
0000
0000
0000
0010
,  // measure 47
0000
0000
0000
0100
,  // measure 48
0000
0000
0000
0001
,  // measure 49
0000
0000
0000
1000
,  // measure 50
0000
0001
0000
0100
,  // measure 51
0000
0010
0000
1000
,  // measure 52
0000
0000
0001
0000
,  // measure 53
0000
0100
0010
1001
,  // measure 54
0000
0000
0000
0000
,  // measure 55
0000
0000
0000
0000
,  // measure 56
0000
0000
0000
0000
,  // measure 57
0000
0000
0010
0000
,  // measure 58
0000
0000
0100
0000
,  // measure 59
0000
0000
0001
0000
,  // measure 60
1000
0000
0001
0000
,  // measure 61
0000
0000
0010
0000
,  // measure 62
0000
0000
0001
0000
,  // measure 63
0000
0000
0100
0000
,  // measure 64
0000
0010
0000
0000
,  // measure 65
1000
0001
1001
0000
,  // measure 66
1000
0000
0010
0000
,  // measure 67
0000
0000
0100
0000
,  // measure 68
0001
0000
0010
0000
,  // measure 69
0000
0000
0100
0000
,  // measure 70
1000
0000
0001
0000
,  // measure 71
0000
0000
1000
0000
,  // measure 72
0000
0001
0000
0000
,  // measure 73
0100
0000
0000
0000
,  // measure 74
0000
0000
0000
0000
,  // measure 75
0110
0000
0000
0000
,  // measure 76
0010
0000
0000
0000
,  // measure 77
0100
0000
0000
0000
,  // measure 78
0001
0000
0000
0000
,  // measure 79
1000
0000
0000
0000
;
