#TITLE:BATTLE BREAKS;
#SUBTITLE:;
#ARTIST:DJ TAKAWO;
#TITLETRANSLIT:;
#SUBTITLETRANSLIT:;
#ARTISTTRANSLIT:;
#GENRE:V.R.D.J SKILLS;
#CREDIT:;
#BANNER:banner.png;
#BACKGROUND:background.png;
#LYRICSPATH:;
#CDTITLE:;
#MUSIC:BATTLE BREAKS.ogg;
#OFFSET:-0.008000;
#SAMPLESTART:2.142857;
#SAMPLELENGTH:17.142859;
#SELECTABLE:YES;
#BPMS:0.000000=112.000000
;
#STOPS:66.000000=0.536000,
91.500000=0.268000,
98.500000=0.268000,
99.000000=0.268000,
99.500000=0.268000,
101.000000=0.268000,
101.500000=0.268000,
132.000000=0.268000,
132.500000=0.268000,
169.000000=0.536000
;
#BGCHANGES:;
#KEYSOUNDS:;
#ATTACKS:;

//---------------dance-single - ----------------
#NOTES:
     dance-single:
     :
     Hard:
     12:
     0.468075,0.578335,0.282459,0.160060,0.230675,348.000000,318.000000,30.000000,17.000000,0.000000,0.000000,0.468075,0.578335,0.282459,0.160060,0.230675,348.000000,318.000000,30.000000,17.000000,0.000000,0.000000:
// measure 0
0000
0000
0000
0000
,  // measure 1
1000
0000
0001
0000
1000
0000
0000
1000
0000
0000
0001
0000
1000
0000
0010
0000
,  // measure 2
1000
0000
0001
0000
1000
0000
0000
1000
0000
0000
0001
0000
0010
0000
0100
0000
,  // measure 3
1000
0000
0001
0000
1000
0000
0010
0100
0000
0010
0100
0000
0010
0000
0010
0000
,  // measure 4
1000
0001
0010
0001
1000
0010
0010
1000
,  // measure 5
0001
0000
1000
0000
1200
0000
0000
0000
0000
0000
0310
0000
0000
0010
0000
0000
,  // measure 6
0010
0000
0100
0000
0010
0001
1000
0000
,  // measure 7
0001
0000
0100
0000
0120
0000
0000
0000
0000
0000
0130
0000
0000
0100
0000
0000
,  // measure 8
0100
0000
0010
0000
1000
0000
0000
0001
0000
0000
0010
0000
0010
0000
0001
0000
,  // measure 9
1000
0000
0001
0000
0201
0000
0000
0000
0000
0000
0301
0000
0000
0001
0000
0000
,  // measure 10
0001
0000
1000
0000
0100
0000
0100
1000
0000
0000
0100
0000
1000
0000
0001
0000
,  // measure 11
0100
0000
0001
0000
0021
0000
0000
0000
0000
0000
0130
0000
0000
0100
0000
0000
,  // measure 12
1000
0100
0001
0100
0010
0001
1000
0000
,  // measure 13
0001
0100
0010
1000
0100
0001
0100
1000
,  // measure 14
0001
0010
0001
0100
0001
0010
1000
0010
,  // measure 15
0100
0010
0001
0100
0010
1000
0100
0010
,  // measure 16
0110
0100
1100
1000
1001
0000
0001
0010
,  // measure 17
0001
0100
0010
0100
0010
1000
0010
1000
,  // measure 18
0001
0010
0100
0010
0001
1000
0001
0100
,  // measure 19
0001
0010
0100
0010
0001
1000
1001
0000
,  // measure 20
0110
0000
0000
0000
1001
0000
0000
0010
0000
0010
0000
0100
0001
0000
0001
0000
,  // measure 21
1000
0000
0001
0000
1000
0000
0001
0000
1000
0000
0001
1000
0020
0000
0000
0000
,  // measure 22
0000
0000
0000
0000
0000
0000
0130
0001
0100
0001
0100
0001
1000
0000
0100
0000
,  // measure 23
0100
0000
1000
0000
0001
0000
0100
0000
0010
1000
0010
0000
0100
0010
0100
0000
,  // measure 24
0001
0000
1000
0000
0100
0000
0010
0100
0010
0000
1001
0000
0101
0000
1010
0000
,  // measure 25
0010
0100
1001
0110
1001
0010
0100
0001
,  // measure 26
1000
0000
0000
0100
1000
0000
0001
0000
0100
0000
0001
0000
0100
0000
1001
0000
,  // measure 27
2002
0000
0000
0000
0000
0000
0000
0000
3003
0000
0001
0100
0010
1000
0001
0000
,  // measure 28
1001
0000
0000
0001
0010
0000
0001
0000
0100
0000
0010
0000
1000
0000
0000
0000
,  // measure 29
0102
0000
0000
0000
0000
0000
0000
0000
0013
0000
0000
0010
0000
0000
0010
0000
,  // measure 30
0100
0000
0000
0010
0100
0000
0010
0000
0001
0000
1000
0000
0010
0000
0110
0000
,  // measure 31
0220
0000
0000
0000
0000
0000
0330
0000
0001
0000
0000
1000
0000
0000
0100
0000
,  // measure 32
1000
0000
0000
0001
1000
0000
0100
0000
1000
0000
0010
1000
0000
0001
0100
0000
,  // measure 33
0010
0100
0001
1000
0100
0001
0100
0010
,  // measure 34
0022
0000
0000
0000
0033
0000
1100
0100
,  // measure 35
1000
0000
0000
1000
0000
0000
0101
0000
0000
0110
0000
0000
0010
1000
0010
0000
,  // measure 36
1000
0000
0001
0000
0010
0100
0000
0010
0000
0001
1000
0000
0001
0000
1000
0000
,  // measure 37
2100
0000
0000
0000
0000
0000
3010
0000
0000
0010
0000
0000
0100
0010
0100
0010
,  // measure 38
1000
0001
1000
0001
0100
0010
1000
0001
0010
0000
0100
0000
0010
0000
0001
0000
,  // measure 39
0201
0000
0000
0000
0000
0000
0310
0000
0000
0010
0000
0000
0010
0100
0000
0010
,  // measure 40
0000
0100
0001
0000
0100
0010
0000
0100
0001
0000
1000
0000
0100
0000
0010
0000
,  // measure 41
0012
0000
0000
1003
0000
0000
0001
0100
,  // measure 42
0100
0001
0100
0000
0001
0010
1000
0000
,  // measure 43
1000
0010
0001
0000
0001
0100
1000
0100
,  // measure 44
0001
0010
1000
0010
0001
0100
1000
0100
,  // measure 45
0001
0010
1000
0000
0022
0000
0000
0000
,  // measure 46
0000
0000
0000
0000
,  // measure 47
0000
0033
0000
0000
;

//---------------dance-single - ----------------
#NOTES:
     dance-single:
     :
     Medium:
     8:
     0.324156,0.400386,0.103568,0.178891,0.089445,241.000000,230.000000,11.000000,19.000000,0.000000,0.000000,0.324156,0.400386,0.103568,0.178891,0.089445,241.000000,230.000000,11.000000,19.000000,0.000000,0.000000:
// measure 0
0000
0000
0000
0000
,  // measure 1
1000
0000
0001
0000
1000
0000
0000
0001
0000
0000
1000
0000
0001
0000
0000
0000
,  // measure 2
0100
0000
0010
0000
0100
0000
0000
0010
0000
0000
0100
0000
0010
0000
0000
0000
,  // measure 3
1000
0000
0010
0000
1000
0000
0010
0000
0000
1000
0000
0000
0010
0000
0010
0000
,  // measure 4
0100
0000
0010
0010
0000
0000
0100
0000
,  // measure 5
0010
0000
0100
0000
0002
0000
0000
0000
0000
0000
1003
0000
0000
1000
0000
0000
,  // measure 6
1000
0000
0000
0000
0001
1000
0010
0000
,  // measure 7
0100
0000
0000
0000
0002
0000
0000
0000
0000
0000
0013
0000
0000
0010
0000
0000
,  // measure 8
0010
0000
0000
0000
0100
0000
0000
0100
0000
0000
1000
0000
1000
0000
0001
0000
,  // measure 9
1000
0000
0010
0000
0200
0000
0000
0000
0000
0000
0310
0000
0000
0010
0000
0000
,  // measure 10
0010
0000
0000
0000
0100
0000
0000
0100
0000
0000
0010
0000
1000
0000
0001
0000
,  // measure 11
1000
0000
0001
0000
0200
0000
0000
0000
0000
0000
0301
0000
0000
0001
0000
0000
,  // measure 12
1001
0000
0000
0000
,  // measure 13
0001
2000
3100
1000
,  // measure 14
0010
0100
0010
1000
,  // measure 15
0001
0020
0130
0010
,  // measure 16
1001
0000
0110
0000
1001
0000
0001
1000
,  // measure 17
0020
0000
1030
0000
0001
0000
0010
0100
,  // measure 18
1000
0000
0100
1000
0010
0000
0100
0000
,  // measure 19
0002
0000
0103
0010
1000
0000
0101
0000
,  // measure 20
1100
0000
0101
0000
1100
0000
0001
0001
,  // measure 21
1000
0001
0001
1000
0001
1000
0220
0000
,  // measure 22
0000
0000
0000
0330
0000
0000
0010
0100
,  // measure 23
0100
0010
0000
0000
0000
0100
0001
1000
,  // measure 24
1000
0001
0010
0100
1000
0001
0100
0010
,  // measure 25
0100
0001
1000
0001
1000
0100
0010
0100
,  // measure 26
1000
0000
0100
0000
1000
0000
0010
0100
,  // measure 27
0200
0000
0000
0000
0300
0010
0100
1001
,  // measure 28
0000
0000
1000
0000
0001
0100
0010
0000
,  // measure 29
2000
0000
0000
0000
0000
0000
0000
0000
3001
0000
0000
1000
0000
0000
0010
0000
,  // measure 30
1000
0000
0100
0000
0010
0100
1000
0100
,  // measure 31
0200
0000
0000
0000
0000
0000
0000
0000
1300
0000
0000
0100
0000
0000
0001
0000
,  // measure 32
0100
0000
0010
0000
0001
0100
0001
0000
,  // measure 33
1000
0100
0010
0100
1000
0010
0100
0001
,  // measure 34
0020
0000
0000
0000
0000
0000
0130
0010
,  // measure 35
0001
0000
0000
0001
0000
0000
1000
0000
0000
1000
0000
0000
0001
0000
1000
0000
,  // measure 36
0010
1000
0001
0010
0100
1000
0100
1000
,  // measure 37
0020
0000
0000
0000
0000
0000
0130
0000
0000
0100
0000
0000
0010
0000
0010
0000
,  // measure 38
0100
0100
0010
0010
0010
0000
0100
0001
,  // measure 39
2000
0000
0000
0000
0000
0000
3001
0000
0000
1000
0000
0000
0001
0000
0000
0100
,  // measure 40
0000
0000
0001
0000
0000
0010
0000
0000
0100
0000
0010
0000
0001
0000
0001
0000
,  // measure 41
2000
0000
0000
0000
0000
0000
3100
0000
0000
0100
0000
0000
1000
0000
0010
0000
,  // measure 42
0010
1000
0010
0000
0100
0000
0001
0000
,  // measure 43
0010
0100
0010
0001
,  // measure 44
1000
0100
0000
1000
0000
0010
0000
0100
,  // measure 45
0010
0000
1000
0000
0001
1000
0000
0000
0220
0000
0000
0000
0000
0000
0000
0000
,  // measure 46
0000
0000
0000
0000
,  // measure 47
0000
0330
0000
0000
;

//---------------dance-single - ----------------
#NOTES:
     dance-single:
     :
     Challenge:
     14:
     0.603925,0.734041,0.517842,0.630826,0.579042,449.000000,394.000000,55.000000,67.000000,0.000000,0.000000,0.603925,0.734041,0.517842,0.630826,0.579042,449.000000,394.000000,55.000000,67.000000,0.000000,0.000000:
// measure 0
0000
0000
0000
0000
,  // measure 1
1000
0000
1000
0000
0010
0000
0000
0010
0000
0000
1000
0000
0010
0000
0200
0302
,  // measure 2
1003
0000
0001
0000
1000
0000
0000
1000
0000
0000
0001
0000
2000
3000
0200
0300
,  // measure 3
0010
0000
0100
0000
0010
0000
0200
2000
3300
0200
2000
3300
0200
0320
0032
2003
,  // measure 4
3010
0000
1001
0000
0002
2003
3010
0000
0110
0000
2000
0000
3002
0000
0013
0100
,  // measure 5
1000
0000
0100
0000
0022
0000
0000
0000
0033
0000
1100
0000
0000
0101
0000
0000
,  // measure 6
1001
0000
0001
0000
1000
0000
0000
0000
0001
0100
1000
0000
0100
0000
0000
0000
,  // measure 7
0010
0000
1000
0000
0202
0000
0000
0000
0303
0000
1010
0000
0000
1100
0000
0000
,  // measure 8
1001
0000
0001
0000
0100
0000
0000
0100
0000
0000
0020
0000
0230
0000
0320
2030
,  // measure 9
3100
0000
0010
0000
2002
0000
0000
0000
3003
0000
0101
0000
0000
0011
0000
0000
,  // measure 10
0110
0000
0100
0000
1000
0000
0001
0001
0000
0000
1000
0000
0001
0000
0001
0000
,  // measure 11
1000
0000
0001
0000
2020
0000
0000
0000
3030
0000
0101
0000
0000
0011
0000
0000
,  // measure 12
0010
0100
1000
0000
0100
0000
0001
0000
0100
0000
0010
0000
0001
1000
0000
0000
,  // measure 13
0001
0100
0001
0000
0100
0001
0100
0000
0001
0000
0001
0100
0001
0000
0001
0000
,  // measure 14
1000
0000
0000
0001
0000
0000
1000
0000
0000
0000
0000
0000
0001
0000
0000
0000
0100
0000
0000
0000
0001
0000
0000
0000
1000
0000
0000
0001
0000
0000
0100
0000
0000
0001
0000
0000
1000
0000
0000
0001
0000
0000
1000
0000
0000
0000
0000
0000
,  // measure 15
0100
1000
0010
0000
0100
0001
0010
0000
0001
0001
1000
0001
1000
0001
0001
1000
,  // measure 16
0001
0000
0100
0010
1000
0001
0010
0100
1000
0000
0000
0000
0100
1000
0010
0100
,  // measure 17
0001
0010
0100
0010
0001
0100
0010
1000
0001
0010
0100
0010
0001
0100
0010
1000
,  // measure 18
0001
1000
0100
0000
0010
0100
1000
0100
0010
0100
1000
0001
0100
0010
1000
0001
,  // measure 19
0010
0000
0100
0000
0010
0000
0001
0000
0100
0000
0010
0000
1000
0000
0001
0000
0010
0000
0100
0000
0010
0000
0001
0000
2000
3000
2000
3000
0002
0003
0002
0003
,  // measure 20
0200
0300
0200
0300
0020
0030
0020
0030
0200
0300
0200
0300
0020
0030
0200
0000
0000
0000
0302
0000
0000
0000
0013
0000
0100
0000
0000
0000
0100
0000
0000
0000
,  // measure 21
0010
0000
0100
0000
0100
0000
0010
0000
0100
0000
0010
0100
2002
0000
0000
0000
,  // measure 22
0000
0000
0000
0000
0000
0000
0000
0000
0000
0000
0000
0000
3003
0000
0000
0000
0000
0000
0001
0000
0000
0000
1000
0000
0001
0000
0000
0000
0001
0000
1000
0000
0000
0000
1000
0000
0001
0000
0000
0100
0000
0000
0010
0000
0000
0000
0000
0000
,  // measure 23
0010
0000
1000
0000
0002
0000
2003
0000
3100
1000
0010
0000
0100
0100
0010
0000
,  // measure 24
0100
0000
0002
0003
2000
3000
0010
0100
0010
0100
0110
0000
1001
0000
1010
0000
,  // measure 25
1000
0010
0101
0011
0110
1100
1010
0101
,  // measure 26
0110
0000
0000
0100
0001
0010
0100
0000
0010
0000
0001
1000
0000
0000
0101
0000
,  // measure 27
2020
0000
0000
0000
0000
0000
0000
0000
3030
0000
1000
0100
0001
0100
1000
0000
,  // measure 28
1001
0000
0000
1000
0010
0100
0001
0000
0100
0001
0000
0001
0100
0000
0020
2030
,  // measure 29
3002
0000
0000
0000
0000
0000
0000
0000
1003
0000
0000
1000
0000
0000
1000
0000
,  // measure 30
1001
0000
0000
0001
0010
0100
0010
0000
0001
0000
1000
0100
0000
0000
0010
0000
,  // measure 31
0220
0000
0000
0000
0000
0000
0330
0000
1100
0000
0000
0110
0000
0000
0011
0000
,  // measure 32
0101
0000
0000
0001
0100
0010
1000
0000
0100
0000
0010
0000
0002
0000
1003
0100
,  // measure 33
1000
0010
0100
0101
0011
1100
0101
1010
,  // measure 34
2002
0000
0000
0000
0000
3003
0001
0100
,  // measure 35
2020
0000
0000
0000
3030
0000
0101
0000
0000
0011
0000
0000
0100
1000
0010
0000
,  // measure 36
0100
0000
1000
0000
0100
0001
0000
0010
0000
1000
0010
0000
0100
0000
1000
0000
,  // measure 37
2002
0000
0000
0000
3003
0000
0110
0000
0000
1001
0000
0000
0001
0100
0010
1000
,  // measure 38
0001
0100
0010
1000
0001
0100
0001
0010
0100
0000
0010
0000
0001
0000
0010
0000
,  // measure 39
2200
0000
0000
0000
3300
0000
0011
0000
0000
0110
0000
0000
1000
0100
0000
0001
,  // measure 40
0000
0100
1000
0000
0100
0010
0000
0100
1000
0000
0010
0000
0100
0000
0001
0000
,  // measure 41
2002
0000
3003
0110
0000
0000
0100
0001
,  // measure 42
0001
0000
0100
0000
0001
0000
0000
0000
1000
0100
0001
0000
0100
0000
0000
0000
,  // measure 43
1000
0100
0001
0000
0100
0000
0000
0000
1000
0100
0001
0000
0100
1000
0010
0000
,  // measure 44
0100
0001
0010
0100
1000
0010
0001
0000
0010
0100
1000
0000
0100
1000
0010
0000
,  // measure 45
0100
0000
0010
0000
1000
0001
0000
0000
0220
0000
0000
0000
0000
0000
0000
0000
,  // measure 46
0000
0000
0000
0000
,  // measure 47
0000
0330
0000
0000
;

//---------------dance-single - ----------------
#NOTES:
     dance-single:
     :
     Easy:
     4:
     0.160060,0.222437,0.028246,0.150645,0.000000,119.000000,116.000000,3.000000,16.000000,0.000000,0.000000,0.160060,0.222437,0.028246,0.150645,0.000000,119.000000,116.000000,3.000000,16.000000,0.000000,0.000000:
// measure 0
0000
0000
0000
0000
,  // measure 1
1000
0010
1000
0100
,  // measure 2
1000
0001
0100
0000
,  // measure 3
0001
0010
0000
0000
,  // measure 4
0100
0000
0000
0100
0000
0000
0000
0000
,  // measure 5
0100
0020
0000
0030
,  // measure 6
0001
0000
0000
0000
1000
0001
1000
0000
,  // measure 7
0001
0200
0000
0300
,  // measure 8
0010
0000
0000
0000
,  // measure 9
1000
0200
0000
0300
,  // measure 10
0010
0000
0001
1000
,  // measure 11
0001
0200
0000
0300
,  // measure 12
0110
0000
0000
0000
,  // measure 13
0010
1000
0010
1000
,  // measure 14
0001
0100
0001
0100
,  // measure 15
0001
0010
0001
0010
,  // measure 16
0100
0100
0100
1000
,  // measure 17
0001
0100
0001
0010
,  // measure 18
0001
1000
0100
1000
,  // measure 19
0010
1000
0001
0010
,  // measure 20
0010
0010
0010
0100
,  // measure 21
0010
0001
1000
0220
,  // measure 22
0000
0330
0000
0010
,  // measure 23
0000
0010
0000
0000
0000
1000
0000
0000
,  // measure 24
0000
0001
0000
0000
0000
1000
0000
0000
,  // measure 25
0000
0010
0000
0000
,  // measure 26
0100
0000
0000
0000
,  // measure 27
0020
0000
0030
0000
,  // measure 28
1000
0000
0001
0000
,  // measure 29
0200
0000
0300
0000
,  // measure 30
0010
0000
1000
0000
,  // measure 31
0200
0000
1300
0000
,  // measure 32
0001
0000
1000
0000
,  // measure 33
0010
0000
0000
0000
,  // measure 34
0200
0000
0300
0010
,  // measure 35
2000
0000
3000
0001
,  // measure 36
1000
0010
1000
0100
,  // measure 37
0020
0000
0030
0100
,  // measure 38
0100
1000
1000
0001
,  // measure 39
0020
0000
0030
0001
,  // measure 40
1000
0010
1000
0001
,  // measure 41
0200
0000
0300
0010
,  // measure 42
0000
0010
0000
0000
1000
0000
0000
0000
,  // measure 43
0001
0000
1000
0001
,  // measure 44
1000
0001
1000
0001
,  // measure 45
1000
0001
0220
0000
,  // measure 46
0000
0000
0000
0000
,  // measure 47
0000
0330
0000
0000
;

//---------------dance-single - ----------------
#NOTES:
     dance-single:
     :
     Beginner:
     3:
     0.095498,0.149939,0.028246,0.018831,0.000000,71.000000,68.000000,3.000000,2.000000,0.000000,0.000000,0.095498,0.149939,0.028246,0.018831,0.000000,71.000000,68.000000,3.000000,2.000000,0.000000,0.000000:
// measure 0
0000
0000
0000
0000
,  // measure 1
1000
0000
0000
0000
,  // measure 2
0001
0000
0000
0000
,  // measure 3
1000
0000
0000
0000
,  // measure 4
0001
0000
0000
0001
0000
0000
0000
0000
,  // measure 5
1000
0000
0000
0000
0000
0010
0000
0000
,  // measure 6
0010
0000
0000
0000
,  // measure 7
0100
0000
0000
0000
0000
0001
0000
0000
,  // measure 8
0001
0000
0000
0000
,  // measure 9
1000
0000
0000
0000
0000
0010
0000
0000
,  // measure 10
0010
0000
0000
0000
,  // measure 11
1000
0000
0000
0000
0000
0001
0000
0000
,  // measure 12
1000
0000
0000
0000
,  // measure 13
0010
0000
0000
0000
,  // measure 14
1000
0000
0000
0000
,  // measure 15
0100
0000
0000
0000
,  // measure 16
1000
1000
1000
0001
,  // measure 17
0000
0000
0000
1000
,  // measure 18
0000
0000
0000
0010
,  // measure 19
0000
0000
0000
0100
,  // measure 20
0100
0100
0000
0010
,  // measure 21
0000
0000
0000
1001
,  // measure 22
0000
0000
0000
1000
,  // measure 23
0000
1000
0000
0000
0000
0010
0000
0000
,  // measure 24
0000
0100
0000
0000
0000
0001
0000
0000
,  // measure 25
0000
1000
0000
0000
,  // measure 26
0010
0000
0000
0000
,  // measure 27
0200
0000
0300
0000
,  // measure 28
0001
0000
0000
0000
,  // measure 29
1000
0000
0100
0000
,  // measure 30
1000
0000
0000
0000
,  // measure 31
0002
0000
0003
0000
,  // measure 32
0100
0000
0000
0000
,  // measure 33
0010
0000
0000
0000
,  // measure 34
1001
0000
0000
0010
,  // measure 35
0000
0000
0000
1000
0000
0000
1000
0000
,  // measure 36
0000
0000
0000
0001
,  // measure 37
0000
0000
0000
0010
0000
0000
0010
0000
,  // measure 38
0000
0000
0000
0100
,  // measure 39
0000
0000
0000
1000
0000
0000
1000
0000
,  // measure 40
0000
0000
0000
0010
,  // measure 41
0000
0000
0000
0100
0000
0000
0001
0000
,  // measure 42
0000
0001
0000
0000
1000
0000
0000
0000
,  // measure 43
0001
0000
1000
0000
,  // measure 44
0001
0000
1000
0000
,  // measure 45
0001
1000
0110
0000
;
