#VERSION:0.83;
#TITLE:Attack;
#SUBTITLE:;
#ARTIST:Mr.Funky;
#TITLETRANSLIT:;
#SUBTITLETRANSLIT:;
#ARTISTTRANSLIT:;
#GENRE:HARDSTYLE;
#ORIGIN:;
#CREDIT:;
#BANNER:banner.png;
#BACKGROUND:background.png;
#PREVIEWVID:;
#JACKET:jacket.png;
#CDIMAGE:;
#DISCIMAGE:;
#LYRICSPATH:;
#CDTITLE:cdtitle.png;
#MUSIC:Attack.ogg;
#OFFSET:1.110001;
#SAMPLESTART:98.089996;
#SAMPLELENGTH:12.800003;
#SELECTABLE:YES;
#BPMS:0.000=150.000,
280.000=300.000;
#STOPS:;
#DELAYS:;
#WARPS:;
#TIMESIGNATURES:0.000=4=4;
#TICKCOUNTS:0.000=4;
#COMBOS:0.000=1;
#SPEEDS:0.000=1.000=0.000=0;
#SCROLLS:0.000=1.000;
#FAKES:;
#LABELS:0.000=Song Start;
#BGCHANGES:;
#KEYSOUNDS:;
#ATTACKS:
;

//---------------dance-single - ----------------
#NOTEDATA:;
#CHARTNAME:;
#STEPSTYPE:dance-single;
#DESCRIPTION:;
#CHARTSTYLE:;
#DIFFICULTY:Hard;
#METER:13;
#RADARVALUES:0.527726,0.720231,0.421524,0.099633,0.210762,482.000000,427.000000,55.000000,13.000000,0.000000,0.000000,0.000000,0.000000,0.000000,0.527726,0.720231,0.421524,0.099633,0.210762,482.000000,427.000000,55.000000,13.000000,0.000000,0.000000,0.000000,0.000000,0.000000;
#CREDIT:Pandemonium X;
#NOTES:
0000
0000
0000
0000
,
0000
0000
0000
0000
,
0000
0000
0000
0000
,
0000
0000
0000
0000
,
0000
0000
0000
0000
,
0000
0000
0000
0000
,
1000
0000
0001
0100
0000
0010
1000
0000
0000
1000
0000
0000
,
0100
0000
0010
0001
0000
0001
0100
0000
0000
0100
0000
0000
,
0010
0000
1000
0010
0000
0100
0001
0000
0000
0001
0000
0000
,
1000
0000
0100
0010
0000
0010
0001
0000
0000
0001
0000
0000
,
1000
0000
0010
0100
0000
0010
1000
0000
0000
0000
0000
0000
,
0001
0000
1000
0100
0000
0010
0100
0000
0000
0100
0000
0000
,
0010
0000
0001
0100
0000
0010
1000
0000
0000
1000
0000
0000
,
0100
0000
0010
0001
0000
1000
0010
0000
0000
0000
0000
0000
,
1001
0000
1000
0100
0000
0100
0010
0000
0010
0001
0000
0001
,
0100
0000
0100
0010
0000
0010
1000
0000
0000
1000
0000
0000
,
1001
0000
0001
0010
0000
0010
0100
0000
0100
1000
0000
1000
,
0010
0000
0010
0100
0000
0100
0001
0000
0000
0001
0000
0000
,
1000
0001
0010
0100
1000
0100
0000
0000
0000
0000
0000
0000
,
1000
0100
0010
0001
1000
0001
1000
0000
0010
1000
0000
0001
,
0100
0001
0010
0100
1000
0001
0000
0000
0000
0000
0000
0000
,
1000
0000
0010
0000
0100
0000
0001
0000
0010
0000
0100
0000
0000
0000
0000
0000
0000
0000
0000
0000
0000
0010
0000
0000
,
1001
0000
0000
0000
0000
0001
0100
0001
,
0010
0100
1000
0100
0000
0100
0000
0010
,
1001
0000
0000
0000
0000
1000
0010
0100
,
0001
1000
0100
0010
0000
0010
0000
0100
,
1001
0000
0000
0000
0000
0010
0001
1000
,
0100
1000
0001
0100
0000
0100
0000
0010
,
1001
0000
0000
0000
0000
0001
0100
1000
,
0100
0010
1000
0001
0010
0000
0000
0000
,
0110
0000
0011
0001
0100
0000
1001
0000
,
1010
0010
0100
0010
0110
0010
1000
0001
,
0011
0000
0010
0100
1100
0000
1001
0000
,
0101
0000
0001
0000
0100
0000
0010
0000
1000
0001
1000
0001
1000
0000
0001
0000
,
1001
0000
1000
0001
0101
0000
1001
0000
,
0001
0100
0010
1000
0100
0010
0100
1000
,
1100
0000
0100
0010
0011
0000
1010
0000
,
1001
0001
1000
0100
0001
0100
0010
0001
,
2000
0010
3001
1001
,
0002
0100
1003
1001
,
0201
0010
0301
1010
,
0020
0100
1030
0101
,
1002
0010
0103
0000
,
0200
0010
0301
1100
,
0201
0010
0301
1010
,
2000
0100
3001
0000
,
1010
0001
1100
0001
,
1010
0001
1100
0001
,
1010
0001
1100
0001
,
1100
0001
1010
0001
,
1000
0001
0010
0200
0000
0000
0000
0310
,
0001
0100
0010
0200
0000
0000
0000
0310
,
0001
2000
0000
0000
0000
0000
0000
0000
,
3001
0200
0000
0000
0000
0000
0000
0310
,
1001
0000
0000
0000
0000
0001
1000
0100
,
0010
0100
1000
0001
0000
0100
0000
0010
,
1001
0000
0000
0000
0000
1000
0100
1000
,
0001
0010
0100
0010
0000
0001
0000
0100
,
1001
0000
1000
0000
0000
0010
0000
0000
0100
0000
0000
0001
0000
0000
0010
0000
,
0000
0100
0000
0000
0010
0000
0000
0001
0000
0000
1000
0000
0000
0010
0000
0000
,
1000
0000
0000
0010
0000
0000
0100
0000
0000
0001
0000
0000
1000
0000
0100
0000
,
0010
0001
0010
1000
0010
0000
0000
0000
,
1001
0000
0101
0001
1000
0010
0100
0001
,
1001
0001
0010
0100
0110
0100
1000
0010
,
1010
0000
0101
0100
0001
0010
0100
0010
,
0001
0001
1000
1000
0010
0010
0100
0100
,
0110
0000
1010
0010
1000
0001
0010
0100
,
0110
0010
0001
1000
1001
1000
0010
1000
,
1100
0000
0110
0010
0001
1000
0010
0100
,
0001
1000
0001
1000
0010
0100
0010
0100
,
1001
1000
0100
0010
,
0001
1000
0010
0100
,
0001
1000
0100
0010
,
0001
1000
0010
0100
,
0001
1000
0100
0010
,
0100
1000
0001
0010
,
0100
0010
0001
1000
,
0010
0100
0001
0010
,
0100
0000
0010
0000
0000
0001
0000
0000
,
1000
0000
0000
0010
0000
0000
0100
0000
,
0000
0010
0000
0000
1000
0000
0000
0001
,
0000
0000
0010
0000
0000
0100
0000
0000
,
1000
0001
1000
0001
,
1000
0001
1000
0001
,
1000
0001
1000
0001
1000
0001
1000
0001
,
1000
0001
1000
0001
1000
0001
1000
0001
,
0020
0000
0000
0000
,
0000
0000
0000
0000
,
0000
0000
0000
0000
,
0000
0000
0030
0000
;

//---------------dance-single - ----------------
#NOTEDATA:;
#CHARTNAME:;
#STEPSTYPE:dance-single;
#DESCRIPTION:;
#CHARTSTYLE:;
#DIFFICULTY:Medium;
#METER:8;
#RADARVALUES:0.356927,0.480154,0.214594,0.068977,0.000000,326.000000,298.000000,28.000000,9.000000,0.000000,0.000000,0.000000,0.000000,0.000000,0.356927,0.480154,0.214594,0.068977,0.000000,326.000000,298.000000,28.000000,9.000000,0.000000,0.000000,0.000000,0.000000,0.000000;
#CREDIT:Pandemonium X;
#NOTES:
0000
0000
0000
0000
,
0000
0000
0000
0000
,
0000
0000
0000
0000
,
0000
0000
0000
0000
,
0000
0000
0000
0000
,
0000
0000
0000
0000
,
1100
0100
0010
0010
,
0100
1000
0001
0001
,
0101
0100
0010
0010
,
0100
0001
1000
1000
,
1001
0001
0010
0010
,
0100
1000
0001
0001
,
1010
0010
0100
0010
,
1000
0001
0010
0000
,
1001
1000
0100
0001
,
0100
0010
0001
0001
,
1001
1000
0010
0001
,
0010
1000
1000
0000
,
0001
0010
0000
0000
,
0100
1000
0010
0100
,
1001
1000
0000
0000
,
0100
0000
0010
0000
0000
0000
0000
1000
,
1001
0000
0000
0001
,
0100
0000
0010
0000
1000
0000
0000
0001
,
1001
0000
0000
1000
,
0010
0000
0100
0000
0001
0000
0000
0100
,
1001
0000
0000
0010
,
0100
0000
0001
0000
0010
0000
0000
0100
,
1001
0000
0000
0000
0000
1000
0010
0100
,
0001
0010
0100
1000
0001
0000
0000
0000
,
1000
0000
0001
0100
0001
0000
0100
0000
,
0010
1000
0100
0000
0010
0100
1000
0000
,
0001
0000
1000
0010
1000
0000
0001
0000
,
1000
0010
1000
0010
0100
0001
0100
0010
,
1000
0000
0001
1000
0001
0000
0010
0000
,
0100
1000
0010
0000
0100
0001
0010
0000
,
0001
0000
1000
0001
1000
0000
0001
0000
,
0220
0000
0000
0330
,
0010
0001
0100
0100
,
0010
1000
0100
0100
,
1001
0001
1000
1000
,
0010
0100
0001
0001
,
1010
1000
0010
0000
,
0100
0010
1000
1000
,
1001
0001
0010
0100
,
0010
0001
0100
0000
,
0011
0000
1010
0000
,
0101
0000
0011
0000
,
0110
0000
1100
0000
,
1010
0000
0101
0000
,
0001
0000
1000
0020
0000
0000
0000
0000
,
0130
0000
0001
0020
0000
0000
0000
0000
,
0130
2000
0000
0000
0000
0000
0000
0000
,
3001
2000
0000
0000
0000
0000
0000
3010
,
1001
1000
0100
0010
,
0100
0000
1000
0000
0010
0000
0000
0100
,
1001
0001
0010
0100
,
0010
0000
0001
0000
1000
0000
0000
0010
,
1001
0000
0000
0000
0000
0001
0100
0010
,
1000
0010
1000
0010
0000
1000
0000
0010
,
1001
0000
0000
0000
0000
1000
0100
0010
,
0001
0010
0100
1000
0001
0000
0000
0000
,
1000
0000
0001
0100
0010
0000
0100
0010
,
1000
0001
0010
0100
,
0010
0000
0001
0100
0010
0000
1000
0000
,
0001
0100
0010
1000
0001
0100
0010
1000
,
0001
0000
1000
0100
0010
0000
0100
0000
,
1000
1000
0001
0001
1000
1000
0001
0001
,
1000
0000
0001
0100
0010
0000
1000
0000
,
0020
0000
0000
0030
,
0100
0000
0001
0000
,
0010
0100
1000
0000
,
0100
0000
1000
0000
,
0010
0100
0001
0000
,
1000
0000
0001
0000
,
0010
0100
1000
0000
,
0100
0000
1000
0000
,
0010
0100
0010
0000
,
1000
0010
1000
0000
,
0010
0100
0010
0000
,
0100
0001
0100
0000
,
0001
0010
0001
0000
,
0010
0100
0010
0000
,
0100
1000
0100
0000
,
1000
0100
0010
0001
,
0010
0100
1000
0010
,
2002
0000
0000
0000
,
0000
0000
0000
0000
,
0000
0000
0000
0000
,
0000
0000
3003
0000
;

//---------------dance-single - ----------------
#NOTEDATA:;
#CHARTNAME:;
#STEPSTYPE:dance-single;
#DESCRIPTION:;
#CHARTSTYLE:;
#DIFFICULTY:Easy;
#METER:6;
#RADARVALUES:0.229922,0.480154,0.130289,0.030656,0.000000,210.000000,193.000000,17.000000,4.000000,0.000000,0.000000,0.000000,0.000000,0.000000,0.229922,0.480154,0.130289,0.030656,0.000000,210.000000,193.000000,17.000000,4.000000,0.000000,0.000000,0.000000,0.000000,0.000000;
#CREDIT:Pandemonium X;
#NOTES:
0000
0000
0000
0000
,
0000
0000
0000
0000
,
0000
0000
0000
0000
,
0000
0000
0000
0000
,
0000
0000
0000
0000
,
0000
0000
0000
0000
,
1000
0010
0100
0000
,
0010
1000
0001
0000
,
1001
0001
0010
0000
,
0100
1000
0010
0000
,
1001
1000
0010
0000
,
0100
0001
0010
0000
,
1001
1000
0001
0000
,
0010
0001
0100
0000
,
1001
1000
0100
0010
,
0001
0010
0100
0000
,
1001
1000
0001
0010
,
0001
0100
0010
0000
,
1001
0001
0000
0000
,
1000
0001
0010
0001
,
1001
1000
0000
0000
,
0100
0000
1000
0000
0000
0000
0000
0010
,
1000
0000
0000
0000
,
0001
0000
0000
0000
1000
0000
0000
0010
,
0100
0000
0000
0000
,
0010
0000
0000
0000
1000
0000
0000
0001
,
0010
0000
0000
0000
,
0100
0000
0000
0000
0010
0000
0000
0001
,
1000
0000
0000
0000
,
0110
0000
0000
0000
,
1000
0010
0100
0001
,
0010
0100
0010
0001
,
0100
0010
1000
0001
,
1001
0110
1001
0110
,
1001
0001
1000
0010
,
1000
0100
1000
0001
,
0100
0001
0010
0100
,
2000
0000
0000
0000
,
3001
0000
1000
0000
,
0010
1000
0100
0000
,
1001
0000
0010
0000
,
0100
0001
0010
0000
,
0110
0000
0100
0000
,
0010
0001
1000
0000
,
1001
0000
1000
0000
,
0010
1000
0100
0000
,
1000
0000
1000
0000
,
0001
0000
0001
0000
,
0100
0000
0100
0000
,
0010
0000
0010
0000
,
1000
0001
0000
0000
,
0010
0100
0000
0000
,
0010
0000
0000
0000
,
0001
0000
0000
0000
0000
0000
0000
1000
,
0001
0000
0000
0100
,
0001
0000
0000
0000
0010
0000
0000
0100
,
1000
0000
0000
0100
,
1000
0000
0000
0000
0010
0000
0000
0100
,
0010
0000
0000
0000
,
0100
0000
0000
0000
0001
0000
0000
1000
,
0001
0000
0000
0000
,
0100
0000
0000
0000
,
0010
1000
0010
0100
,
0001
0010
1000
0010
,
0001
1000
0001
1000
,
0001
0100
1000
0100
,
0010
1000
0010
0100
,
0001
0001
0001
0001
,
1000
0001
0010
0100
,
0020
0000
0000
0000
,
0031
0000
0000
0000
,
1000
0000
0000
0000
,
0010
0000
0000
0000
,
1000
0000
0000
0000
,
0100
0000
0000
0000
,
1000
0000
0000
0000
,
0001
0000
0000
0000
,
0100
0000
0000
0000
,
0010
0000
0000
0000
,
1000
0000
0000
0000
,
0010
0000
0000
0000
,
0100
0000
0000
0000
,
0010
0000
0100
0000
,
0010
0000
1000
0000
,
0001
0000
0010
0000
,
0100
0000
1000
0000
,
2002
0000
0000
0000
,
0000
0000
0000
0000
,
0000
0000
0000
0000
,
0000
0000
3003
0000
;

//---------------dance-single - ----------------
#NOTEDATA:;
#CHARTNAME:;
#STEPSTYPE:dance-single;
#DESCRIPTION:;
#CHARTSTYLE:;
#DIFFICULTY:Beginner;
#METER:3;
#RADARVALUES:0.106202,0.263644,0.099633,0.000000,0.000000,97.000000,84.000000,13.000000,0.000000,0.000000,0.000000,0.000000,0.000000,0.000000,0.106202,0.263644,0.099633,0.000000,0.000000,97.000000,84.000000,13.000000,0.000000,0.000000,0.000000,0.000000,0.000000,0.000000;
#CREDIT:Pandemonium X;
#NOTES:
0000
0000
0000
0000
,
0000
0000
0000
0000
,
0000
0000
0000
0000
,
0000
0000
0000
0000
,
0000
0000
0000
0000
,
0000
0000
0000
0000
,
1000
0000
0000
0000
,
0001
0000
0000
0000
,
0100
0000
0000
0000
,
0010
0000
0000
0000
,
1000
0000
0000
0000
,
0100
0000
0000
0000
,
1000
0000
0000
0000
,
0001
0000
0000
0000
,
0100
0000
0000
0000
,
0010
0000
0010
0000
,
0010
0000
0000
0000
,
0100
0000
0100
0000
,
0100
0000
0000
0000
,
0001
0000
0000
0000
,
1000
0000
0000
0000
,
0100
0000
0000
0000
,
1001
0000
0000
0000
,
0000
0000
0000
0000
,
1001
0000
0000
0000
,
0000
0000
0000
0000
,
1001
0000
0000
0000
,
0000
0000
0000
0000
,
1001
0000
0000
0000
,
0000
0000
0000
0000
,
0010
0000
0010
0000
,
1000
0000
0000
0000
,
0001
0000
0001
0000
,
0010
0000
0000
0000
,
0100
0000
0100
0000
,
1000
0000
0000
0000
,
0001
0000
0001
0000
,
1000
0000
0000
0000
,
0010
0000
0000
0000
,
1000
0000
0000
0000
,
0100
0000
0000
0000
,
1000
0000
0000
0000
,
0001
0000
0000
0000
,
0100
0000
0000
0000
,
0010
0000
0000
0000
,
1000
0000
0000
0000
,
1001
0000
0010
0000
,
0010
0000
0000
0000
,
1001
0000
0100
0000
,
0100
0000
0000
0000
,
0110
0000
0000
0000
,
1000
0000
0000
0000
,
0001
0000
0000
0000
,
0010
0000
0000
0000
,
0110
0000
0000
0000
,
0000
0000
0000
0000
,
0110
0000
0000
0000
,
0000
0000
0000
0000
,
0110
0000
0000
0000
,
0000
0000
0000
0000
,
0110
0000
0000
0000
,
0000
0000
0000
0000
,
0100
0000
1000
0000
,
0001
0000
0000
0000
,
1000
0000
0010
0000
,
0100
0000
0000
0000
,
0001
0000
1000
0000
,
0010
0010
0010
0010
,
0100
0000
0010
0000
,
1001
0000
0000
0000
,
1000
0000
0000
0000
,
0000
0000
0000
0000
,
0001
0000
0000
0000
,
0000
0000
0000
0000
,
0100
0000
0000
0000
,
0000
0000
0000
0000
,
0010
0000
0000
0000
,
0000
0000
0000
0000
,
1000
0000
0000
0000
,
1000
0000
0000
0000
,
0100
0000
0000
0000
,
0100
0000
0000
0000
,
0010
0000
0000
0000
,
0010
0000
0000
0000
,
0001
0000
0000
0000
,
0001
0000
0000
0000
,
0110
0000
0000
0000
;

//---------------dance-single - ----------------
#NOTEDATA:;
#CHARTNAME:;
#STEPSTYPE:dance-single;
#DESCRIPTION:;
#CHARTSTYLE:;
#DIFFICULTY:Challenge;
#METER:15;
#RADARVALUES:0.649256,0.994604,0.544149,0.091969,0.505828,593.000000,522.000000,71.000000,12.000000,23.000000,0.000000,4.000000,0.000000,0.000000,0.649256,0.994604,0.544149,0.091969,0.505828,593.000000,522.000000,71.000000,12.000000,23.000000,0.000000,4.000000,0.000000,0.000000;
#CREDIT:Pandemonium X;
#NOTES:
// measure 0
0000
0000
0000
0000
,  // measure 1
0000
0000
0000
0000
,  // measure 2
0000
0000
0000
0000
,  // measure 3
0000
0000
0000
0000
,  // measure 4
0000
0000
0000
0000
,  // measure 5
0000
0000
0000
0000
,  // measure 6
1000
0100
1000
0010
0100
0001
0010
0000
0001
0010
0000
0000
,  // measure 7
0100
0010
0001
1000
0010
0100
0001
0000
0100
0001
0000
0000
,  // measure 8
0010
0100
0010
0001
1000
0010
0100
0000
0010
0100
0000
0000
,  // measure 9
0010
1000
0001
0010
0100
1000
0100
0000
0000
0100
0000
0000
,  // measure 10
1000
0100
1000
0001
0100
0001
0010
0000
0000
0000
0000
0000
,  // measure 11
0001
0010
0001
0100
0010
1000
0010
0000
1000
0010
0000
0000
,  // measure 12
1000
0001
0010
0100
0010
0001
1000
0010
0100
0001
0000
0000
,  // measure 13
1000
0100
1000
0001
0100
0001
0010
0000
0000
0000
0000
0000
,  // measure 14
0100
0010
0001
0100
0010
1000
0001
0010
0100
0010
0001
0100
,  // measure 15
0020
0000
0000
0130
0000
0010
0100
0000
0010
0100
0000
0000
,  // measure 16
0010
1000
0001
0010
0100
0010
0001
0100
0010
1000
0001
0010
,  // measure 17
0100
0000
0100
0010
0001
1000
0010
0000
0000
0010
0000
0000
,  // measure 18
1000
1000
0001
0010
0100
1000
0000
0000
0000
0000
0000
0000
,  // measure 19
1000
0100
0010
0001
0010
0100
0010
0001
0100
0010
1000
0001
,  // measure 20
0010
0010
0001
0100
0001
0010
0000
0000
0000
0000
0000
0000
,  // measure 21
0100
0000
0010
0000
0001
0000
1000
0000
0100
0000
0010
0000
0000
0000
0000
0000
0000
0000
0000
0000
0000
1000
0000
0000
,  // measure 22
M101
0000
0000
0000
0000
0001
0010
1000
,  // measure 23
0010
0001
0100
1000
0000
0100
0000
0010
,  // measure 24
10M1
0000
0000
0000
0000
1000
0100
1000
,  // measure 25
0010
0100
0001
0010
0000
0100
0000
0010
,  // measure 26
10M1
0000
0000
0000
0000
1000
0100
0001
,  // measure 27
0100
0010
0001
0100
0000
0010
0000
0100
,  // measure 28
1M01
0000
0000
0000
0000
0001
0100
1000
,  // measure 29
0010
0001
0100
0001
1000
0000
0000
0000
,  // measure 30
1001
0000
0001
0010
0110
0000
1100
0000
,  // measure 31
1001
0001
0100
0001
1001
1000
0100
1000
,  // measure 32
1001
0000
0001
0100
0110
0000
1010
0000
,  // measure 33
1010
0000
0100
0000
0001
0000
0010
0000
0100
0010
0001
0100
0010
1000
0001
0000
,  // measure 34
0011
0000
0010
0100
1100
0000
0101
0000
,  // measure 35
1001
0001
0100
0001
0011
0010
0100
0010
,  // measure 36
0011
0000
0001
0100
0101
0000
1010
0000
,  // measure 37
4004
0000
0000
3003
,  // measure 38
1000
0010
0100
0001
0010
0100
0020
0000
0030
11M0
0000
0000
,  // measure 39
0100
1000
0010
0100
0001
0010
0200
0000
0300
0M11
0000
0000
,  // measure 40
1001
0001
0100
0001
0010
0100
0020
0000
0030
11M0
0000
0000
,  // measure 41
0100
1000
0010
0100
0001
1000
1001
0000
0000
M11M
0000
0000
,  // measure 42
1001
1000
0001
0010
0001
0100
0010
0000
0000
0000
0000
0000
,  // measure 43
1000
0010
0100
0001
0010
0100
0020
0000
0030
01M1
0000
0000
,  // measure 44
1001
1000
0010
0100
0001
0010
0100
0010
0001
1000
0000
0000
,  // measure 45
0100
1000
0010
0100
0001
0010
0200
0000
0300
0M11
0000
0000
,  // measure 46
1000
1001
0000
0001
0010
0110
0000
0100
,  // measure 47
1000
1010
0000
0010
0100
0101
0000
0001
,  // measure 48
1000
1100
0000
1000
0010
1010
0000
0100
,  // measure 49
0001
0101
0000
0001
0010
0110
0000
0010
,  // measure 50
0001
0100
1000
0200
0000
0000
0300
0010
,  // measure 51
1000
0100
0001
0200
0000
0000
0300
0010
,  // measure 52
0100
2000
0000
0000
0000
0000
0000
3000
,  // measure 53
0002
0020
0000
0000
0000
0000
0033
0001
,  // measure 54
11MM
0000
0000
0000
0000
0010
0001
0100
,  // measure 55
0010
1000
0001
0010
0000
0100
0000
0010
,  // measure 56
1MM1
0000
0000
0000
0000
0001
0010
0001
,  // measure 57
1000
0010
0100
0010
0000
1000
0000
0001
,  // measure 58
11MM
0000
0000
0000
0000
0100
1000
0010
,  // measure 59
0100
0001
0010
0100
0000
0010
0000
0001
,  // measure 60
1M1M
0000
0000
0000
0000
1000
0001
0100
,  // measure 61
1000
0100
0001
0010
1000
0000
0000
0000
,  // measure 62
0011
0000
0001
0010
0011
0010
1100
1000
,  // measure 63
1001
1000
0010
0100
0101
0100
0010
1000
,  // measure 64
1010
0000
0010
0100
0101
0001
0101
0100
,  // measure 65
1001
M001
1001
100M
1001
M001
1001
100M
,  // measure 66
1001
0000
0001
0100
0110
1000
1010
0001
,  // measure 67
1001
1010
1001
0011
1001
1100
1001
0101
,  // measure 68
1001
1000
0001
0100
0110
1000
1010
0010
,  // measure 69
0404
0000
0000
0303
,  // measure 70
1000
1000
0010
0100
,  // measure 71
0001
0010
1000
0010
,  // measure 72
0001
0001
0010
0100
,  // measure 73
1000
0100
0001
0100
,  // measure 74
0010
0000
0010
0000
0001
0000
0000
1000
,  // measure 75
0001
0000
0000
0001
0100
0000
0000
0100
,  // measure 76
0010
1000
0000
0010
1000
0100
0000
0010
,  // measure 77
0001
1000
0000
0001
0100
0010
0000
1000
,  // measure 78
0001
0010
0001
0000
0010
0100
0000
0100
,  // measure 79
1000
0000
1000
0010
0000
0010
0100
0000
,  // measure 80
0100
0010
0000
1000
0001
0000
1000
0100
,  // measure 81
0000
0010
0001
0000
0010
0100
0000
0100
,  // measure 82
1000
0001
1000
0001
1000
0001
1000
0001
,  // measure 83
1000
0001
1000
0001
1000
0001
1000
0001
,  // measure 84
1000
0001
1000
0001
1000
0001
1000
0001
1000
0001
1000
0001
,  // measure 85
1000
0000
0000
0000
0001
0000
0000
0000
1000
0000
0000
0000
0001
0000
0000
0000
1000
0000
0000
0000
0001
0000
0000
0000
1000
0000
0000
0001
0000
0000
1000
0000
0000
0001
0000
0000
1000
0000
0000
0001
0000
0000
1000
0000
0000
0001
0000
0000
,  // measure 86
1000
0000
0000
0000
,  // measure 87
0000
0000
0000
0000
,  // measure 88
0000
0000
0020
0000
,  // measure 89
0000
0000
0030
0000
;
