#VERSION:0.83;
#TITLE:Armageddon;
#SUBTITLE:;
#ARTIST:ZUN remixed by LeaF;
#TITLETRANSLIT:;
#SUBTITLETRANSLIT:;
#ARTISTTRANSLIT:;
#GENRE:KYRIE;
#ORIGIN:;
#CREDIT:;
#BANNER:banner.png;
#BACKGROUND:background.png;
#PREVIEWVID:;
#JACKET:jacket.png;
#CDIMAGE:;
#DISCIMAGE:;
#LYRICSPATH:;
#CDTITLE:cdtitle.png;
#MUSIC:Armageddon.ogg;
#OFFSET:-0.160000;
#SAMPLESTART:109.834297;
#SAMPLELENGTH:14.857140;
#SELECTABLE:YES;
#BPMS:0.000=210.000;
#STOPS:;
#DELAYS:;
#WARPS:;
#TIMESIGNATURES:0.000=4=4;
#TICKCOUNTS:0.000=4;
#COMBOS:0.000=1;
#SPEEDS:0.000=1.000=0.000=0;
#SCROLLS:0.000=1.000;
#FAKES:;
#LABELS:0.000=Song Start;
#BGCHANGES:;
#KEYSOUNDS:;
#ATTACKS:
;

//---------------dance-single - ----------------
#NOTEDATA:;
#CHARTNAME:;
#STEPSTYPE:dance-single;
#DESCRIPTION:;
#CHARTSTYLE:;
#DIFFICULTY:Hard;
#METER:16;
#RADARVALUES:0.707223,1.024254,0.095597,0.525784,0.576997,725.000000,711.000000,14.000000,77.000000,0.000000,0.000000,0.000000,0.000000,0.000000,0.707223,1.024254,0.095597,0.525784,0.576997,725.000000,711.000000,14.000000,77.000000,0.000000,0.000000,0.000000,0.000000,0.000000;
#CREDIT:Pandemonium X;
#NOTES:
0000
0000
0000
0000
,
0000
0000
0000
0000
,
0000
0000
0000
0000
,
0000
0000
0000
0000
,
1020
0000
0100
0000
0030
1000
0000
0000
,
0001
0000
0000
0010
0000
0000
0100
0000
,
2100
0000
0010
0000
3000
0001
0000
0000
,
1000
0000
0000
0010
0000
0000
1000
0000
,
0021
0000
0100
0000
0030
0001
0000
0000
,
1000
0000
0000
0010
0000
0000
1000
0000
,
2100
0000
0010
0000
3000
0100
0000
0000
,
0021
0000
0000
0032
0000
0000
0203
0000
,
0310
0000
0000
0000
1000
0000
0000
0000
0001
0000
0000
0000
0010
0000
0100
1000
,
0010
0100
1000
0100
0010
1000
0001
0010
,
0100
0010
0001
0100
0010
1000
0001
0010
,
0100
1000
0100
1000
0100
1000
0100
1000
0100
0000
0000
0000
0000
0000
0000
0000
,
2000
0000
0000
3000
,
0002
0000
0000
0003
,
0200
0000
0000
0300
,
0010
0100
0010
0100
0010
0100
0010
0100
0010
0100
0010
0100
0010
0100
0010
0100
,
0001
0010
0001
1000
0100
0010
0001
0010
,
0100
0010
0001
0100
0010
1000
0001
0010
,
0100
0010
0001
0100
0010
1000
0100
0010
,
0100
1000
0010
0100
0001
0010
0100
1000
,
0001
1000
0100
1000
0010
0100
0001
0010
,
0001
1000
0100
0010
0100
1000
0001
0100
,
0001
0010
0100
0010
0001
0100
0010
1000
,
0001
0010
0001
0010
0001
0010
0001
0010
0001
0010
0001
0010
0001
0010
0001
0010
,
0001
0100
0010
1000
0001
0010
1000
0010
,
0100
0010
0001
0100
0010
1000
0001
0010
,
0100
0010
0001
0100
1000
0100
0010
1000
,
0001
0000
0010
0000
1000
0000
0010
0000
0100
0000
0010
0000
0001
0000
1000
0001
,
0100
1000
0100
0010
1000
0001
0010
1000
,
0010
0100
0010
0001
0100
1000
0100
0010
,
1000
0010
0100
0001
0100
0010
1000
0100
,
0010
0100
0010
0100
0010
0100
0010
0100
0010
0100
0010
0100
0010
0100
0010
0100
,
0010
0000
0001
0000
0100
0000
0010
0000
1000
0000
0001
0000
,
1000
0100
0010
0001
1000
0100
0010
0001
1000
0100
0010
0001
,
0200
0000
0301
0000
0010
0100
1000
0000
,
0200
0000
0310
0000
0100
1000
0010
0000
,
0200
0000
0301
0000
0010
0100
0010
0000
,
0200
0000
1300
0000
0010
1000
0001
0000
,
0020
0000
0130
0000
0010
0001
0100
0000
,
0010
1000
0010
0100
0010
1000
0010
1000
0010
0100
0001
0010
0002
0000
0000
0000
,
0203
0000
0310
0000
1000
0100
0010
0000
,
0200
0000
0310
0000
0100
0010
0001
0000
,
2000
0000
3010
0000
0100
0001
0010
0100
,
0020
0000
0031
0000
1000
0001
0101
0000
,
0020
0000
2030
0000
3100
1000
0010
0000
,
0200
0000
0301
0010
0100
0010
0001
0000
,
2000
0000
0000
0000
3002
0000
0000
0000
0103
0010
0000
0100
0010
0000
1000
0000
,
0002
0000
2000
0000
,
3003
0000
0000
0000
0000
0000
1000
0000
0010
0000
0100
0000
,
0001
0000
0010
0000
0100
0000
0010
0000
0001
0000
0100
0000
,
0010
0000
1000
0000
0100
0000
0010
0000
0100
0000
1000
0000
,
0001
0000
0010
0000
0100
0000
0010
0000
0001
0000
1000
0000
,
0020
0000
0000
0000
0000
0000
0130
0000
0010
0000
1000
0000
,
0001
0000
0010
0000
0001
0000
1000
0000
0100
0000
0010
0000
,
0100
0000
1000
0000
0010
0000
0100
0000
0001
0000
0010
0000
,
0100
0010
0001
0100
0010
1000
0001
0010
0100
0010
0001
0100
,
0020
0000
0000
1030
0001
0010
0001
1000
,
0001
0000
0100
0000
0010
0000
1000
0000
0001
0000
0010
0000
,
0200
0000
0000
0000
0310
0001
1000
0010
,
0200
0000
0310
1000
0002
0000
1003
0100
,
0020
0000
0000
0000
0000
0000
0130
0010
,
0001
0000
0010
0000
0001
0000
1000
0000
0100
0000
1000
0000
,
0010
0100
1000
0100
0001
0010
0100
1000
,
0001
1000
0010
1000
0001
0010
0001
1000
0100
1000
0001
0100
,
0010
0000
0000
0000
0000
0000
1010
0000
0101
0000
0011
0000
,
0110
0000
0011
0000
1001
0000
0220
0000
0000
0000
0330
0000
,
2000
0000
0000
0000
,
3002
0000
0000
0000
,
0023
0000
0000
0000
,
0032
0000
0203
0000
,
0320
0000
0000
0000
,
2030
0000
0000
0000
,
3002
0000
0010
0000
0003
0100
0000
0000
,
0010
0000
0000
0100
0010
0000
0100
0000
0010
0100
0000
0010
0100
0010
0100
0010
,
0200
0000
0001
0000
0300
0010
0000
0000
,
1000
0000
0001
1000
0000
0001
0000
1000
0001
0000
1000
0000
0001
1000
0001
1000
,
0002
0000
0010
0000
0003
1000
0000
0000
,
0100
0010
0000
0100
0000
0010
0100
0000
0010
0100
0000
0010
0100
0010
0100
0010
,
0200
0000
1000
0000
0300
0010
0000
0000
,
0200
0000
0000
2300
0000
0000
3020
0000
,
2030
3001
0010
0001
,
1000
0100
1000
0001
0100
0001
0010
0100
,
2000
3010
0100
0010
,
1000
0010
1000
0001
0010
0100
1000
0100
,
0020
0000
0000
0000
0130
0000
0000
0000
0010
0000
0000
0000
0001
0000
1000
0001
,
0100
0001
0010
0001
1000
0100
0010
0100
,
1000
0010
0100
0001
0010
0100
1000
0001
,
0100
0010
0100
0010
0100
0010
0100
0010
0100
0000
0000
0000
0000
0000
0000
0000
,
0002
0000
0000
0003
,
2000
0000
0000
3000
,
0020
0000
0000
0030
,
0100
0010
0100
0010
0100
0010
0100
0010
0100
0010
0100
0010
0100
0010
0100
0000
,
0000
0000
0000
0000
0000
0000
0000
0000
0001
0010
0001
0010
0001
0010
0001
0010
,
0200
0000
0000
0000
,
0320
0000
0000
0000
0000
0000
0130
0000
0010
0000
0001
0000
,
2000
0000
0000
0000
3000
0000
0001
1000
0020
0000
0000
0000
0000
0000
0000
0000
,
0230
0000
0000
0000
0301
0100
1000
0100
,
0010
1000
0001
1000
0000
0100
0010
0100
,
2000
0000
3002
0203
,
0310
1000
0010
1000
0010
1000
0010
1000
0010
1000
0010
1000
0010
1000
0010
1000
,
0020
0000
0000
0000
0130
0001
0010
0100
,
0020
0000
0000
0000
0031
0010
0100
0010
,
0002
0000
0000
0000
0000
0000
1003
0000
0001
0000
0010
0000
,
0200
0000
0000
0000
0000
0000
0310
0001
2000
0000
0000
0000
0000
0000
0000
0000
,
3020
0000
0000
0000
0130
0001
0010
0100
,
0010
0010
0001
1000
0000
0001
1000
0100
,
0010
0001
0100
0010
1000
0001
0010
0100
,
1000
0001
1000
0001
1000
0001
1000
0001
1000
0001
1000
0001
1000
0001
1000
0001
,
0200
0000
0000
0000
0310
1000
0100
0010
,
0002
0000
0000
0000
0013
0100
0010
0001
,
2000
0000
0000
0000
0000
0000
3001
0000
0010
0000
0001
0000
,
2000
0000
0000
0000
0000
0000
3010
0100
0002
0000
0000
0000
0000
0000
0000
0000
,
0013
0100
0010
0001
0100
0010
1000
0001
,
1000
0100
1000
0010
0100
0001
0010
0100
,
1000
0001
1000
0001
1000
0001
1000
0001
1000
0001
1000
0001
1000
0001
1000
0001
,
2000
0000
0000
0000
0000
0000
3010
0200
0002
0000
0000
0000
0000
0000
0303
0000
,
1010
0000
0000
0000
;

//---------------dance-single - ----------------
#NOTEDATA:;
#CHARTNAME:;
#STEPSTYPE:dance-single;
#DESCRIPTION:;
#CHARTSTYLE:;
#DIFFICULTY:Easy;
#METER:9;
#RADARVALUES:0.380437,0.573582,0.184366,0.341418,0.013657,390.000000,363.000000,27.000000,50.000000,0.000000,0.000000,0.000000,0.000000,0.000000,0.380437,0.573582,0.184366,0.341418,0.013657,390.000000,363.000000,27.000000,50.000000,0.000000,0.000000,0.000000,0.000000,0.000000;
#CREDIT:Pandemonium X;
#NOTES:
0000
0000
0000
0000
,
0000
0000
0000
0000
,
0000
0000
0000
0000
,
0000
0000
0000
0000
,
1001
0000
0001
0000
0000
1000
0000
0000
,
0010
0000
0000
1000
0000
0000
0100
0000
,
1000
0000
0010
0000
0000
0100
0000
0000
,
0001
0000
0000
0010
0000
0000
0100
0000
,
0010
0000
0001
0000
0000
1000
0000
0000
,
0001
0000
0000
0100
0000
0000
0001
0000
,
0010
0000
0100
0000
0000
0010
0000
0000
,
0002
0000
0000
2003
0000
0000
3002
0000
,
0103
0000
0001
0000
0000
0010
0000
0100
,
0010
0001
1000
0010
,
0100
0010
1000
0001
,
0010
0100
0010
0100
0010
0000
0000
0000
,
0000
0000
0000
0000
,
0000
0000
0000
0000
,
0000
0000
0000
0000
,
1000
0001
1000
0001
1000
0001
1000
0001
,
1000
0001
0100
0100
,
0001
0010
1000
0010
,
0001
0100
0010
0010
,
0100
1000
0100
0001
,
1000
0001
0010
0010
,
0001
0010
1000
0010
,
0100
1000
0100
0010
,
0001
0010
0001
0010
0001
0010
0001
0010
,
0001
1000
0001
0100
,
0001
0010
1000
0010
,
0100
1000
0010
0001
,
0010
1000
0001
0000
,
1000
0001
0010
1000
,
0010
0100
0010
0001
,
0100
1000
0100
0010
,
1000
0001
1000
0001
1000
0001
1000
0001
,
0101
0000
0000
0000
,
2002
0000
0000
3003
,
0002
0000
1003
0000
,
0010
0100
0001
0000
,
0110
0000
0100
0000
,
0010
0001
1000
0000
,
0001
0000
0100
0000
,
0010
1000
0010
0100
0001
0010
0110
0000
,
0200
0000
1300
0100
,
2000
0000
3010
0100
,
0002
0000
1003
0001
,
0020
0000
0032
0000
,
0103
0000
0001
0010
,
0200
0000
0310
0001
,
2000
0000
3001
1000
,
1010
0000
0101
0000
,
1001
0000
1100
0000
,
0101
0000
1100
0000
,
0101
0000
1100
0000
,
0101
0000
1100
0000
,
1001
0000
1010
0000
,
0011
0000
1010
0000
,
0011
0000
1010
0000
,
0021
0000
0000
0000
,
0230
0000
0310
0001
,
0100
0001
1000
0100
,
0020
0000
0130
0010
,
0002
0000
2003
0000
,
3002
0000
0000
0103
,
0001
0010
0100
0010
,
0001
0010
1000
0001
,
1001
0000
0110
0000
,
1010
0000
0000
0000
0000
0000
0001
0000
1000
0000
0001
0000
,
1000
0000
0001
0000
1000
0000
0020
0000
0000
0000
0000
0000
,
0130
0000
0000
0000
,
0001
0000
0000
0000
,
0010
0000
0000
0000
,
0100
0000
1000
0000
,
0001
0000
0000
0000
,
0200
0000
0000
0000
,
0310
0000
1000
0000
0000
0001
0000
0000
,
1000
0000
0000
0001
0000
0000
0010
0000
,
0001
0000
0100
0000
0000
0010
0000
0000
,
1000
0000
0000
0010
0000
0000
0100
0000
,
0001
0000
0010
0000
0000
0100
0000
0000
,
0010
0000
0000
0001
0000
0000
1000
0000
,
0001
0000
0100
0000
0000
0001
0000
0000
,
0020
0000
0000
0230
0000
0000
2300
0000
,
3001
0000
1000
0000
0000
0010
0000
0000
,
1000
0000
0000
0100
0000
0000
1000
0000
,
0001
0000
0100
0000
0000
0001
0000
0000
,
0010
0000
0000
0100
0000
0000
0010
0000
,
0001
0000
0100
0000
0000
0001
0000
1000
,
0100
0010
0100
1000
,
0010
0100
0001
0010
,
0100
1000
0100
1000
0100
0000
0000
0000
,
0000
0000
0000
0000
,
0000
0000
0000
0000
,
0000
0000
0000
0000
,
0010
0100
0010
0100
0010
0100
0010
0100
,
0020
0000
0000
0000
0130
0001
1000
0010
,
0200
0000
0000
0300
,
0002
0000
1003
0001
,
0200
0000
0302
0000
,
0023
0000
0130
0010
,
0001
0010
0100
0010
,
0002
0000
1003
0001
,
0200
0000
0020
0330
,
1002
0000
1003
0100
,
0020
0000
0130
1000
,
0020
0000
0130
0001
,
2000
0000
0200
3300
,
0020
0000
0031
0100
,
0010
1000
0001
0010
,
0200
0000
0310
0001
,
1000
0001
1000
0001
1000
0001
1000
0001
,
2000
0000
0000
0000
3010
0100
0001
1000
,
0020
0000
0000
0000
1030
0010
0100
0001
,
2000
0000
3010
0100
,
0002
0000
0020
0033
,
0200
0000
0000
0000
1300
0100
0010
0001
,
0010
0100
1000
0100
0000
1000
0100
0010
,
0200
0000
0320
0031
,
2000
0000
0002
3003
,
0110
0000
0000
0000
;

//---------------dance-single - ----------------
#NOTEDATA:;
#CHARTNAME:;
#STEPSTYPE:dance-single;
#DESCRIPTION:;
#CHARTSTYLE:;
#DIFFICULTY:Medium;
#METER:13;
#RADARVALUES:0.553097,0.860374,0.184366,0.416530,0.208265,567.000000,540.000000,27.000000,61.000000,0.000000,0.000000,0.000000,0.000000,0.000000,0.553097,0.860374,0.184366,0.416530,0.208265,567.000000,540.000000,27.000000,61.000000,0.000000,0.000000,0.000000,0.000000,0.000000;
#CREDIT:Pandemonium X;
#NOTES:
0000
0000
0000
0000
,
0000
0000
0000
0000
,
0000
0000
0000
0000
,
0000
0000
0000
0000
,
2010
0000
3001
0000
0000
0100
0000
0000
,
0001
0000
0000
0010
0000
0000
0100
0000
,
0020
0000
0031
0000
0000
0100
0000
0000
,
0010
0000
0000
1000
0000
0000
0001
0000
,
2000
0000
3100
0000
0000
0010
0000
0000
,
0100
0000
0000
1000
0000
0000
0010
0000
,
0200
0000
0301
0000
0000
0010
0000
0000
,
0200
0000
0300
0020
0000
0030
0001
1000
,
0001
0000
0010
0000
0100
0000
0010
0001
,
0100
1000
0100
0010
1000
0001
0010
0100
,
1000
0100
0010
0100
,
1000
0010
0100
0001
1001
0000
0000
0000
,
0000
0000
0000
0000
,
0000
0000
0000
0000
,
0000
0000
0000
0000
,
0001
0100
0010
1000
0001
0100
0010
1000
,
0001
0010
0001
0000
0010
0000
0100
0000
,
1000
0100
0010
0000
0100
0000
1000
0000
,
0010
0100
0001
0000
0010
0000
0100
0000
,
0010
0001
0100
0000
0010
1000
0100
0010
,
0001
0010
0100
0000
0010
0000
0001
0000
,
1000
0001
0100
0000
0001
0000
0010
0000
,
0100
0010
0001
0000
0010
0000
0100
0000
,
1000
0010
0100
0001
1000
0010
0100
0001
,
1000
0001
0010
0000
0100
0010
0001
0000
,
0010
0100
1000
0010
0100
0001
0010
0100
,
1000
0010
0100
0000
0010
1000
0001
0000
,
1000
0100
0010
0100
1000
0010
0100
0001
,
0010
0100
1000
0000
0100
1000
0010
0000
,
0100
0010
1000
0001
0010
0001
1000
0100
,
0010
0100
1000
0000
0100
1000
0010
0000
,
0100
0001
0010
0100
0010
0001
1000
0010
,
0100
0000
0100
0000
0010
0000
1000
0000
1000
0000
0001
0000
,
0001
0000
1001
0000
1000
0000
0001
0000
1001
0000
1000
0000
,
0020
0000
1030
0000
0100
0010
0100
1000
,
0002
0000
2003
0000
,
3010
0100
0001
0010
0100
0000
0010
0000
,
0002
2003
3100
0011
,
0100
0000
0010
0001
2000
0000
3010
0000
,
0001
0100
1000
0100
0010
1000
1001
0000
,
0021
0000
0130
0000
0010
0100
1000
0000
,
0200
0000
1300
0000
0010
0100
0001
0000
,
0020
0000
0130
0000
0010
0001
0100
0000
,
0020
0000
0130
0001
1000
0000
1001
0000
,
2000
0000
3010
0100
0001
0010
0100
0000
,
0020
0000
0130
1000
0100
0001
0100
0000
,
0020
0000
0130
0010
0001
1000
0010
0000
,
0200
0000
0302
0000
,
1003
0000
0000
0000
0000
0000
0001
0000
0001
0000
1000
0000
,
0100
0000
0010
0000
0010
0000
0100
0000
0000
0000
0000
0000
,
0010
0000
0001
0000
0100
0000
0010
0000
1000
0000
0001
0000
,
0010
0000
0100
0000
1000
0000
1001
0000
0000
0000
0000
0000
,
2100
0000
0000
0000
0000
0000
3010
0000
0010
0000
0100
0000
,
0001
0000
0001
0000
0010
0000
0100
0000
0100
0000
0010
0000
,
0001
0000
0010
0000
0100
0000
1000
0000
0010
0000
0100
0000
,
0101
1010
0101
1010
,
1001
0000
0000
0000
1000
0100
0001
0100
,
0010
0000
0000
0001
0000
0000
0100
0000
0001
0000
0000
1000
0000
0000
0100
0000
,
0020
0000
0000
0000
0130
1000
0001
1000
,
0020
0000
1030
0001
0020
0000
0130
1000
,
0020
0000
0000
0000
0000
0000
0130
0001
,
0010
0000
0000
0100
0000
0000
0010
0000
0001
0000
0000
1000
0000
0000
0010
0000
,
0100
1000
0100
0010
1000
0001
0010
0100
,
1000
0001
1000
0001
1000
0001
1000
0001
1000
0001
1000
0001
,
1000
0000
0000
0000
0000
0000
1010
0000
0101
0000
0011
0000
,
0110
0000
0011
0000
1010
0000
2002
0000
0000
3003
0000
0000
,
1010
0000
0000
0000
,
1000
0000
0000
0000
,
0100
0000
0000
0000
,
0010
0000
0001
0000
,
1000
0000
0000
0000
,
0002
0000
0000
0000
,
1003
0000
0001
0000
0000
0010
0000
0000
,
0100
0000
0000
0010
0000
0000
0001
0000
0000
0100
0000
0000
0010
0000
1000
0000
,
0001
0000
1000
0000
0000
0100
0000
0000
,
0010
0000
0000
0100
0000
0000
1000
0000
0000
0010
0000
0000
0100
0000
0001
0000
,
1000
0000
0001
0000
0000
0010
0000
0000
,
0001
0000
0000
0010
0000
0000
0001
0000
0000
1000
0000
0000
0100
0000
1000
0000
,
0010
0000
0100
0000
0000
0001
0000
0000
,
0020
0000
0030
0200
0000
0300
0002
0000
,
1003
1100
0100
1000
,
0010
0100
0001
0010
,
0110
0100
0010
0001
,
1000
0010
0100
0001
,
0011
0000
0010
0000
0100
0000
0010
0001
,
0100
1000
0100
0010
1000
0001
0010
0100
,
0010
0001
0100
0010
,
1000
0001
0010
0100
1100
0000
0000
0000
,
0000
0000
0000
0000
,
0000
0000
0000
0000
,
0000
0000
0000
0000
,
0001
0100
0010
1000
0001
0100
0010
1000
,
0002
0000
0000
0000
1003
0100
0010
0001
,
0020
0000
0000
0000
,
0230
0000
0000
0000
0000
0000
1300
0000
0100
0000
1000
0000
,
0020
0000
0000
0000
0000
0000
0130
0001
2000
0000
0000
0000
0000
0000
0000
0000
,
3002
0000
0000
0000
0013
0100
0010
0001
,
1000
0010
0100
0001
0000
1000
0001
0010
,
0200
0000
0320
0230
,
1300
0100
0010
0001
1000
0010
0100
0001
,
2000
0000
0000
0000
3001
0010
0100
0010
,
0002
0000
0000
0000
0013
0100
1000
0100
,
0020
0000
0000
0000
0000
0000
0130
0000
0010
0000
0001
0000
,
2000
0000
0000
0000
0000
0000
3001
0010
0200
0000
0000
0000
0000
0000
0000
0000
,
0320
0000
0000
0000
0130
0010
0001
0100
,
1000
0100
0010
1000
0000
0001
1000
0100
,
0020
0000
0230
2300
,
3002
0000
0000
0000
0000
0000
0103
0010
1000
0000
0010
0000
0100
0000
0001
0000
,
2000
0000
0000
0000
3100
0010
0001
0010
,
0200
0000
0000
0000
0310
0001
0010
0100
,
2000
0000
0000
0000
0000
0000
3001
0000
0100
0000
0001
0000
,
0020
0000
0000
0000
0000
0000
0130
1000
0002
0000
0000
0000
0000
0000
0000
0000
,
0103
0010
1000
0001
0010
0100
0010
0001
,
1000
0010
0100
0001
0010
0100
1000
0100
,
2000
0000
3002
0203
,
0320
0000
0000
0000
0000
0000
1030
0001
0200
0000
0000
0000
0000
0000
0000
0000
,
0310
0000
0000
0000
;

//---------------dance-single - ----------------
#NOTEDATA:;
#CHARTNAME:;
#STEPSTYPE:dance-single;
#DESCRIPTION:;
#CHARTSTYLE:;
#DIFFICULTY:Beginner;
#METER:6;
#RADARVALUES:0.198022,0.368732,0.157052,0.000000,0.000000,203.000000,180.000000,23.000000,0.000000,0.000000,0.000000,0.000000,0.000000,0.000000,0.198022,0.368732,0.157052,0.000000,0.000000,203.000000,180.000000,23.000000,0.000000,0.000000,0.000000,0.000000,0.000000,0.000000;
#CREDIT:Pandemonium X;
#NOTES:
0000
0000
0000
0000
,
0000
0000
0000
0000
,
0000
0000
0000
0000
,
0000
0000
0000
0000
,
1000
0000
0000
0000
,
0001
0000
0000
0000
,
0100
0000
0000
0000
,
0010
0000
0000
0000
,
1000
0000
0000
0000
,
0100
0000
0000
0000
,
1000
0000
0000
0000
,
1001
0000
0000
0000
,
0001
0000
0000
0000
,
0100
0000
0010
0000
,
1000
0000
0001
0000
,
1000
0000
1001
0000
,
0000
0000
0000
0000
,
0000
0000
0000
0000
,
0000
0000
0000
0000
,
0110
0000
0000
0000
,
1000
0000
0000
0000
,
0001
0000
0000
0000
,
0010
0000
0000
0000
,
0001
0000
0000
0000
,
1000
0000
0000
0000
,
0100
0000
0000
0000
,
1000
0000
0000
0000
,
0110
0000
0000
0000
,
0010
0000
0000
0000
,
0100
0000
0000
0000
,
0001
0000
0000
0000
,
0010
0000
0000
0100
,
1000
0000
0000
0000
,
0001
0000
0000
0000
,
0100
0000
0000
0000
,
0010
0000
1000
0000
,
0001
0000
0000
0000
,
1001
0000
0000
0110
0000
0000
0000
0000
,
1000
0000
0001
0000
,
0010
0001
0010
0000
,
0001
0000
1000
0000
,
0100
0000
1000
0000
,
0010
0000
0100
0000
,
0010
0010
0100
0000
,
0010
0000
1000
0000
,
0001
0000
0000
0000
,
0010
0000
0001
0000
,
1000
0000
0100
0000
,
0010
0000
0000
0000
,
0100
0000
0000
0000
,
1000
0000
0000
0000
,
0001
0000
1000
0000
,
0010
0000
1001
0000
,
0000
0000
0000
0000
,
1000
0000
0000
0000
,
0001
0000
0000
0000
,
0010
0000
1001
0000
,
0000
0000
0100
0000
,
0000
0000
0010
0000
,
0000
0000
1000
0000
,
0001
0000
0000
0000
,
1000
0000
0000
0000
,
0010
0000
0000
0000
,
1000
0000
0100
0000
,
1000
0000
0000
0001
,
0001
0000
1000
0000
,
0010
0000
1000
0000
,
1001
0000
0000
0000
,
0110
0000
1001
0000
,
0110
0000
1001
0000
,
0010
0000
0000
0000
,
1000
0000
0000
0000
,
0001
0000
0000
0000
,
1000
0000
0001
0000
,
0010
0000
0000
0000
,
0000
0000
0000
0000
,
0110
0000
0000
0000
,
0100
1000
0010
0100
,
0001
0000
0000
0000
,
1000
0001
0010
0001
,
1000
0000
0000
0000
,
0001
1000
0010
1000
,
0001
0000
0000
0000
,
1000
0000
0000
1000
0000
0000
1000
0000
,
0001
0000
0000
0000
,
1000
0000
0000
0000
,
0010
0000
0000
0000
,
0100
0000
0000
0000
,
0001
0000
0000
0000
,
0010
0000
0001
0000
,
1000
0000
0001
0000
,
0100
0000
0110
0000
,
0000
0000
0000
0000
,
0000
0000
0000
0000
,
0000
0000
0000
0000
,
1001
0000
0000
0000
,
0010
0000
0100
0100
,
0100
0000
0000
0000
,
0001
0000
1000
0001
,
0010
0000
0001
0000
,
1000
0000
0000
0100
,
1000
0000
0000
0010
,
0100
0000
0010
1000
,
0001
0000
1000
0000
,
1001
0000
0000
0000
,
0110
0000
0000
0000
,
1001
0000
0001
0001
,
0001
0000
1000
0000
,
0010
0000
0000
0000
,
1000
0000
0000
0000
,
1000
0000
0001
1000
,
0001
0000
0100
0000
,
1001
0000
0001
0010
,
0100
0000
0010
0001
,
1000
0000
0100
0000
,
1000
0000
1001
0000
,
0010
0000
0100
0010
,
1000
0001
0010
0100
,
0010
0000
0100
0010
,
1001
0000
0110
0000
,
1000
0000
0000
0000
;

//---------------dance-single - ----------------
#NOTEDATA:;
#CHARTNAME:;
#STEPSTYPE:dance-single;
#DESCRIPTION:;
#CHARTSTYLE:;
#DIFFICULTY:Challenge;
#METER:17;
#RADARVALUES:0.819404,1.074101,0.334590,0.573582,0.686250,840.000000,791.000000,49.000000,84.000000,0.000000,0.000000,0.000000,0.000000,0.000000,0.819404,1.074101,0.334590,0.573582,0.686250,840.000000,791.000000,49.000000,84.000000,0.000000,0.000000,0.000000,0.000000,0.000000;
#CREDIT:Pandemonium X;
#NOTES:
// measure 0
0000
0000
0000
0000
,  // measure 1
0000
0000
0000
0000
,  // measure 2
0000
0000
0000
0000
,  // measure 3
0000
0000
0000
0000
,  // measure 4
1020
0000
0130
0000
0000
0011
0000
0000
,  // measure 5
0110
0000
0000
0000
0000
0000
1000
0100
0000
0100
1000
0000
0001
1000
0001
0000
,  // measure 6
1002
0000
0013
0000
0000
0110
0000
0000
,  // measure 7
1100
0000
0200
0000
0000
0000
0320
0000
0000
0000
0031
0010
0100
0010
0100
0010
,  // measure 8
0200
0000
1300
0000
0000
0011
0000
0000
,  // measure 9
0001
0100
0000
0000
1020
0000
0000
0130
0000
0000
0010
1000
0001
0000
1000
0000
,  // measure 10
1002
0000
0013
0000
0000
0110
0000
0100
,  // measure 11
2000
0000
3000
0020
0000
0030
0200
0000
,  // measure 12
0302
0000
0000
0000
0013
0000
0000
0000
0100
0000
0000
0000
0010
0000
0100
1000
,  // measure 13
0001
0100
1000
0100
0010
1000
0001
0010
,  // measure 14
0100
0010
0001
0100
0010
1000
0001
0010
,  // measure 15
0100
1000
0100
1000
0100
1000
0100
1000
1100
0000
0000
0000
0000
0000
0000
0000
,  // measure 16
1000
0100
0010
0001
1000
0010
1000
0001
,  // measure 17
1000
0100
0010
0001
1000
0010
1000
0001
,  // measure 18
1000
0100
0010
0001
1000
0010
1000
0001
,  // measure 19
0010
0100
0010
0100
0010
0100
0010
0100
0010
0100
0010
0100
0010
0100
0010
0100
,  // measure 20
0010
0010
0001
0100
0010
0010
0100
0001
,  // measure 21
1000
1000
0001
0001
0100
0100
0010
0010
,  // measure 22
1000
1000
0100
0010
0001
0001
0010
0100
,  // measure 23
0010
0010
0001
0001
0100
0100
0010
0010
,  // measure 24
0100
0100
0010
1000
0001
0001
0010
0100
,  // measure 25
0010
0010
0100
0100
1000
1000
0001
0001
,  // measure 26
1000
1000
0010
0100
0001
0001
0010
0100
,  // measure 27
1000
0100
1000
0100
1000
0100
1000
0100
1000
0100
1000
0100
1000
0100
1000
0100
,  // measure 28
1000
0100
0001
0100
1000
0100
0001
0100
,  // measure 29
1000
0010
0100
0001
0010
0100
0010
0001
,  // measure 30
1000
0010
0001
0010
1000
0010
0001
0010
,  // measure 31
1000
0000
0010
0000
0100
0000
0001
0000
0010
0000
0100
0000
0010
0000
0001
1000
,  // measure 32
0100
0001
0100
1000
0100
0001
0100
1000
,  // measure 33
0010
0100
0001
0010
0100
0010
0001
1000
,  // measure 34
0001
0010
1000
0010
0001
0010
1000
0010
,  // measure 35
0001
1000
0001
1000
0001
1000
0001
1000
0001
1000
0001
1000
0001
1000
0001
1000
,  // measure 36
0001
0000
0001
0000
0100
0000
0010
0000
0010
0000
1000
0000
,  // measure 37
0001
0100
0010
1000
0100
0010
0001
0010
0100
0010
0001
1000
,  // measure 38
0002
0000
0000
0000
0103
0000
0000
0000
0010
0000
0000
1000
0000
0000
0100
0000
,  // measure 39
0020
0000
0031
1100
,  // measure 40
1020
1000
1000
0000
0100
0000
0130
0000
,  // measure 41
0002
0000
0013
0100
0020
0000
0230
0000
,  // measure 42
1300
0000
0100
0010
0001
0000
1000
0000
,  // measure 43
0001
0100
1000
0100
0010
1000
0001
0010
1000
0010
0001
0000
2002
0000
3003
0000
,  // measure 44
0210
0010
0310
0000
0100
0001
1000
0100
,  // measure 45
0020
0000
0130
0000
0010
0001
1000
0010
,  // measure 46
2000
0000
0000
0000
3100
0000
0000
0000
0010
0000
0000
0100
0000
0000
1000
0000
,  // measure 47
0002
0100
0023
0100
,  // measure 48
0031
0010
0100
0000
2000
0000
3010
0000
,  // measure 49
0100
0001
1000
0000
0020
0000
1030
0000
,  // measure 50
0020
0000
0130
0000
0010
0100
0001
1000
,  // measure 51
0200
0000
2300
0000
,  // measure 52
3010
0000
0000
0000
0000
0000
1000
0000
1000
0000
0001
0000
,  // measure 53
0010
0000
0010
0000
0100
0000
0010
0000
0010
0000
0001
0000
,  // measure 54
0010
0000
0010
0000
0100
0000
1000
0000
1000
0000
0001
0000
,  // measure 55
0100
0000
0100
0000
0010
0000
1000
0100
0010
0001
1000
0100
,  // measure 56
0020
0000
0000
0000
0000
0000
0130
0000
0100
0000
0010
0000
,  // measure 57
0001
0000
0001
0000
1000
0000
0010
0000
0010
0000
0100
0000
,  // measure 58
1000
0000
1000
0000
0100
0000
0010
0000
0010
0000
1000
0000
,  // measure 59
0001
0010
0100
0010
0001
0100
0010
1000
0100
0010
0001
0010
,  // measure 60
0100
0000
0000
0000
0000
0000
0010
0001
0100
0001
1000
0001
0010
0100
0010
0001
,  // measure 61
1000
0000
0000
0000
0000
0000
0000
0000
0000
0100
0000
0000
0000
0000
0000
0000
0010
0000
0000
0000
0000
0000
0000
0000
0100
0000
0000
0000
0000
0000
0000
0000
1000
0000
0000
0000
0000
0000
0000
0000
0001
0000
0000
0000
1000
0000
0000
0000
,  // measure 62
0020
0000
0000
0000
0000
0000
0000
0000
0130
0000
0010
1000
0001
0010
0100
0010
,  // measure 63
0002
0000
0000
1003
0100
0010
0100
1000
0002
0000
0000
0000
1003
0100
0010
0100
,  // measure 64
2000
0000
0000
0000
0000
0000
0000
0000
0000
0000
0000
0000
3001
0000
0100
0010
,  // measure 65
1000
0000
0100
0000
1000
0000
0010
0000
0100
0000
0001
0000
,  // measure 66
1000
0100
0010
0001
0010
0100
0010
0001
1000
0010
0100
0001
,  // measure 67
1000
1000
0001
0010
0100
0100
0010
0001
1000
1000
0010
0100
,  // measure 68
0201
0000
0000
0000
0000
0300
0110
0000
1010
0000
0101
0000
,  // measure 69
0011
0000
0110
0000
1100
0000
2001
0000
0000
0000
0000
0000
,  // measure 70
3020
0000
0000
0000
,  // measure 71
0230
0000
0000
0000
,  // measure 72
0302
0000
0000
0000
,  // measure 73
2003
0000
3002
0000
,  // measure 74
0023
0000
0000
0000
,  // measure 75
0200
0000
0000
0330
,  // measure 76
1001
0000
1020
0000
0000
0100
0000
0000
,  // measure 77
1030
0000
0000
0100
0010
0000
0001
0000
0000
0010
0100
0000
0010
0001
1000
0000
,  // measure 78
0201
0000
0310
0000
0000
1000
0001
0010
,  // measure 79
0100
0010
0000
0001
0000
0100
0010
0000
0100
0000
0010
0000
1000
0001
1000
0000
,  // measure 80
1200
0000
0000
0000
0310
0000
0000
0000
0000
0000
0001
0000
1000
0000
0001
0100
,  // measure 81
0010
0000
0100
0010
0000
1000
0001
0000
0010
0100
0000
0100
0010
0001
1000
0000
,  // measure 82
0102
0000
0013
0000
0000
0100
0000
0000
,  // measure 83
0021
0000
0030
0200
0000
0300
2000
0000
,  // measure 84
3001
0100
0001
0010
,  // measure 85
0001
1000
0100
0010
,  // measure 86
0100
1000
0010
0100
,  // measure 87
0001
0010
0001
1000
,  // measure 88
0100
0000
0000
0000
0010
0000
0000
0000
0100
0000
0000
0000
1000
0000
0100
0010
,  // measure 89
0001
0001
1000
0010
0100
0100
0001
0010
,  // measure 90
0100
0010
0100
1000
0100
0010
0001
0100
,  // measure 91
0001
1000
0001
1000
0001
1000
0001
1000
1001
0000
0000
0000
0000
0000
0000
0000
,  // measure 92
1000
0100
0010
0001
1000
0010
1000
0001
,  // measure 93
1000
0100
0010
0001
1000
0010
1000
0001
,  // measure 94
1000
0100
0010
0001
1000
0010
1000
0001
,  // measure 95
0010
0100
0010
0100
0010
0100
0010
0100
0010
0100
0010
0100
0010
0100
0010
0100
,  // measure 96
0020
0000
0000
0000
0000
0000
0000
0000
0130
0010
0001
1000
0100
0010
0001
1000
,  // measure 97
0200
0000
0310
0000
0100
0010
0001
1000
,  // measure 98
0020
0000
0000
0000
1000
0000
0000
0000
0130
0000
0000
0101
0000
0000
0011
0000
,  // measure 99
0210
0000
0000
0000
0300
0000
0010
2000
0002
0000
0000
0000
0000
0000
3003
0000
,  // measure 100
0210
0000
0000
0000
0310
1000
0100
0010
,  // measure 101
0100
0100
0010
0001
0000
1000
0001
0010
,  // measure 102
0220
0330
1100
0011
,  // measure 103
1002
0000
0000
0000
0000
0000
0103
0010
1000
0100
0010
0001
1000
0100
0010
0001
,  // measure 104
2000
0000
0010
0000
3001
0010
0100
0010
,  // measure 105
0002
0000
0100
0000
1003
0100
0010
0001
,  // measure 106
0020
0000
0000
0000
0001
0000
0000
0000
0130
0000
0000
1100
0000
0000
1010
0000
,  // measure 107
1002
0000
0000
0000
0000
0000
1003
0002
0020
0000
0000
0000
0000
0000
0033
0000
,  // measure 108
2200
0000
0300
0000
3010
0100
0001
1000
,  // measure 109
0100
0100
1000
0002
0000
1003
0001
0010
,  // measure 110
0200
0000
0320
0032
,  // measure 111
1003
0001
1000
0001
1000
0001
1000
0001
1000
0001
1000
0001
1000
0001
1000
0001
,  // measure 112
0020
0000
0000
0000
0000
0000
0000
0000
0130
0010
0001
0100
0010
1000
0001
0010
,  // measure 113
0200
0000
0000
0000
0000
0000
0000
0000
0310
0001
0010
0100
0010
0001
1000
0010
,  // measure 114
0200
0000
0000
0000
0000
0000
0300
0000
1010
0000
0000
0101
0000
0000
1001
0000
,  // measure 115
1200
0000
0000
0000
0000
0000
0310
2000
0002
0000
0000
0000
0000
0000
3000
0000
,  // measure 116
1003
1000
0001
0010
0100
0100
0010
0001
,  // measure 117
1000
1000
0010
0100
0001
0001
0010
0100
,  // measure 118
0010
0001
0010
0001
1000
0100
1000
0100
1000
0010
1000
0010
0100
0001
0100
0001
,  // measure 119
2002
0000
0000
3003
0000
0000
0100
0010
0220
0000
0000
0000
0000
0000
0330
0000
,  // measure 120
2002
0000
0000
0000
,  // measure 121
3003
0000
0000
0000
;
