#VERSION:0.83;
#TITLE:四月の雨;
#SUBTITLE:;
#ARTIST:cubesato;
#TITLETRANSLIT:April Rain;
#SUBTITLETRANSLIT:;
#ARTISTTRANSLIT:;
#GENRE:;
#ORIGIN:;
#CREDIT:;
#BANNER:banner.png;
#BACKGROUND:background.png;
#PREVIEWVID:;
#JACKET:jacket.png;
#CDIMAGE:;
#DISCIMAGE:;
#LYRICSPATH:;
#CDTITLE:cdtitle.png;
#MUSIC:April Rain.ogg;
#OFFSET:-1.000000;
#SAMPLESTART:55.683540;
#SAMPLELENGTH:12.151901;
#SELECTABLE:YES;
#BPMS:0.000=158.000;
#STOPS:;
#DELAYS:;
#WARPS:;
#TIMESIGNATURES:0.000=4=4;
#TICKCOUNTS:0.000=4;
#COMBOS:0.000=1;
#SPEEDS:0.000=1.000=0.000=0;
#SCROLLS:0.000=1.000;
#FAKES:;
#LABELS:0.000=Song Start;
#BGCHANGES:;
#KEYSOUNDS:;
#ATTACKS:
;

//---------------dance-single - ----------------
#NOTEDATA:;
#CHARTNAME:;
#STEPSTYPE:dance-single;
#DESCRIPTION:;
#CHARTSTYLE:;
#DIFFICULTY:Hard;
#METER:12;
#RADARVALUES:0.436053,0.557683,0.226391,0.148325,0.039033,391.000000,362.000000,29.000000,19.000000,0.000000,0.000000,0.000000,0.000000,0.000000,0.436053,0.557683,0.226391,0.148325,0.039033,391.000000,362.000000,29.000000,19.000000,0.000000,0.000000,0.000000,0.000000,0.000000;
#CREDIT:Pandemonium X;
#NOTES:
0000
0000
0000
0000
,
0000
0000
0000
0000
,
0000
0000
0000
0000
,
0000
0000
0000
0000
,
1000
1000
0001
0100
,
0001
0000
0010
0000
,
1000
0000
0010
0000
,
0001
0000
1000
0000
,
0100
1000
0010
0001
,
0010
0000
0100
0000
0001
0100
0010
0100
,
0001
1000
0100
0001
,
0100
0000
0010
0001
0100
0000
0010
1000
,
0100
0000
0010
0100
1000
0001
0100
0001
,
0010
0000
0100
1000
0010
0000
0100
0001
,
1000
0000
0100
1000
0010
0100
0001
0010
,
0100
0000
0010
0001
0100
0000
0010
1000
,
0100
0000
0000
0100
0000
0000
0100
0000
1000
0000
0000
1000
0000
0000
1000
0000
,
0001
0000
0000
0001
0000
0000
0001
0000
1000
0000
0001
0000
0100
0000
0000
0000
,
0001
0000
0000
0001
0000
0000
0001
0000
0100
0000
0000
0100
0000
0000
0100
0000
,
0010
0000
0000
0010
0000
0000
0010
0000
0100
0000
0000
0000
0000
0000
0000
0000
,
1001
0000
1000
0000
0010
1000
0100
0000
,
0010
0000
0001
0000
0010
0001
0100
0000
,
0001
0000
1000
0000
0010
0100
0010
0000
,
1000
0000
0000
0001
0000
0000
0100
0000
0000
0001
0000
0000
0020
0000
0000
0000
,
0031
0000
0010
0000
0001
0100
0010
0000
,
1000
0000
0001
0000
0010
0001
0100
0000
,
1000
0000
0100
0000
0001
0100
0010
0000
,
2000
0000
0000
0000
3002
0000
0000
0000
0103
0010
0100
0010
0100
0000
0000
0000
,
0001
0100
0010
0000
0100
0010
0100
0000
,
0010
1000
0100
0000
0010
0100
0010
0000
,
0100
0010
0001
0000
1000
0001
1000
0000
,
0001
0100
0010
0000
1000
0010
1000
0010
,
0100
0001
0100
0000
0001
0010
0100
0010
,
0001
1000
0001
0000
1000
0100
0010
0001
,
0010
0001
0100
0000
0010
1000
0010
0100
,
0001
0010
0100
0000
0010
0001
0100
0001
,
1000
0100
1000
1010
,
0011
0001
1000
0101
,
1100
0100
1000
1010
,
0101
0001
0010
0000
0100
0010
0001
0000
,
1000
0001
0100
0110
,
1001
1000
0100
0011
,
1100
1000
0010
0110
,
1001
2000
3010
0101
,
0011
0000
0010
0000
0100
1000
1001
0000
,
0110
0000
0100
0000
0010
1000
1010
0000
,
0011
0000
0010
0000
0001
0100
0101
0000
,
1100
0100
0010
0002
,
0103
0010
1000
0000
0010
1000
1100
0000
,
1001
0001
0100
0000
0001
0010
0110
0000
,
1100
0100
0010
0000
0100
0010
0011
0000
,
0101
0100
1000
0000
0100
0010
1000
0000
,
0002
0000
0000
0000
,
2003
0000
0000
0000
,
3020
0000
0000
0000
,
2030
0000
0000
0000
,
3200
0000
0000
0000
,
2300
0000
0000
0000
,
3002
0000
0203
0000
,
0320
0000
0230
0302
,
0013
0010
0000
0000
0010
0100
0010
0001
,
1000
1000
0000
0000
0001
1000
0010
1000
,
0100
0100
0000
0000
0100
0010
0001
1000
,
0010
0010
0000
0000
0100
0010
1000
0001
,
0020
0031
2000
3100
,
0002
0000
1003
0000
0010
0100
0001
0010
,
0100
0100
0000
0000
0010
0100
1000
0100
,
0010
0010
0000
0001
1000
1000
0000
0000
,
0001
0100
0010
1000
0100
0010
0100
1000
,
0001
0100
0001
0010
,
0100
0010
0100
1000
0010
0100
0001
0010
,
0100
0010
0001
1000
,
0001
0100
1000
0100
0010
1000
0001
0010
,
0100
0010
0001
1000
,
0100
1000
0100
0001
0100
0010
0001
0010
,
0110
0010
0101
1000
,
0010
0000
0000
0100
,
0000
0000
0000
0100
0010
1000
0001
0000
,
0000
0000
0000
0001
,
0000
0000
0000
0100
0000
0000
0000
0000
;

//---------------dance-single - ----------------
#NOTEDATA:;
#CHARTNAME:;
#STEPSTYPE:dance-single;
#DESCRIPTION:;
#CHARTSTYLE:;
#DIFFICULTY:Medium;
#METER:8;
#RADARVALUES:0.362449,0.433753,0.351296,0.163938,0.000000,325.000000,280.000000,45.000000,21.000000,0.000000,0.000000,0.000000,0.000000,0.000000,0.362449,0.433753,0.351296,0.163938,0.000000,325.000000,280.000000,45.000000,21.000000,0.000000,0.000000,0.000000,0.000000,0.000000;
#CREDIT:Pandemonium X;
#NOTES:
// measure 0
0000
0000
0000
0000
,  // measure 1
0000
0000
0000
0000
,  // measure 2
0000
0000
0000
0000
,  // measure 3
0000
0000
0000
0000
,  // measure 4
2000
3010
0200
0302
,  // measure 5
0013
0000
0100
0000
,  // measure 6
1100
0000
0100
1000
,  // measure 7
1001
0000
0110
0000
,  // measure 8
1001
0000
1000
0001
0100
0000
0001
0000
,  // measure 9
0010
0000
0100
0000
0010
0001
0100
0001
,  // measure 10
1000
0000
0100
0000
1000
0010
0100
0000
,  // measure 11
1010
1000
0101
0000
,  // measure 12
1001
0100
0010
0100
,  // measure 13
1100
0100
0110
0010
,  // measure 14
0011
0000
0100
1000
,  // measure 15
1001
0000
0110
0000
,  // measure 16
2000
0000
3010
0000
,  // measure 17
0200
0000
0301
0010
,  // measure 18
0200
0000
0310
0000
,  // measure 19
0002
0000
1003
0000
,  // measure 20
0001
0100
0010
1000
,  // measure 21
0010
0100
0001
0010
,  // measure 22
1000
0010
0100
1000
,  // measure 23
0100
0010
0001
0200
,  // measure 24
1300
0100
0010
1000
,  // measure 25
0001
0010
1000
0010
,  // measure 26
0100
0010
0001
0100
,  // measure 27
2000
3100
0020
1030
,  // measure 28
1001
0000
1000
0000
0001
0100
0001
0000
,  // measure 29
0100
0000
0010
0000
1000
0010
1000
0000
,  // measure 30
0001
0000
1000
0000
0100
1000
0100
0000
,  // measure 31
1000
0000
0100
0000
0010
0001
0010
0000
,  // measure 32
0001
1000
0001
0000
0100
0000
0010
0000
,  // measure 33
1000
0010
1000
0000
0010
0000
0100
0000
,  // measure 34
0001
0100
0001
0000
0010
0000
0100
0000
,  // measure 35
0010
0001
0010
0000
0001
0000
1000
0000
,  // measure 36
1001
1000
0010
0110
,  // measure 37
1010
0010
1000
1010
,  // measure 38
0110
0001
1000
1001
,  // measure 39
1010
1000
0100
0110
,  // measure 40
1100
0100
0010
0011
,  // measure 41
1001
0001
0100
0110
,  // measure 42
1010
1000
0010
0101
,  // measure 43
0011
0000
0010
0000
0100
0000
0010
0001
,  // measure 44
1000
0001
0100
0110
,  // measure 45
1001
0001
0010
0110
,  // measure 46
1100
0100
1000
1010
,  // measure 47
0110
0001
1000
0110
,  // measure 48
0011
0100
1000
1010
,  // measure 49
0101
0001
0010
0110
,  // measure 50
0011
0001
1000
1010
,  // measure 51
0101
0001
0010
0100
,  // measure 52
2000
0000
0000
3000
,  // measure 53
0002
0000
0000
0003
,  // measure 54
0200
0000
0000
0300
,  // measure 55
0020
0000
0000
0030
,  // measure 56
2000
0000
0000
3000
,  // measure 57
0002
0000
0000
0003
,  // measure 58
0020
0030
0002
0003
,  // measure 59
0200
0300
0020
2030
,  // measure 60
3100
0010
0000
0000
0100
0000
1000
0000
,  // measure 61
0001
0100
0000
0000
0010
0000
1000
0000
,  // measure 62
0100
0010
0000
0000
0100
0000
1000
0000
,  // measure 63
0001
0100
0000
0000
0001
0010
0000
0000
,  // measure 64
0100
0010
0000
0000
0100
0000
1000
0000
,  // measure 65
0010
0100
0000
0000
0010
0000
1000
0000
,  // measure 66
0001
0010
0000
0000
0100
0000
0010
0000
,  // measure 67
0001
0100
0000
0000
0010
1000
0000
0000
,  // measure 68
0001
0000
1000
0100
0010
0000
0100
0000
,  // measure 69
1000
0010
0100
0001
,  // measure 70
0010
0000
0100
0010
0001
0000
0010
0000
,  // measure 71
0100
0000
0010
0001
0100
0000
0010
1000
,  // measure 72
0100
1000
0001
0100
,  // measure 73
0010
0000
1000
0010
0100
0000
0010
1000
,  // measure 74
0001
0000
0010
0000
0100
0000
0010
0001
,  // measure 75
0101
0010
1010
1000
,  // measure 76
1001
0000
0000
0010
,  // measure 77
0000
0000
0000
0001
0100
0010
1000
0000
,  // measure 78
0000
0000
0000
0010
0000
0000
1000
0000
,  // measure 79
0000
0000
0000
0100
0000
0000
0000
0000
;

//---------------dance-single - ----------------
#NOTEDATA:;
#CHARTNAME:;
#STEPSTYPE:dance-single;
#DESCRIPTION:;
#CHARTSTYLE:;
#DIFFICULTY:Easy;
#METER:5;
#RADARVALUES:0.181782,0.309824,0.195165,0.078066,0.000000,163.000000,138.000000,25.000000,10.000000,0.000000,0.000000,0.000000,0.000000,0.000000,0.181782,0.309824,0.195165,0.078066,0.000000,163.000000,138.000000,25.000000,10.000000,0.000000,0.000000,0.000000,0.000000,0.000000;
#CREDIT:Pandemonium X;
#NOTES:
0000
0000
0000
0000
,
0000
0000
0000
0000
,
0000
0000
0000
0000
,
0000
0000
0000
0000
,
0000
0000
0000
0000
,
0000
0000
0000
0000
,
0000
0000
0000
0000
,
0000
0000
0000
0000
,
1000
0000
0000
0000
,
0001
0000
0100
0010
,
0100
0000
0010
0000
,
1000
0000
0100
0000
,
0010
0000
0100
1000
,
0001
0000
1000
0000
,
0010
0000
1000
0100
,
0010
0000
0100
0000
,
2000
0000
0000
0000
,
0000
0000
0000
3000
,
0002
0000
0000
0000
,
0000
0000
0003
0000
,
1001
0000
0010
0000
,
1000
0000
0100
0000
,
1000
0000
0010
0000
,
0100
0001
0010
0001
,
1000
0000
0001
0000
,
0100
0000
0001
0000
,
0010
0000
0100
0000
,
0010
0100
1000
0100
,
0010
0000
0100
0000
,
1000
0000
0010
0000
,
0100
0000
0001
0000
,
1000
0001
0100
0001
,
0010
0000
0001
0000
,
1000
0000
0100
0000
,
0010
0000
0100
0000
,
1000
0001
0100
0001
,
1001
0000
0000
0100
,
0010
0000
0000
1000
,
0100
0000
0000
0010
,
0100
0000
0000
1000
,
0001
0000
0000
0100
,
0010
0000
0000
1000
,
0001
0000
0000
0010
,
0100
0000
0000
0010
,
0001
0000
0000
1000
,
0100
0000
0000
0010
,
0100
0000
0000
0010
,
0001
0000
0000
1000
,
0010
0000
0000
0100
,
0001
0000
0000
0010
,
0100
0000
0000
0010
,
0001
0000
1000
0000
,
0020
0000
0000
0000
,
0000
0000
0000
0030
,
0200
0000
0000
0000
,
0000
0000
0000
0300
,
0002
0000
0000
0003
,
2000
0000
0000
3000
,
0020
0000
0030
0000
,
0200
0000
0310
0010
,
1001
0000
1000
0000
,
1001
0000
0001
0000
,
0110
0000
0100
0000
,
0110
0000
0110
0000
,
1001
0000
0001
0000
,
1001
0000
1000
0000
,
0110
0000
0010
0000
,
1001
0000
0110
0000
,
1001
0000
1000
0000
,
0110
0000
1000
0010
,
0110
0000
1001
0000
,
0110
0000
0110
0000
,
1001
0000
0001
0010
,
0110
0000
1001
0000
,
0110
0000
0010
0100
,
0110
0000
1001
0000
,
0220
0000
0000
0300
,
0000
0000
0000
0030
,
0000
0000
0000
0100
0000
0000
0000
0000
,
0000
0000
0000
0100
0000
0000
0000
0000
;

//---------------dance-single - ----------------
#NOTEDATA:;
#CHARTNAME:;
#STEPSTYPE:dance-single;
#DESCRIPTION:;
#CHARTSTYLE:;
#DIFFICULTY:Beginner;
#METER:3;
#RADARVALUES:0.108177,0.186187,0.015613,0.007807,0.000000,97.000000,95.000000,2.000000,1.000000,0.000000,0.000000,0.000000,0.000000,0.000000,0.108177,0.186187,0.015613,0.007807,0.000000,97.000000,95.000000,2.000000,1.000000,0.000000,0.000000,0.000000,0.000000,0.000000;
#CREDIT:Pandemonium X;
#NOTES:
0000
0000
0000
0000
,
0000
0000
0000
0000
,
0000
0000
0000
0000
,
0000
0000
0000
0000
,
0000
0000
0000
0000
,
0000
0000
0000
0000
,
0000
0000
0000
0000
,
0000
0000
0000
0000
,
1000
0000
0000
0000
,
0001
0000
0000
0000
,
0100
0000
0010
0000
,
0100
0000
0010
0000
,
1000
0000
0000
0000
,
0001
0000
1000
0000
,
0001
0000
0000
0000
,
0100
0000
0010
0000
,
0100
0000
0000
0000
,
0000
0000
0000
0000
,
0000
0000
0000
0000
,
0000
0000
0010
0000
,
1001
0000
0000
0000
,
1000
0000
0000
0000
,
0001
0000
0000
0000
,
0100
0000
0000
0000
,
0010
0000
0000
0000
,
1000
0000
0000
0000
,
0100
0000
0000
0000
,
1000
0000
0001
0000
,
1000
0000
0000
0000
,
0010
0000
0000
0000
,
0100
0000
0000
0000
,
0001
0000
0000
0000
,
0010
0000
0000
0000
,
0100
0000
0000
0000
,
1000
0000
0000
0000
,
0001
0000
1000
0000
,
0010
0000
0000
0100
,
0100
0000
0000
0001
,
0001
0000
0000
1000
,
1000
0000
0000
0010
,
0010
0000
0000
1000
,
1000
0000
0000
0001
,
0001
0000
0000
0100
,
0100
0000
0000
0010
,
0010
0000
0000
1000
,
0001
0000
0000
1000
,
0100
0000
0000
1000
,
0010
0000
0000
0100
,
0010
0000
0000
0100
,
0001
0000
0000
0100
,
0010
0000
0000
0100
,
1000
0000
0100
0000
,
0001
0000
0000
0000
,
0000
0000
0000
0000
,
1000
0000
0000
0000
,
0000
0000
0000
0000
,
0010
0000
0000
0000
,
0100
0000
0000
0000
,
0001
0000
0000
0000
,
1000
0000
0010
0100
,
1001
0000
0000
0000
,
0010
0000
0000
0000
,
1000
0000
0000
0000
,
0001
0000
1000
0000
,
0100
0000
0000
0000
,
1000
0000
0000
0000
,
0010
0000
0000
0000
,
0100
0000
0001
0000
,
0010
0000
0000
0000
,
0001
0000
0000
0000
,
1000
0000
0001
0000
,
1000
0000
0010
0000
,
1000
0000
0000
0000
,
0100
0000
1000
0000
,
0010
0000
0000
0000
,
0100
0000
0001
0000
,
0020
0000
0000
0000
,
0000
0000
0000
0000
,
0000
0000
0000
0000
,
0000
0000
0030
0000
;
