#TITLE:After the Storm;
#SUBTITLE:;
#ARTIST:Sieudiver;
#TITLETRANSLIT:;
#SUBTITLETRANSLIT:;
#ARTISTTRANSLIT:;
#GENRE:TOUHOU DRUM AND BASS;
#CREDIT:;
#BANNER:After The Storm-banner.png;
#BACKGROUND:After The Storm-background.png;
#LYRICSPATH:;
#CDTITLE:cdtitle.png;
#MUSIC:After the Storm.ogg;
#OFFSET:-0.100000;
#SAMPLESTART:65.928566;
#SAMPLELENGTH:10.971428;
#SELECTABLE:YES;
#BPMS:0.000000=87.500000
,64.000000=175.000000
,232.000000=87.500000
,234.000000=175.000000
,262.000000=87.500000
;
#STOPS:
;
#BGCHANGES:0.000=After the Storm BGA.mp4=1.000=1=0=1===CrossFade==,
99999=-nosongbg-=1.000=0=0=0 // don't automatically add -songbackground-
;
#KEYSOUNDS:;
#ATTACKS:;

//---------------dance-single - ----------------
#NOTES:
     dance-single:
     :
     Hard:
     12:
     0.406709,0.630374,0.021460,0.171676,0.250361,398.000000,395.000000,3.000000,24.000000,0.000000,0.000000,0.406709,0.630374,0.021460,0.171676,0.250361,398.000000,395.000000,3.000000,24.000000,0.000000,0.000000:
0000
0000
0000
0000
,
0000
0000
0000
0000
,
0000
0000
0000
0000
,
0000
0000
0000
0000
,
1001
0000
1000
0100
0000
1000
0001
0000
1000
0010
0000
1000
,
0100
0000
1000
0001
0000
1000
0010
0000
1000
0001
0000
0001
,
0010
0000
0001
1000
0000
0001
0100
0000
0001
1000
0000
1000
,
0001
0000
0001
0010
0000
0001
0100
0000
0001
0010
0000
0001
,
1000
0000
0100
0010
0000
0010
0001
0000
0001
0100
0000
0100
,
0010
0000
0010
1000
0000
1000
0001
0000
0001
0010
0000
0010
,
0001
0000
1000
0100
0000
0010
0001
0000
0010
0100
0000
1000
,
0010
0000
0100
0001
0000
1000
0001
0000
0010
0100
0000
0010
,
0002
0000
0000
0203
,
0320
0000
0000
0000
,
0130
0010
1000
0001
0010
0100
0010
0001
,
1000
0000
0100
0000
0010
0000
0001
0000
0010
0000
0100
0000
1000
0000
0001
0000
0100
0000
0000
0000
0100
0000
0000
0000
0100
0000
0000
0000
0001
1000
0001
1000
,
0001
0000
1000
0100
0000
1000
0010
0000
,
0100
0010
1000
0001
0000
0100
0010
1000
,
0001
0000
0000
0001
0000
0000
0001
0000
,
0000
2000
3200
0320
,
0130
0000
1000
0010
0000
0100
0001
0000
,
0010
0000
0100
0010
0000
0001
1000
0010
,
1000
0001
0010
0100
,
0010
0002
0023
0230
,
0310
0000
0001
0010
0000
0100
1000
0000
,
0001
0100
1000
0100
0001
1000
0010
0001
,
0010
1000
0010
0001
1000
0100
0001
0100
,
0010
0200
0320
2030
,
3001
0000
0000
1000
0000
0000
0010
0000
1000
0000
0000
0100
0000
0000
0010
0000
,
0100
0000
0000
1000
0000
0000
0001
0000
0010
0000
0000
0100
0000
0000
0010
0000
,
0002
0000
0000
0000
,
2000
0000
0000
3003
,
0110
0010
1000
0001
0010
0100
0010
0001
,
1000
0100
0010
0100
1000
0001
0100
0010
,
1000
0000
0000
0001
0010
0000
0100
0000
0000
1000
0100
0000
0010
0000
0001
0000
,
0010
0002
0203
2300
,
3100
0010
1000
0001
0010
1000
0010
0001
,
1000
0001
0100
1000
0100
0010
1000
0001
,
0010
0000
0000
0100
0010
0000
0001
0000
0000
0010
0100
0000
1000
0000
0001
0000
,
0100
0001
0020
0000
0032
0000
2003
0000
,
3010
0000
1000
0001
0000
0010
0100
1000
,
0100
0000
0010
0001
0000
0010
0001
1000
,
0010
0000
0100
0010
0000
0010
0100
0000
,
1000
0002
2003
3020
,
0130
0000
0000
0001
0000
0000
0010
0000
0100
0000
0000
0010
0000
0000
0001
0000
,
2000
0000
0000
3010
0000
0000
1000
0000
0100
0000
0000
0010
0000
0000
0100
0000
,
1000
0000
0100
0000
0010
0000
0100
1000
,
0010
0010
0010
0010
0000
0000
0000
0000
,
1001
0000
0000
0000
,
0000
0000
0000
0000
,
1000
0010
0100
1000
0000
0000
0000
0000
,
0100
0010
1000
0001
0000
0000
1000
0000
,
0100
0001
0100
0010
0000
0000
0000
0000
,
0100
0010
0001
1000
,
0010
0100
1000
0100
0000
0000
0000
0000
,
0010
1000
0001
1000
0000
0000
0100
0000
,
0010
0100
1000
0001
0000
0000
0000
0000
,
1000
0010
1000
0001
1000
0100
1000
0001
,
0100
0000
0000
0010
0000
0000
1000
0000
0001
0000
0010
0000
0001
0000
1000
0000
,
0000
0000
0010
0000
0100
0010
1000
0100
,
0000
0000
0010
0000
0100
1000
0001
0100
,
0001
1000
0001
0010
0100
0010
0001
1000
,
0000
0000
0000
0000
0001
0100
0001
0010
,
0000
0000
0100
0000
0010
0001
1000
0100
,
0010
0000
0100
0000
0010
0001
1000
0010
,
0100
0000
0001
0000
0010
0000
0100
0000
1000
0000
0000
1000
0000
0000
0000
0000
,
0001
0000
0000
0001
0000
0000
0000
0000
0100
0000
0000
0100
0000
0000
0000
0000
,
0010
0000
0100
0000
0000
0000
0001
0000
0010
0000
0000
0010
0000
0000
0000
0000
,
0100
0000
0000
0100
0000
0000
0000
0000
0010
0000
0000
0010
0000
0000
0000
0000
,
0001
0010
0100
0010
0001
0100
0010
1000
0001
0000
0000
0001
0000
0000
1000
0000
,
0010
0000
0000
0100
0001
0000
0000
0000
,
0010
0000
0100
0000
0000
0000
0100
0000
1000
0000
0000
0010
0000
0000
0000
0000
,
0100
0000
0000
0001
0000
0000
0010
0000
0100
0000
0000
0010
0000
0000
0000
0000
,
0001
0100
0001
1000
0001
0010
0100
1000
0000
0000
0000
0000
0000
0000
0000
0000
;

//---------------dance-single - ----------------
#NOTES:
     dance-single:
     :
     Medium:
     8:
     0.304521,0.420249,0.150217,0.121604,0.060802,298.000000,277.000000,21.000000,17.000000,0.000000,0.000000,0.304521,0.420249,0.150217,0.121604,0.060802,298.000000,277.000000,21.000000,17.000000,0.000000,0.000000:
0000
0000
0000
0000
,
0000
0000
0000
0000
,
0000
0000
0000
0000
,
0000
0000
0000
0000
,
0001
0100
1000
0100
,
0001
0010
1000
0010
,
0001
0010
0100
1000
,
0100
1000
0010
0100
,
0001
0000
1000
0100
0000
0000
1000
0000
0000
0010
0000
0000
,
0100
0000
0001
0010
0000
0000
0001
0000
0000
1000
0000
0000
,
0001
0000
0100
0001
0000
0000
0010
0000
0000
0100
0000
0000
,
1000
0000
0100
1000
0000
0000
0010
0000
0000
0100
0000
0000
,
0002
0000
0000
2003
,
3020
0000
0000
0000
,
0130
0001
0010
0100
,
1000
0100
0010
0001
1000
0000
0000
0000
,
1000
0000
0101
0000
0000
0001
0010
0000
,
0100
0000
1100
0000
0000
0100
0010
0000
,
0001
0000
0000
0001
0000
0000
0001
0000
,
0000
0100
0010
1000
,
0100
0000
1100
0000
0000
1000
0010
0000
,
0100
0000
0101
0000
0000
0001
0010
0000
,
0100
0000
1100
0000
0000
0100
1000
0000
,
0010
2000
3020
0230
,
0301
1000
0001
0010
,
0100
0010
0001
0000
0010
0000
0100
0000
,
0010
0001
0100
0000
0010
1000
0100
0000
,
0010
0100
1000
0010
,
1000
0010
0100
0001
,
0010
0100
0010
0001
,
2000
0000
0000
0000
,
0002
0000
0000
3003
,
0001
0100
0010
1000
0010
0100
0001
0000
,
0001
0010
0100
1000
0100
0010
0001
0000
,
1001
0000
0000
0101
0000
0000
0011
0000
,
0000
0002
0023
0230
,
1300
0000
0100
1000
0000
1000
0010
0000
,
0110
0000
0100
0010
0000
0010
1000
0000
,
1001
0000
0001
0010
0000
0010
0100
0000
,
0010
0002
0203
0320
,
1030
0000
0001
1000
0000
1000
0100
0010
,
0100
0000
0010
0100
0000
0100
0010
0001
,
1000
0010
0100
0001
,
0010
0200
0320
0032
,
0013
0001
0100
0010
,
1010
1000
0010
0100
,
0100
0010
1000
0000
0001
0010
0100
0000
,
1000
0100
1000
0100
0000
0000
0000
0000
,
0000
0000
0000
0000
,
0000
0000
0000
0000
,
1000
0000
0000
0110
0000
0000
0000
0000
,
0001
0000
0000
1010
0000
0000
0000
0000
,
1000
0000
0000
0101
0000
0000
0000
0000
,
0001
0010
0100
0010
,
0001
0000
0000
1100
0000
0000
0000
0000
,
1000
0000
0000
0110
0000
0000
0000
0000
,
1000
0000
0000
0011
0000
0000
0000
0000
,
0001
0100
0010
1000
0001
0100
0010
1000
,
0100
0000
0000
0100
0000
0000
0100
0000
0110
0000
0000
0000
0000
0000
0010
0000
,
0000
0000
0001
0000
1000
0000
0000
0010
,
0000
0000
0100
0001
,
0010
0000
0100
0000
0010
0000
0000
1100
,
0000
0000
0100
0000
1000
0000
0000
0101
,
0000
0000
0001
0000
1000
0000
0000
0011
,
0000
0000
1000
0000
0001
0100
0010
1000
,
0001
0100
0010
1000
0001
0000
0000
0000
,
1000
0000
0010
0000
,
0100
0001
0000
0010
0100
0000
0000
0000
,
0010
0000
0001
0000
,
1000
0010
0100
0001
1000
0010
0100
0001
1000
0000
0000
0001
0000
0000
0010
0000
,
0010
0000
0000
0100
0000
0000
1000
0000
1000
0000
0000
0000
0000
0000
0000
0000
,
0001
0000
0100
0000
0000
0000
0001
0000
1000
0000
0000
0100
0000
0000
0000
0000
,
1000
0000
0000
0010
0000
0000
0000
0000
1000
0000
0000
0000
0000
0000
0000
0000
,
0001
0010
0100
1000
0100
0010
0001
1000
0000
0000
0000
0000
0000
0000
0000
0000
;

//---------------dance-single - ----------------
#NOTES:
     dance-single:
     :
     Easy:
     5:
     0.185983,0.261985,0.028613,0.007153,0.000000,182.000000,178.000000,4.000000,1.000000,0.000000,0.000000,0.185983,0.261985,0.028613,0.007153,0.000000,182.000000,178.000000,4.000000,1.000000,0.000000,0.000000:
0000
0000
0000
0000
,
0000
0000
0000
0000
,
0000
0000
0000
0000
,
0000
0000
0000
0000
,
1001
0000
0000
1000
,
1000
0000
0000
0000
,
0001
0000
0000
0100
,
0100
0000
0000
0010
,
1000
0010
0100
0001
,
1000
0100
0010
0100
,
1000
0001
0100
0010
,
1000
1000
0001
0001
,
0100
0000
0000
0010
,
1000
0000
0000
0000
,
0002
0000
0000
0000
,
0000
0000
0003
0000
,
1000
0000
0000
0100
0000
0000
1000
0000
,
0010
0000
0000
0100
0000
0000
0010
0000
,
1000
0000
0000
1000
0000
0000
1000
0000
,
0000
0100
0010
0001
,
0010
0000
0000
0001
0000
0000
0100
0000
,
0010
0000
0000
1000
0000
0000
0010
0000
,
0100
0000
0000
0000
,
0000
0010
1000
0001
,
0010
0000
0000
0100
0000
0000
0010
0000
,
0001
0000
0000
1000
0000
0000
0100
0000
,
1000
0000
0000
0010
0000
0000
0100
0000
,
0001
1000
0100
0010
,
0100
1000
0010
0100
,
0001
0010
0100
0010
,
0001
0000
0000
0000
,
1000
0000
0000
0000
,
1001
0001
0100
0010
,
1000
0010
0100
0001
,
0010
0000
0000
0010
0000
0000
0010
0000
,
0000
0100
0010
0001
,
1000
0000
0000
0001
0000
0000
0100
0000
,
0001
0000
0000
0010
0000
0000
0100
0000
,
1000
0000
0000
0100
0000
0000
1000
0000
,
0010
0100
0010
1000
,
0001
0000
0000
1000
0000
0000
0100
0000
,
1000
0000
0000
0010
0000
0000
0100
0000
,
0001
0000
0000
0010
0000
0000
0100
0000
,
0010
0100
1000
0010
,
0100
0010
1000
0001
,
1001
0001
0010
0100
,
0010
0001
0010
0100
,
1000
1000
0000
0000
,
0000
0000
0000
0000
,
0000
0000
0000
0000
,
0001
0000
0000
1000
0000
0000
0000
0000
,
0010
0000
0000
1000
0000
0000
0000
0000
,
0100
0000
0000
0010
0000
0000
0000
0000
,
0100
1000
0000
1000
,
0001
0000
0000
0100
0000
0000
0000
0000
,
0001
0000
0000
0010
0000
0000
0000
0000
,
0100
0000
0000
0010
0000
0000
0000
0000
,
0100
1000
0010
0100
,
0001
0000
1000
0000
,
0000
0100
1000
0000
,
0000
0000
0100
0010
,
0000
0010
0100
0000
,
0000
0000
1000
0000
,
0000
0001
0100
0000
,
0000
0000
0010
0100
,
0001
1000
1001
0000
,
0001
0000
1000
0000
,
0010
0000
0100
0000
,
0001
0000
0010
0000
,
0100
0010
0001
0000
,
1000
0000
0010
0000
,
0100
0000
0010
0000
,
1000
0000
0001
0000
,
1000
0001
0000
0000
;

//---------------dance-single - ----------------
#NOTES:
     dance-single:
     :
     Beginner:
     2:
     0.096057,0.157191,0.021460,0.007153,0.000000,94.000000,91.000000,3.000000,1.000000,0.000000,0.000000,0.096057,0.157191,0.021460,0.007153,0.000000,94.000000,91.000000,3.000000,1.000000,0.000000,0.000000:
0000
0000
0000
0000
,
0000
0000
0000
0000
,
0000
0000
0000
0000
,
0000
0000
0000
0000
,
1000
0000
0000
0010
,
0100
0000
0000
0000
,
0001
0000
0000
0000
,
1000
0000
0000
0000
,
0100
0000
0000
1000
,
0010
0000
0000
0000
,
0100
0000
0000
0000
,
0010
0000
0000
0000
,
1000
0000
0000
0001
,
1000
0000
0000
0000
,
0020
0000
0000
0000
,
0000
0000
0030
0000
,
1000
0000
0000
0000
,
0001
0000
0000
0000
,
0100
0000
0000
0000
,
0000
0010
0000
0000
,
1000
0000
0000
0000
,
0100
0000
0000
0000
,
1000
0000
0000
0000
,
0000
0001
0001
0001
,
1000
0000
0000
0000
,
0010
0000
0000
0000
,
0100
0000
0000
0000
,
0000
0100
0000
0000
,
0010
0000
0000
0000
,
1000
0000
0000
0000
,
0001
0000
0000
0000
,
1000
0000
0000
0000
,
0110
0000
0010
0000
,
0100
0000
0001
0000
,
1000
0000
0000
0000
,
0000
0001
0000
0000
,
1000
0000
0000
0000
,
0100
0000
0000
0000
,
1000
0000
0000
0000
,
0010
0000
0100
0000
,
0001
0000
0000
0000
,
0010
0000
0000
0000
,
0001
0000
0000
0000
,
0000
1000
0000
0000
,
0010
0000
0000
0000
,
1001
0000
0000
0000
,
1000
0000
0000
0000
,
0001
0000
0000
0000
,
0100
0000
0000
0000
,
0000
0000
0000
0000
,
0010
0000
0000
0000
,
1000
0000
0000
0000
,
0100
0000
0000
0000
,
1000
0000
0000
0001
,
1000
0000
0000
0000
,
0010
0000
0000
0000
,
1000
0000
0000
0000
,
0100
0000
1000
0000
,
0010
0000
0100
0000
,
0000
0001
0100
0000
,
0000
0000
0010
1000
,
0000
0001
1000
0000
,
0000
0000
0100
0000
,
0000
0000
1000
0000
,
0000
0000
0010
0000
,
0100
0000
1001
0000
,
0010
0000
1000
0000
,
0001
0000
0010
0000
,
0100
0000
0010
0000
,
0001
0000
1000
0000
,
0010
0000
0100
0000
,
0001
0000
1000
0000
,
0010
0000
0100
0000
,
0001
1000
0000
0000
;

//---------------dance-single - ----------------
#NOTES:
     dance-single:
     :
     Challenge:
     15:
     0.549773,1.076889,0.228902,0.414884,0.522182,538.000000,506.000000,32.000000,58.000000,0.000000,0.000000,0.549773,1.076889,0.228902,0.414884,0.522182,538.000000,506.000000,32.000000,58.000000,0.000000,0.000000:
// measure 0
0000
0000
0000
0000
,  // measure 1
0000
0000
0000
0000
,  // measure 2
0000
0000
0000
0000
,  // measure 3
0000
0000
0000
0000
,  // measure 4
1001
0001
0010
0100
0000
0010
0001
0000
1000
0100
0000
1000
,  // measure 5
0010
0000
0100
0001
0000
0010
1000
0000
0010
0001
0000
0100
,  // measure 6
1000
0000
0000
0000
0100
0010
1000
0000
0000
0000
0001
1000
0100
0000
0000
0000
0010
0100
1000
0000
0000
0000
0100
0010
,  // measure 7
0001
0000
0000
0000
1000
0001
0100
0000
0000
0000
0010
1000
0100
0000
0000
0000
1000
0100
0010
0000
0000
0000
0010
0001
,  // measure 8
1000
0100
0001
0101
0000
0001
0100
0000
1000
0010
0000
0001
,  // measure 9
0010
1000
0100
0110
0000
0100
1000
0000
0010
0100
0000
0001
,  // measure 10
1000
0000
0000
0000
0001
1000
0100
0000
0000
0000
0100
1000
0010
0000
0000
0000
0100
0010
1000
0000
0000
0000
1000
0001
,  // measure 11
0010
0000
0000
0000
0010
0001
0100
0000
0000
0000
0100
0001
0010
0000
0000
0000
0010
0100
1000
0000
0000
0000
1000
0100
,  // measure 12
0010
0010
0100
0100
1000
0100
0001
0100
,  // measure 13
0010
0010
0001
0001
1000
0010
0001
0010
,  // measure 14
1000
0000
0010
1000
0010
0100
0001
0010
1000
0010
0100
0010
0001
0100
1000
0100
,  // measure 15
0010
1000
0010
1000
0010
1000
0010
1000
0001
0100
0001
0100
0001
0100
0001
0100
0001
0000
0000
0000
0011
0000
0000
0000
1010
0000
0000
0000
1000
0100
0010
0001
,  // measure 16
1000
0010
1000
0001
0010
0100
0010
0001
,  // measure 17
1000
0010
1000
0100
0001
0100
0010
0001
,  // measure 18
2000
0000
0000
0010
0000
0000
0001
3001
,  // measure 19
0000
0200
0320
2030
,  // measure 20
3100
0000
0010
0002
0000
0100
0103
0000
,  // measure 21
0010
0000
1000
0200
0000
1000
1300
0000
,  // measure 22
0001
0000
0010
0002
0000
1000
1003
0000
,  // measure 23
0001
2000
3020
0230
,  // measure 24
0301
0010
0001
1000
0100
0010
0100
1000
,  // measure 25
0001
1000
0001
1000
0100
0010
0001
0010
0100
0010
0001
0010
0100
1000
0100
0010
,  // measure 26
0100
1000
0100
0010
0001
0010
0100
0010
0001
1000
0100
0010
0001
0010
0100
1000
,  // measure 27
0100
0010
0100
1000
0002
0000
0000
0000
0203
0000
0000
0000
0320
0000
0000
0000
,  // measure 28
1030
0000
0000
0100
0000
0000
0001
0000
0100
0000
0000
0010
0000
0000
0001
0000
,  // measure 29
0100
0000
0000
1000
0000
0000
0100
0000
0010
0000
0000
1000
0000
0000
0001
0000
,  // measure 30
2000
0010
0010
3010
,  // measure 31
0002
0100
0100
0103
,  // measure 32
0001
0010
0110
0100
1000
0010
0110
0100
,  // measure 33
0001
1000
1100
1000
0001
0010
0110
0010
,  // measure 34
1001
0000
0000
0001
0100
0000
0010
0000
0000
1000
0010
0000
0100
0001
0010
0001
,  // measure 35
1000
0200
2300
3020
,  // measure 36
0130
0000
0000
0000
0001
0000
0021
0000
0000
0000
0130
0000
0100
1000
0100
1000
,  // measure 37
0001
0000
0000
0000
1000
0000
1020
0000
0000
0000
0130
0000
0100
0001
0100
0010
,  // measure 38
1000
0000
0000
0000
0001
0000
2001
0000
0000
0000
0010
3000
0010
1000
0010
0100
,  // measure 39
0001
0020
0230
2300
,  // measure 40
3001
0100
1000
0100
0010
1000
0001
0010
,  // measure 41
0100
0010
0001
0100
0010
1000
0001
0010
,  // measure 42
0200
0000
0000
2300
0000
0000
3020
0000
,  // measure 43
0230
0010
0001
0310
,  // measure 44
1001
0000
0001
0100
0000
0001
0100
0000
1001
0000
1000
0100
0000
1000
0100
0000
,  // measure 45
1001
0000
0001
0010
0000
0001
0010
0000
1001
0000
1000
0010
0000
1000
0010
0000
,  // measure 46
0001
1000
0100
0000
1000
0000
0010
0000
0100
0001
0010
0000
0100
0000
0010
0000
,  // measure 47
0001
0000
0001
0000
0001
0000
0001
0000
0000
0000
0000
0000
1000
0010
0100
0001
,  // measure 48
1000
0000
0000
0000
0000
0000
0200
0300
0000
0000
0000
0000
0000
0000
0000
0000
,  // measure 49
0000
0000
0000
0000
0000
0000
0200
0300
0000
0000
0000
0000
0000
0000
0000
0000
,  // measure 50
0010
0000
0100
0000
1000
0001
0200
0000
0000
0000
0000
0000
0300
0000
0000
0000
,  // measure 51
0010
0000
1000
0000
0001
0100
0002
0000
0000
0000
0000
0000
0003
0000
0000
0000
,  // measure 52
0010
0000
0001
0000
1000
0010
0200
0000
0000
0000
0000
0000
0300
0000
0000
0000
,  // measure 53
1020
0130
0021
0130
,  // measure 54
1001
0000
1000
0000
0001
0010
0200
0000
0000
0000
0000
0000
0300
0000
0000
0000
,  // measure 55
0010
0000
0001
0000
1000
0010
2000
0000
0000
0000
0000
0000
3000
0000
0000
0000
,  // measure 56
0001
0000
0100
0000
0010
1000
0200
0000
0000
0000
0000
0000
0300
0000
0000
0000
,  // measure 57
0010
1000
0010
0001
0100
1000
0100
0010
,  // measure 58
2000
0000
0000
3200
0000
0000
0302
0000
0203
0000
0000
0000
1300
0000
0020
0000
,  // measure 59
0000
0130
0002
0000
1003
0000
0100
2000
,  // measure 60
0000
3010
0100
0000
1020
0000
0130
0000
,  // measure 61
0021
0000
0130
0000
1001
0000
0001
0020
,  // measure 62
0000
1030
1010
0000
0021
0000
0130
2000
,  // measure 63
0000
3010
1010
0000
1002
0000
0103
0002
,  // measure 64
0000
0013
0011
0000
0001
0100
1000
0100
,  // measure 65
0001
0000
0100
0000
1000
0000
0100
0000
0010
0000
1000
0100
0000
0000
0000
0000
,  // measure 66
0010
0000
0000
0000
0100
0010
0001
0000
0000
0000
0000
0000
0000
0000
0000
0000
0010
0000
0000
0000
0000
0000
0100
0000
0000
0000
0000
0000
0000
0000
0000
0000
,  // measure 67
0010
0000
0000
0000
0001
0000
0000
0000
0100
0000
0000
0000
0010
0000
0000
0000
1000
0000
0000
0000
0001
1000
0010
0000
0000
0000
0000
0000
0000
0000
0000
0000
,  // measure 68
0100
0000
0000
0000
0010
1000
0001
0000
0000
0000
0000
0000
0000
0000
0000
0000
0010
0000
0000
0000
0000
0000
0100
0000
0000
0000
0000
0000
0000
0000
0000
0000
,  // measure 69
0010
0010
0001
0100
0010
0010
0100
0001
2001
0000
0000
0000
3000
0000
0010
0000
,  // measure 70
0102
0000
0000
0013
0000
0000
0100
0000
2001
0000
0000
3010
0000
0000
0000
0000
,  // measure 71
0100
0000
0001
0000
0000
0000
0001
0000
2001
0000
0000
3010
0000
0000
0000
0000
,  // measure 72
0200
0000
0000
0000
0310
1000
0100
0000
0000
0000
0000
0000
0000
0000
0000
0000
0020
0000
0000
0000
0000
0000
0000
0000
0030
0000
0000
0000
0000
0000
0000
0000
,  // measure 73
0100
0100
0001
1000
0100
0100
0010
0001
0000
0000
0000
0000
0000
0000
0000
0000
;
