#VERSION:0.83;
#TITLE:ALKATRAZ;
#SUBTITLE:;
#ARTIST:DEMONDICE;
#TITLETRANSLIT:;
#SUBTITLETRANSLIT:;
#ARTISTTRANSLIT:;
#GENRE:JAIL BREAK HIP SWING;
#ORIGIN:;
#CREDIT:;
#BANNER:banner.png;
#BACKGROUND:background.png;
#PREVIEWVID:;
#JACKET:jacket.png;
#CDIMAGE:;
#DISCIMAGE:;
#LYRICSPATH:;
#CDTITLE:cdtitle.png;
#MUSIC:ALKATRAZ.ogg;
#OFFSET:-0.993000;
#SAMPLESTART:62.092999;
#SAMPLELENGTH:15.600006;
#SELECTABLE:YES;
#BPMS:0.000=125.000;
#STOPS:;
#DELAYS:;
#WARPS:;
#TIMESIGNATURES:0.000=4=4;
#TICKCOUNTS:0.000=4;
#COMBOS:0.000=1;
#SPEEDS:0.000=1.000=0.000=0;
#SCROLLS:0.000=1.000;
#FAKES:;
#LABELS:0.000=Song Start;
#BGCHANGES:;
#KEYSOUNDS:;
#ATTACKS:
;

//---------------dance-single - ----------------
#NOTEDATA:;
#CHARTNAME:;
#STEPSTYPE:dance-single;
#DESCRIPTION:;
#CHARTSTYLE:;
#DIFFICULTY:Hard;
#METER:11;
#RADARVALUES:0.416902,0.429548,0.026774,0.187415,0.093707,327.000000,324.000000,3.000000,21.000000,0.000000,0.000000,0.000000,0.000000,0.000000,0.416902,0.429548,0.026774,0.187415,0.093707,327.000000,324.000000,3.000000,21.000000,0.000000,0.000000,0.000000,0.000000,0.000000;
#CREDIT:Pandemonium X;
#NOTES:
0000
0000
0000
0000
,
0000
0000
0000
0000
,
0000
0000
0000
0000
,
0000
0000
0000
0000
,
0010
1000
0100
1000
,
0001
0001
1000
1000
,
0001
0100
0010
0100
,
0001
0001
1000
0100
,
2002
0000
0000
0000
3003
0000
0000
0001
,
0100
0010
0100
0010
0100
0010
0100
0001
,
1000
0000
0100
0000
0001
0000
0100
0010
,
0100
1000
0100
1000
0100
1000
0001
0100
,
0010
0000
1000
0000
0001
0000
0010
0100
,
1000
0000
0001
0000
1000
0000
0001
0000
0100
0000
0010
0100
0000
0000
0010
0000
,
2000
0000
3002
0000
0100
0103
0000
0000
,
0000
0010
0010
0010
,
1000
1000
0100
1000
0001
0100
1000
0100
,
0001
0010
0001
1000
0010
0001
0010
0000
,
0100
0001
0010
0001
1000
0100
0010
0100
,
1000
0001
1000
0010
1000
0001
0100
0000
,
0001
1000
0100
0010
0001
1000
0010
1000
,
0001
1000
0001
0010
0100
1000
0001
0100
,
0010
1000
0001
0010
0100
0010
0001
1000
,
0001
0100
0001
1000
0100
1000
0001
0010
,
0000
0100
0010
0001
1000
0010
0100
0100
,
0000
0010
1000
0001
0010
0100
0010
0010
,
0000
0100
0010
0001
1000
0010
1000
1000
,
0010
0001
0010
0100
0001
0010
0100
0100
,
0000
1000
0100
1000
0001
0100
0001
0000
,
1000
0001
0010
0100
0010
0001
1000
0000
,
0010
1000
0100
0001
0100
0010
0001
1000
,
0010
0001
0010
0100
0010
1000
0001
0000
,
1002
0203
2300
3200
,
0310
0010
1000
0001
0010
1000
0010
0001
,
1000
0000
0001
0000
0100
0000
0100
0001
,
0010
0001
1000
0100
0010
0100
1000
0001
,
1000
0000
0010
0000
1000
0000
1000
0100
,
1000
0000
0001
0000
0100
0000
0001
0000
0010
0000
0100
0010
0000
0000
0000
0000
,
1200
0000
0010
0000
1000
1300
0000
0000
,
0100
0000
0010
0000
0001
1000
0000
0010
0000
0100
0000
0010
0000
1000
0000
0000
,
0002
0103
0020
1030
,
0200
0310
0002
1003
,
0010
1000
0010
1000
0010
0100
0001
1000
,
0001
0010
0001
0010
0100
1000
0001
1000
,
0020
0130
0002
0013
,
0200
1300
0002
0103
,
0020
1000
0100
1030
,
0002
0010
1000
0013
,
0000
1000
0100
0000
0010
0000
0000
0010
0001
0000
1000
0000
0000
0000
0000
0000
,
0000
0001
0100
0000
0010
0000
0000
1000
0100
0000
1000
0000
0001
0000
1000
0000
,
0000
0001
0100
0000
0010
0000
0000
1000
0010
0000
0100
0000
0000
0000
0000
0000
,
0000
0010
1000
0000
0001
0000
0000
0010
0001
0000
1000
0000
0100
0000
0010
0000
,
0000
0100
1000
0000
0001
0000
0000
1000
0001
0000
0010
0000
0000
0000
0000
0000
,
0000
0100
0010
0000
0100
0000
0000
0010
0001
0000
1000
0000
0100
0000
1000
0000
,
0000
0010
1000
0000
0001
0000
0000
1000
0100
0000
0010
0000
0000
0000
0000
0000
,
0100
1000
0010
0100
0001
0010
0100
2000
,
0000
0002
0000
0000
0000
3003
0000
0000
;

//---------------dance-single - ----------------
#NOTEDATA:;
#CHARTNAME:;
#STEPSTYPE:dance-single;
#DESCRIPTION:;
#CHARTSTYLE:;
#DIFFICULTY:Medium;
#METER:7;
#RADARVALUES:0.302158,0.374829,0.160641,0.107094,0.000000,237.000000,219.000000,18.000000,12.000000,0.000000,0.000000,0.000000,0.000000,0.000000,0.302158,0.374829,0.160641,0.107094,0.000000,237.000000,219.000000,18.000000,12.000000,0.000000,0.000000,0.000000,0.000000,0.000000;
#CREDIT:Pandemonium X;
#NOTES:
0000
0000
0000
0000
,
0000
0000
0000
0000
,
0000
0000
0000
0000
,
0000
0000
0000
0000
,
1000
0001
0010
0001
,
1000
1000
0001
1000
,
0001
0100
0001
0010
,
0100
0010
0001
1000
,
0220
0000
0330
0000
,
0010
0000
0010
0000
0010
0000
0010
1000
,
0100
0010
0001
0100
,
0001
0001
0001
0001
,
1000
0001
0010
0000
0100
0000
0010
0000
,
0001
0001
1000
1000
,
0101
0000
1010
0000
1000
0100
0000
0000
,
0000
0010
0010
0010
,
0100
0000
0010
0000
0001
0100
0010
0000
,
1000
0000
0001
0000
1000
0100
0010
0100
,
1000
0000
0001
0000
1000
0010
0100
0000
,
0010
0000
1000
0000
0001
0010
0100
0010
,
0001
0000
1000
0000
0001
0100
0001
0000
,
0100
0000
0010
0000
1000
0100
0010
0100
,
1000
0000
0100
0000
1000
0001
0100
0000
,
0001
0000
0010
0000
0001
1000
0001
1000
,
0001
0000
0100
0000
0001
0000
0010
0100
,
0000
0000
0010
0000
0001
0000
1000
0100
,
0000
0000
1000
0000
0001
0000
0100
0010
,
0100
0000
0010
0000
1000
0000
0001
0010
,
0100
0000
0010
0000
0001
0000
1000
0001
,
0100
0000
0001
0000
0010
0000
0100
1000
,
0100
0000
1000
0000
0010
0000
0100
0010
,
1000
0001
0010
0100
,
1001
0001
1000
0010
,
1010
1010
0011
0011
,
1001
0001
1000
0100
,
1100
1100
0101
0101
,
1001
0001
0010
0001
,
1000
0000
0100
0000
0010
0100
1000
0000
,
1100
0000
0011
0000
0001
0101
0000
0000
,
0001
0000
1000
0000
0010
0000
0100
0010
,
2000
0000
3020
0000
,
0230
0000
0302
0000
,
1003
0000
0001
0000
0010
0001
0010
0000
,
0001
0000
1000
0010
1000
0000
0100
0000
,
0020
0000
0230
0000
,
2300
0000
3002
0000
,
2003
0000
0000
0000
,
0020
0000
0000
3030
,
0000
0001
0100
0000
0001
0100
0000
0000
,
0000
0100
0010
0000
0100
0010
1000
0000
,
0000
0001
1000
0000
0001
1000
0000
0000
,
0000
0001
0100
0000
0010
1000
0100
0010
,
0000
0100
1000
0000
0100
1000
0000
0000
,
0000
0100
1000
0000
0100
0010
0001
1000
,
0000
0001
0100
0000
0001
0100
0000
0000
,
0010
0010
0010
0010
,
1001
0000
0000
0000
;

//---------------dance-single - ----------------
#NOTEDATA:;
#CHARTNAME:;
#STEPSTYPE:dance-single;
#DESCRIPTION:;
#CHARTSTYLE:;
#DIFFICULTY:Easy;
#METER:5;
#RADARVALUES:0.193789,0.249886,0.044623,0.089245,0.000000,152.000000,147.000000,5.000000,10.000000,0.000000,0.000000,0.000000,0.000000,0.000000,0.193789,0.249886,0.044623,0.089245,0.000000,152.000000,147.000000,5.000000,10.000000,0.000000,0.000000,0.000000,0.000000,0.000000;
#CREDIT:Pandemonium X;
#NOTES:
0000
0000
0000
0000
,
0000
0000
0000
0000
,
0000
0000
0000
0000
,
0000
0000
0000
0000
,
1000
0000
1000
0000
,
0001
1000
0001
1000
,
0001
0000
0001
0000
,
1000
0001
1000
0001
,
0110
0000
0000
0000
,
0100
0100
0100
0100
,
0001
0000
0000
0000
,
1000
1000
1000
1000
,
0100
0000
0000
0000
,
0010
0010
0100
0000
,
0010
0001
1000
0000
,
0000
0001
0100
0010
,
1001
1000
0001
0100
,
0001
0010
0001
0001
,
1000
0100
1000
0010
,
0100
0010
1000
0100
,
0010
0001
0100
0001
,
1000
0100
0010
0100
,
1000
0001
0010
0001
,
0100
0001
1000
0100
,
0000
1000
0001
0100
,
0000
0010
1000
0001
,
0000
0010
0001
0100
,
0010
1000
0010
0100
,
0000
0001
1000
0100
,
1000
0001
0010
0100
,
0010
0001
1000
0010
,
0100
0010
1000
0001
,
1001
0000
0000
0000
,
1000
1000
0001
0001
,
0110
0000
0000
0000
,
0010
0010
0100
0100
,
1001
0000
0000
0000
,
0001
0100
0010
1000
,
0001
1000
0010
0000
,
0100
0000
0010
0000
,
2000
0000
3002
0000
,
2003
0000
3002
0000
,
1003
1000
1000
0000
,
0001
0001
0001
0000
,
0200
0000
0320
0000
,
0230
0000
0320
0000
,
2030
0000
0000
0000
,
0002
0000
0000
3003
,
0001
0000
0001
0000
,
0000
1000
0001
0000
,
0100
0000
0100
0000
,
0000
0010
1000
0000
,
0100
0000
0010
0000
,
0000
0001
1000
0000
,
0010
0000
1000
0000
,
0001
1000
0100
0010
,
0001
0000
0000
0000
;

//---------------dance-single - ----------------
#NOTEDATA:;
#CHARTNAME:;
#STEPSTYPE:dance-single;
#DESCRIPTION:;
#CHARTSTYLE:;
#DIFFICULTY:Beginner;
#METER:2;
#RADARVALUES:0.095620,0.149932,0.035698,0.000000,0.000000,75.000000,71.000000,4.000000,0.000000,0.000000,0.000000,0.000000,0.000000,0.000000,0.095620,0.149932,0.035698,0.000000,0.000000,75.000000,71.000000,4.000000,0.000000,0.000000,0.000000,0.000000,0.000000,0.000000;
#CREDIT:Pandemonium X;
#NOTES:
0000
0000
0000
0000
,
0000
0000
0000
0000
,
0000
0000
0000
0000
,
0000
0000
0000
0000
,
1000
0000
1000
0000
,
0001
0000
0000
0000
,
0100
0000
0100
0000
,
0010
0000
0000
0000
,
1001
0000
0000
0000
,
1000
0000
1000
0000
,
1000
0000
0000
0000
,
0001
0000
0001
0000
,
0001
0000
0000
0000
,
0100
0000
0100
0000
,
0010
0010
0010
0000
,
0000
0000
0000
0000
,
1000
0000
0000
0000
,
0100
0000
0000
0000
,
0010
0000
0000
0000
,
0001
0000
0000
0000
,
0100
0000
0000
0000
,
0010
0000
0000
0000
,
1000
0000
0000
0000
,
0001
0000
0000
0000
,
0100
0000
0000
0000
,
0010
0000
0010
0000
,
1000
0000
0000
0000
,
0001
0000
0001
0000
,
1000
0000
0000
0000
,
0100
0000
0000
0000
,
0010
0000
0000
0000
,
0001
0000
0000
0000
,
1001
0000
0000
0000
,
1000
0000
1000
0000
,
0001
0000
0000
0000
,
0100
0000
0100
0000
,
0010
0000
0000
0000
,
1000
0000
1000
0000
,
0001
0001
0001
0000
,
1000
0000
0000
0000
,
0110
0000
0010
0000
,
0010
0000
0010
0000
,
0100
0000
0000
0000
,
0001
0000
0000
0000
,
1001
0000
1000
0000
,
1000
0000
1000
0000
,
0010
0000
0000
0000
,
0100
0000
0000
0000
,
0000
0001
0000
0000
,
0000
1000
0000
0000
,
0000
0010
0000
0000
,
0000
0100
0000
0000
,
0000
0010
0000
0000
,
0000
1000
0000
0000
,
0000
0100
0000
0000
,
1000
0000
0001
0000
,
0100
0000
0000
0000
;

//---------------dance-single - ----------------
#NOTEDATA:;
#CHARTNAME:;
#STEPSTYPE:dance-single;
#DESCRIPTION:;
#CHARTSTYLE:;
#DIFFICULTY:Challenge;
#METER:15;
#RADARVALUES:0.687187,0.808560,0.383754,0.107094,0.847828,539.000000,496.000000,43.000000,12.000000,0.000000,0.000000,0.000000,0.000000,0.000000,0.687187,0.808560,0.383754,0.107094,0.847828,539.000000,496.000000,43.000000,12.000000,0.000000,0.000000,0.000000,0.000000,0.000000;
#CREDIT:Pandemonium X;
#NOTES:
// measure 0
0000
0000
0000
0000
,  // measure 1
0000
0000
0000
0000
,  // measure 2
0000
0000
0000
0000
,  // measure 3
0000
0000
0000
0000
,  // measure 4
1000
0000
0000
0100
0000
0100
0000
0100
0010
0000
0000
0001
0000
0001
0000
0001
,  // measure 5
1000
0000
0010
0000
0001
0000
0010
0000
0100
0000
0010
1000
0000
0001
1000
0000
,  // measure 6
0010
0000
1000
0100
0000
0100
0000
0100
0010
0000
0001
0100
0000
0100
0000
0100
,  // measure 7
0010
0000
1000
0000
0001
0000
0010
0000
1000
0000
0010
0001
0100
0010
0000
0000
,  // measure 8
2002
0000
0000
0000
3003
0000
0000
1000
,  // measure 9
1100
0000
0100
0000
1100
0000
1000
0000
1100
0000
0100
0000
1100
0000
0100
0010
,  // measure 10
0000
0022
0000
0000
0033
0000
0000
0001
,  // measure 11
1001
0000
1000
0000
1001
0000
0001
0000
1001
0000
1000
0000
1001
0000
0001
0100
,  // measure 12
0000
0220
0000
0000
0330
0100
0001
0010
,  // measure 13
0110
0000
0100
0000
1100
0000
1000
0000
1001
0000
0010
1000
0000
0000
0010
0000
,  // measure 14
2100
0000
0010
0000
3001
1001
0000
0000
,  // measure 15
0000
0010
0010
0010
,  // measure 16
1001
0000
1001
0000
0001
1000
0001
0010
0100
0010
0000
0001
0100
0010
0100
0001
,  // measure 17
1000
0100
0010
0100
1000
0000
0001
0000
0100
0000
1000
0000
0100
0010
1000
0001
,  // measure 18
0010
0100
1000
0100
0010
0100
0010
0000
0100
1000
0010
0100
0001
1000
0100
1000
,  // measure 19
0001
0000
0000
0100
0000
0000
0010
0000
0000
0100
0000
0000
0001
0000
0000
0010
0000
0000
0100
0000
0000
0000
0000
0000
0010
0000
0000
0000
0100
0000
0010
0000
0000
0000
0000
0000
0001
0000
0000
0000
1000
0000
0000
0000
0000
0000
0000
0000
,  // measure 20
0001
0010
0001
1000
0100
1000
0001
0100
0010
1000
0010
0100
0001
0010
0100
0000
,  // measure 21
0010
0000
0000
0001
0000
0000
0100
0000
0000
0010
0000
0000
1000
0000
0000
0001
0000
0000
0010
0000
0000
0100
0000
0000
1100
0000
0000
0000
0100
0000
0000
0000
0000
0010
0000
0000
0001
0000
0000
1000
0000
0000
0100
0000
0000
1000
0000
0000
,  // measure 22
0001
0000
0000
0100
0000
0000
0001
0000
0000
1000
0000
0000
0100
0000
0000
1000
0000
0000
0001
0000
0000
0010
0000
0000
0000
0000
0000
0100
0000
0000
0010
0000
0000
0001
0000
0000
1000
0000
0000
0000
0001
0000
0000
0000
0000
0000
0100
0000
,  // measure 23
0001
0010
0000
0100
1000
0001
1000
0100
0010
0100
1000
0010
0100
0001
0010
0100
,  // measure 24
0000
0000
1000
0001
0000
0001
0100
0000
0100
0010
0000
0010
1000
0000
1000
0010
0000
0010
0100
0000
0000
1001
0000
0000
,  // measure 25
0000
0000
0000
0000
0000
0000
0001
0000
0000
0000
0000
0000
0010
0000
0000
0000
0000
0000
0100
0000
0000
0000
0010
0000
0001
0000
0000
1000
0000
0000
0001
0000
0000
0100
0000
0000
0001
0000
0000
0000
0000
0000
1100
0000
0000
0000
0000
0000
,  // measure 26
0000
0000
1000
0100
0000
0010
0001
0000
0001
0100
0000
0010
1000
0000
1000
0001
0000
0001
0010
0000
0010
0100
0000
0100
,  // measure 27
1000
0000
0001
0100
1000
0100
0010
1000
0001
0010
0000
0100
0010
0000
0010
0000
,  // measure 28
0000
0100
0010
0001
1000
0000
0001
0000
0100
0001
0010
0100
0000
0010
0001
1000
,  // measure 29
0100
1000
0010
0100
0001
0010
0100
0010
0001
1000
0001
1000
0000
0100
0000
0010
,  // measure 30
0100
0010
0001
1000
0010
0100
0010
1000
0001
0010
0000
0100
0000
0010
0001
1000
,  // measure 31
0010
0000
0000
0100
0000
0000
0001
0000
0000
0010
0000
0000
0100
0000
0000
0010
0000
0000
0001
0000
0000
0100
0000
0000
1000
0000
0000
0000
0100
0000
0000
0000
0000
0010
0000
0000
0000
0000
0000
0000
0000
0000
0000
0000
0000
0000
0000
0000
,  // measure 32
0021
0001
0100
1030
,  // measure 33
0101
0100
0110
0010
1010
1000
1001
0001
,  // measure 34
0021
0000
1000
0000
0001
0000
1030
0100
,  // measure 35
0110
0100
1100
1000
1010
0010
0110
0100
,  // measure 36
0201
0000
0001
0000
0010
0000
1300
0100
,  // measure 37
1100
0000
0100
0000
0110
0000
0010
0000
1010
0000
1000
0001
0000
1000
0010
0000
,  // measure 38
1001
0000
0000
0000
0110
0000
0000
1000
1001
0000
0110
0000
0000
0000
0000
0001
,  // measure 39
0100
0001
0010
0100
0010
0001
0000
1000
0000
0001
0100
1000
0000
1100
0000
0010
,  // measure 40
1000
0010
1000
0010
0100
0001
0100
0001
,  // measure 41
0010
0001
0010
0001
1000
0100
1000
0100
,  // measure 42
1000
0000
1000
0001
0100
0000
0100
0001
1000
0001
0000
1001
0000
0001
0000
1000
,  // measure 43
0001
0000
1000
0100
0010
0100
0000
1100
0000
0100
0000
0010
0000
0011
0000
0001
,  // measure 44
0100
0010
0100
0010
1000
0001
1000
0001
,  // measure 45
0010
0001
0010
0001
1000
0100
1000
0100
,  // measure 46
1000
0010
1000
0010
1000
0010
1000
0010
,  // measure 47
0100
0001
0100
0001
0100
0001
0100
0001
,  // measure 48
0000
0000
1000
0100
0000
0010
0001
0000
1000
0000
0000
0010
0100
0000
0010
1000
0000
0001
0000
0000
0000
0000
0000
0000
,  // measure 49
0000
0000
1000
0100
0000
0100
0010
0000
0001
0000
0000
0010
0100
0000
0000
0010
0000
0000
0001
0000
0000
0100
0000
0000
,  // measure 50
0000
0000
0010
1000
0000
0010
0100
0000
0001
0000
0000
1000
0100
0000
0100
1000
0000
0010
0000
0000
0000
0000
0000
0000
,  // measure 51
0000
0000
0100
0001
0000
0001
0010
0000
0100
0000
0000
0010
0001
0000
0000
0010
0000
0000
0100
0000
0000
1000
0000
0000
,  // measure 52
0000
0000
0100
0010
0000
0100
1000
0000
0001
0000
0000
1000
0010
0000
0100
0001
0000
0010
0000
0000
0000
0000
0000
0000
,  // measure 53
0000
0000
0100
0010
0000
0100
1000
0000
0010
0000
0000
0100
0010
0000
0000
1000
0000
0000
0010
0000
0000
0100
0000
0000
,  // measure 54
0000
0000
0001
0100
0000
0100
0001
0000
0010
0000
0000
0100
0010
0000
0100
1000
0000
0001
0000
0000
0000
0000
0000
0000
,  // measure 55
0000
0000
0000
0000
1000
0000
0100
0000
0000
0000
1000
0000
0010
0000
0000
0000
0100
0000
0000
0000
0000
0000
0000
0000
0010
0000
0000
1000
0000
0000
0000
0000
0000
0001
0000
0000
0000
0000
0000
0010
0000
0000
0000
0000
0000
0200
0000
0000
,  // measure 56
0000
0020
0000
0000
0000
0330
0000
0000
;
