#TITLE:A Little Less Conversation;
#SUBTITLE:(Elvis vs JXL);
#ARTIST:Elvis vs JXL;
#TITLETRANSLIT:;
#SUBTITLETRANSLIT:;
#ARTISTTRANSLIT:;
#GENRE:ROCK AND ROLL BREAKS;
#CREDIT:;
#BANNER:banner.png;
#BACKGROUND:background.png;
#LYRICSPATH:;
#CDTITLE:cdtitle.png;
#MUSIC:A Little Less Conversation (Elvis vs JXL).ogg;
#OFFSET:0.000000;
#SAMPLESTART:16.695652;
#SAMPLELENGTH:16.695652;
#SELECTABLE:YES;
#BPMS:0.000000=115.000000
;
#STOPS:
;
#BGCHANGES:;
#KEYSOUNDS:;
#ATTACKS:;

//---------------dance-single - ----------------
#NOTES:
     dance-single:
     :
     Hard:
     9:
     0.342198,0.447306,0.137140,0.182854,0.146283,262.000000,247.000000,15.000000,20.000000,0.000000,0.000000,0.342198,0.447306,0.137140,0.182854,0.146283,262.000000,247.000000,15.000000,20.000000,0.000000,0.000000:
0000
0000
0000
0000
,
0000
0000
0000
0000
,
0000
0000
0000
0000
,
0220
0000
0000
0330
,
0001
0010
0001
0000
1000
0000
1000
0000
,
0010
1000
0010
0000
0100
0000
0100
0000
,
0010
1000
0010
0000
1000
0000
1000
0000
,
1000
0000
0100
0000
0010
0000
0000
0000
0000
0000
0100
1000
0000
0100
1000
0000
,
0001
0001
1000
0001
0010
0100
1000
1000
,
0001
1000
0001
0000
0000
0000
0000
0000
,
0100
0100
0010
1000
0100
1000
0001
0010
,
0100
0100
0010
0000
0000
0000
0000
0000
,
0100
1000
1010
0000
1000
0001
1001
0000
,
0001
0010
0011
0000
1000
0001
1001
0000
,
0001
0100
1000
0100
0001
0010
0100
1000
,
0001
0000
1000
1000
0200
0000
0310
0000
,
0100
0000
0010
0010
0002
0000
1003
0000
,
0202
0000
0000
0303
,
1000
0000
0001
0000
0010
0100
0000
0010
0000
0100
0000
0010
0000
0001
1000
0000
,
2020
0000
0000
3030
,
0100
0000
0010
0000
1000
0001
0000
0010
0000
0100
0000
0010
0000
0001
1000
0000
,
0010
0100
0000
0010
0100
0000
0100
0010
0000
0100
0010
0000
0000
0000
0000
0000
,
0001
1000
0000
0001
1000
0000
1000
0001
0000
1000
0001
0000
0000
0000
0000
0000
,
0001
0100
0000
0001
0100
0000
0100
0001
0000
0100
0001
0000
0000
0000
0000
0000
,
2000
0000
3200
0000
,
0320
0000
0032
0000
,
2000
0000
0000
3003
,
0001
0001
0010
1000
0010
0100
1000
0010
,
0100
0100
1001
0000
0000
0000
0000
0000
,
1000
1000
0001
0010
1000
0010
0100
0010
,
0001
0001
1001
0000
0000
0000
0000
0000
,
0001
0100
1010
0000
1000
0100
0011
0000
,
0001
0010
1100
0000
1000
0010
0101
0000
,
0001
1000
0100
1000
0010
0100
0010
1000
,
0100
0000
0010
0001
2000
0000
3000
0000
,
1001
0000
0001
1000
0020
0000
0030
0000
,
1000
0010
1000
0100
,
2000
0001
0001
0001
,
0020
0000
0000
3030
,
0001
1000
0000
1000
0001
0000
0000
0000
0000
0000
0000
0000
0000
0000
0000
0000
,
0100
0010
0000
0010
0100
0000
0000
0000
0000
0000
0000
0000
0000
0000
0000
0000
,
0010
1000
0000
1000
0010
0000
0000
0000
0000
0000
0000
0000
0000
0000
0000
0000
,
0100
0001
0000
0001
0100
0000
0000
0000
0000
0000
0000
0000
0000
0000
0000
0000
,
0010
0010
1000
0001
0010
0100
1000
0000
,
0001
0001
0010
0001
1000
0100
0010
0000
,
0100
0100
0010
0001
1000
0010
0100
0000
,
0010
0010
1000
0001
0010
0001
1000
0000
,
0001
0001
1000
0010
1000
0100
0010
0000
,
0100
0100
0010
0001
1000
0100
1000
0000
,
0002
0100
0100
0100
,
2000
0000
0000
3003
,
0120
0000
0030
0000
;

//---------------dance-single - ----------------
#NOTES:
     dance-single:
     :
     Medium:
     6:
     0.219425,0.329594,0.063999,0.210282,0.000000,168.000000,161.000000,7.000000,23.000000,0.000000,0.000000,0.219425,0.329594,0.063999,0.210282,0.000000,168.000000,161.000000,7.000000,23.000000,0.000000,0.000000:
0000
0000
0000
0000
,
0000
0000
0000
0000
,
0000
0000
0000
0000
,
0220
0000
0000
0330
,
0001
1000
0001
0000
0000
0000
0000
0000
,
0100
0010
0100
0000
0000
0000
0000
0000
,
0001
0100
0001
0000
0000
0000
0000
0000
,
2020
0000
0000
3030
,
1000
0001
0010
0100
,
0010
0010
0001
0000
0000
0000
0000
0000
,
1000
0010
0001
0010
,
0100
0001
0010
0000
0000
0000
0000
0000
,
0100
1000
0100
0000
1000
0001
1000
0000
,
0001
0100
0001
0000
0100
0010
0100
0000
,
0010
1000
0010
0000
1000
0001
1000
0000
,
1001
0000
0000
0000
0000
0000
0010
0100
,
0020
0000
0000
0030
,
1000
0001
0010
0100
,
2002
0000
0000
3003
,
0001
1000
0010
1000
,
2200
0000
0000
3300
,
2000
0000
0000
3000
,
0002
0000
0000
0000
0000
0003
0000
0000
,
0200
0000
0000
0000
0000
0300
0000
0000
,
0020
0000
2030
0000
,
3002
0000
0203
0000
,
0020
0000
0000
0330
,
0001
0100
0001
0000
1000
0000
0100
0000
,
0001
0100
1000
0000
0000
0000
0000
0000
,
0100
1000
0010
0000
0100
0000
0001
0000
,
0010
0001
1000
0000
0000
0000
0000
0000
,
0100
0010
0001
0000
0010
0100
1000
0000
,
0100
1000
0010
0000
0100
0001
0010
0000
,
0100
0010
0100
0000
0001
0010
0001
0000
,
1001
0000
0001
1000
0020
0000
1000
0000
,
0130
0000
0001
0010
0200
0000
0000
0000
,
0310
0001
1000
0100
,
2002
0000
0000
0000
,
0000
0000
0000
3003
,
0001
0100
0001
0000
0000
0000
0000
0000
,
1000
0010
1000
0000
0000
0000
0000
0000
,
0001
1000
0001
0000
0000
0000
0000
0000
,
0010
0001
0010
0000
0000
0000
0000
0000
,
0100
0000
1000
0000
0010
1000
0010
0000
,
0100
0000
0001
0000
1000
0100
1000
0000
,
0100
0000
1000
0000
0010
0100
0010
0000
,
0100
0000
0001
0000
0010
0001
0100
0000
,
0010
0000
1000
0000
0001
1000
0001
0000
,
0010
0000
0100
0000
0010
0001
0010
0000
,
0001
1000
0100
0010
,
0002
0000
0000
0000
,
0203
0000
0300
0000
;

//---------------dance-single - ----------------
#NOTES:
     dance-single:
     :
     Easy:
     3:
     0.131916,0.233139,0.054856,0.109712,0.000000,101.000000,95.000000,6.000000,12.000000,0.000000,0.000000,0.131916,0.233139,0.054856,0.109712,0.000000,101.000000,95.000000,6.000000,12.000000,0.000000,0.000000:
0000
0000
0000
0000
,
0000
0000
0000
0000
,
0000
0000
0000
0000
,
0000
0000
0000
0000
,
1000
0001
0000
0000
,
0100
0010
0000
0000
,
1000
0100
0000
0000
,
0010
0001
0000
0000
,
1000
0001
0100
0001
,
0010
0010
0000
0000
,
0100
1000
0010
1000
,
0100
0010
0000
0000
,
0002
0000
0000
0003
,
2000
0000
0000
3000
,
0020
0000
0000
0030
,
0200
0000
0000
0300
,
0001
0000
0000
0000
,
1000
0000
1000
0000
,
1001
0000
0000
0000
,
0001
0000
0001
0000
,
1001
0000
0000
0000
,
0010
0000
0010
0000
,
0100
0000
0100
0000
,
0001
0000
0001
0000
,
2000
3000
0200
0300
,
0020
0030
0002
0003
,
2002
0000
0000
3003
,
0001
1000
0010
1000
,
0100
0100
0000
0000
,
0010
0100
1000
0001
,
0100
0100
0000
0000
,
0010
1000
0100
0010
,
0100
1000
0001
0010
,
0001
0100
0010
1000
,
1001
0000
0000
0000
,
0110
0100
0100
0000
,
0010
0000
1000
0000
,
0002
0000
0000
0000
,
0000
0000
0000
0003
,
0100
0010
0000
0000
,
1000
0100
0000
0000
,
0010
0001
0000
0000
,
1000
0001
0000
0000
,
0100
0000
0010
0000
,
1000
0000
0001
0000
,
0010
0000
0001
0000
,
1000
0000
0100
0000
,
1000
0000
0010
0000
,
0100
0000
0001
0000
,
2000
0000
0000
0000
,
0000
0000
0000
3000
,
0110
0000
0000
0000
;

//---------------dance-single - ----------------
#NOTES:
     dance-single:
     :
     Beginner:
     1:
     0.078366,0.139883,0.036571,0.000000,0.000000,60.000000,56.000000,4.000000,0.000000,0.000000,0.000000,0.078366,0.139883,0.036571,0.000000,0.000000,60.000000,56.000000,4.000000,0.000000,0.000000,0.000000:
0000
0000
0000
0000
,
0000
0000
0000
0000
,
0000
0000
0000
0000
,
0000
0000
0000
0000
,
0010
0000
0000
0000
,
1000
0000
0000
0000
,
0001
0000
0000
0000
,
0100
0000
0000
0000
,
0001
0000
0001
0000
,
0001
0000
0000
0000
,
1000
0000
1000
0000
,
1000
0000
0000
0000
,
0010
0000
0000
0000
,
0100
0000
0000
0000
,
0001
0000
1000
0000
,
0001
0000
0000
0100
,
0000
0010
0000
0000
,
1000
0000
0000
0000
,
1001
0000
0000
0000
,
0010
0000
0000
0000
,
0110
0000
0000
0000
,
0001
0000
0000
0000
,
0001
0000
0000
0000
,
0001
0000
0000
0000
,
1000
0000
0100
0000
,
0010
0000
0001
0000
,
1001
0000
0000
0000
,
0010
0000
0000
0000
,
0100
0000
0000
0000
,
0001
0000
0000
0000
,
1000
0000
0000
0000
,
0100
0000
0100
0000
,
0010
0000
0010
0000
,
0001
0000
0001
0000
,
1000
0000
0000
0000
,
0001
0000
0000
0000
,
0100
0000
0000
0000
,
0010
0000
0000
0000
,
1000
0000
0000
0000
,
0001
0000
0000
0000
,
1000
0000
0000
0000
,
0010
0000
0000
0000
,
1000
0000
0000
0000
,
0001
0000
0000
0000
,
1000
0000
0000
0000
,
0100
0000
0000
0000
,
1000
0000
0000
0000
,
0010
0000
0000
0000
,
0100
0000
0000
0000
,
1001
0000
0000
0000
,
0000
0000
0000
0000
,
0010
0000
0000
0000
;

//---------------dance-single - ----------------
#NOTES:
     dance-single:
     :
     Challenge:
     13:
     0.463665,0.565018,0.191996,0.237710,0.562275,355.000000,334.000000,21.000000,26.000000,0.000000,0.000000,0.463665,0.565018,0.191996,0.237710,0.562275,355.000000,334.000000,21.000000,26.000000,0.000000,0.000000:
// measure 0
0000
0000
0000
0000
,  // measure 1
0000
0000
0000
0000
,  // measure 2
0000
0000
0000
0000
,  // measure 3
1010
0000
0100
0001
0010
0001
0000
0100
0000
0010
0100
0001
1000
0010
1000
0001
,  // measure 4
1000
0000
0100
0000
0021
0000
0000
0000
0000
0000
0130
1000
0000
1000
0100
0000
,  // measure 5
0010
0000
0001
0000
0102
0000
0000
0000
0000
0000
1003
0010
0000
0010
1000
0000
,  // measure 6
0100
0000
0010
0000
0021
0000
0000
0000
0000
0000
0130
1000
0000
1000
0100
0000
,  // measure 7
0010
0000
0100
0000
2000
0000
0000
0000
3000
0000
0001
0100
0000
0001
0100
0000
,  // measure 8
0010
1000
0100
0000
0001
0000
0100
1000
0000
0010
0000
0100
0010
1000
0100
0000
,  // measure 9
0001
1000
0110
0000
0000
0000
0000
0000
,  // measure 10
1000
0000
0010
0000
0100
0000
0001
0010
0000
0100
0010
0000
0001
1000
0000
0010
,  // measure 11
0000
0100
0001
0000
0110
0000
0000
0000
0000
0000
0000
0000
0000
0000
0000
0000
,  // measure 12
1000
0100
0001
0000
0100
0000
1000
0010
0001
0000
0010
0000
1000
0000
0000
0000
,  // measure 13
1000
0010
0001
0000
0100
0000
1000
0100
0001
0000
0100
0000
0001
0000
1000
0100
,  // measure 14
0010
0001
1000
0010
0100
0001
0000
1000
0000
0100
0010
0100
1000
0001
0000
0100
,  // measure 15
0000
0010
0000
0000
1000
0100
0010
0000
0022
0000
0000
0000
0033
0000
0000
0000
,  // measure 16
0000
0000
0000
0000
0001
0010
0100
0000
2200
0000
0000
0000
3300
0000
0000
0000
,  // measure 17
0001
0001
0001
0001
0001
0001
0001
0001
,  // measure 18
1000
0000
0010
1000
0100
0001
0000
0100
0000
0010
0000
0100
0000
0010
0001
0000
,  // measure 19
0010
0010
0010
0010
0010
0010
0010
0010
,  // measure 20
0100
0000
0010
0001
0100
0010
0000
1000
0000
0100
0000
1000
0000
0100
1000
0000
,  // measure 21
0001
0100
0000
0100
0001
0000
0001
1000
0000
1000
0100
0000
0000
0000
0000
0000
,  // measure 22
0010
0100
0000
0100
1000
0000
1000
0001
0000
0001
0100
0000
0000
0000
0000
0000
,  // measure 23
0010
1000
0000
1000
0100
0000
0100
0010
0000
0010
0001
0000
0000
0000
0000
0000
,  // measure 24
1000
1000
1000
1000
0100
0100
0100
0100
,  // measure 25
0010
0010
0010
0010
0001
0001
0001
0001
,  // measure 26
2002
0000
0000
0000
0000
0000
0000
3003
,  // measure 27
0001
0100
1000
0000
1100
0000
1000
0100
0000
0110
0000
0100
0010
1000
0001
0000
,  // measure 28
1001
0010
1001
0000
0000
0000
0000
0000
,  // measure 29
0011
0000
0010
0000
1010
0000
0010
0001
0000
0100
1000
0000
0100
0010
0000
1000
,  // measure 30
0000
0100
0010
0000
1001
0000
0000
0000
0000
0000
0000
0000
0000
0000
0000
0000
,  // measure 31
0001
0100
0020
0000
1030
0000
0100
0010
0002
0000
1003
0000
0110
0000
0000
0000
,  // measure 32
0010
1000
0200
0000
0310
0000
0100
1000
0002
0000
0103
0000
1001
0000
0001
0010
,  // measure 33
0100
0010
0001
1000
0100
0010
0000
0100
0000
0000
0010
0001
0100
0010
0000
1000
,  // measure 34
0000
0001
0000
0000
1000
0100
0010
0000
2002
0000
0000
0000
3003
0000
0000
0000
,  // measure 35
0110
1000
0010
0100
,  // measure 36
0001
0010
1000
0010
,  // measure 37
0004
4000
0000
0000
0000
0000
0000
0000
0000
0000
0000
0000
0000
0000
0000
0000
,  // measure 38
0000
0000
0000
0000
0000
0000
0000
3003
,  // measure 39
0001
0200
0000
0310
2000
0000
3000
0000
0000
0000
0000
0000
0000
0000
0000
0000
,  // measure 40
0100
0020
0000
0031
0200
0000
0300
0000
0000
0000
0000
0000
0000
0000
0000
0000
,  // measure 41
0010
2000
0000
3001
0020
0000
0030
0000
0000
0000
0000
0000
0000
0000
0000
0000
,  // measure 42
0100
0020
0000
0130
2000
0000
0000
0000
3000
0000
0000
0000
0000
0000
0000
0000
,  // measure 43
0001
0100
0010
0000
1000
0000
0001
0010
0000
0100
0000
0010
0001
0000
0000
0000
,  // measure 44
1000
0001
0100
0000
0001
0000
0010
0100
0000
0010
0000
0001
1000
0000
0000
0000
,  // measure 45
0010
1000
0100
0000
0010
0000
0100
1000
0000
0010
0000
1000
0001
0000
0000
0000
,  // measure 46
0010
0001
1000
0000
0010
0000
0100
0001
0000
0010
0000
0100
0010
0000
0000
0000
,  // measure 47
0100
1000
0001
0000
0100
0000
0001
0010
0000
0001
0000
1000
0100
0000
0000
0000
,  // measure 48
0010
0100
1000
0000
0001
0000
0100
0001
0000
0010
0000
0100
0010
0000
0000
0000
,  // measure 49
0004
4000
0000
0000
0000
0000
0000
0000
0000
0000
0000
0000
0000
0000
0000
0000
,  // measure 50
0000
0000
0000
3003
,  // measure 51
0220
0000
0330
0000
;
