#TITLE:666;
#SUBTITLE:;
#ARTIST:RoughSketch;
#TITLETRANSLIT:;
#SUBTITLETRANSLIT:;
#ARTISTTRANSLIT:;
#GENRE:SATANIC;
#CREDIT:;
#BANNER:banner.png;
#BACKGROUND:background.png;
#LYRICSPATH:;
#CDTITLE:cdtitle.png;
#MUSIC:666.ogg;
#OFFSET:-0.224000;
#SAMPLESTART:88.147919;
#SAMPLELENGTH:11.531532;
#SELECTABLE:YES;
#BPMS:0.000000=166.500000
,32.000000=333.000000
,191.000000=166.500000
,205.000000=333.000000
,213.000000=166.500000
,291.000000=333.000000
,347.000000=166.500000
,352.000000=333.000000
,472.000000=666.000000
,537.000000=333.000000
;
#STOPS:144.000000=0.180000,
347.000000=1.081000,
453.500000=0.360000,
459.500000=0.360000,
472.000000=0.631000
;
#BGCHANGES:;
#KEYSOUNDS:;
#ATTACKS:;

//---------------dance-single - ----------------
#NOTES:
     dance-single:
     :
     Hard:
     18:
     1.066116,1.860804,0.792142,0.200120,0.446101,895.000000,800.000000,95.000000,24.000000,0.000000,0.000000,1.066116,1.860804,0.792142,0.200120,0.446101,895.000000,800.000000,95.000000,24.000000,0.000000,0.000000:
0000
0000
0000
0000
,
0000
0000
0000
0000
,
0000
0000
0000
0000
,
0000
0000
0000
0000
,
1000
0010
0100
0001
0010
0001
1000
0100
,
1000
0001
0010
0100
1000
0001
0010
0001
,
0100
0010
0100
0010
0100
0010
0100
0010
0100
0010
0100
0010
0100
0010
0100
0010
,
0200
0000
0000
0300
,
1001
0000
1001
0000
0001
1000
0020
0000
,
0130
0001
0020
0000
0130
0010
0002
0000
,
1003
0000
1010
0000
1000
0100
0010
0001
,
0020
0000
0000
0000
0031
0010
0001
0000
,
0101
0000
1000
0100
1000
0100
0010
0100
,
0010
0100
0010
0001
0010
0001
1000
0001
,
1000
0001
0100
0010
0100
0010
1000
0010
,
1000
1001
0110
1001
,
0011
0000
0010
0100
0010
0100
1000
0100
,
1000
0100
1000
0001
1000
0010
0100
1000
,
0100
0001
0010
0100
1000
0001
1000
0001
,
0100
0101
0011
0110
,
1100
0000
0001
0100
0001
0100
0010
0100
,
0010
1000
0010
1000
0010
0100
0001
0100
,
0001
0010
1000
0010
0001
0000
0000
0000
,
1000
0100
0001
0100
1000
0000
0000
0000
,
1001
0000
0001
0100
0010
1000
0001
0010
,
0100
0010
0001
0100
0010
1000
0100
0010
,
0002
0000
0000
0000
,
2000
0000
0000
3003
,
0110
0110
0110
0110
,
1001
1001
1001
1001
,
0110
0110
0110
0110
,
1001
1001
1001
1001
,
0110
0110
0110
0110
,
1001
0000
0000
1001
0000
0000
0001
0000
0100
0000
0010
0000
,
1000
0000
0100
0010
0001
0100
0000
0010
,
0100
0000
0000
0100
0000
0010
1000
0000
,
0000
0000
0001
1000
0001
0000
1010
0000
,
1010
0101
0101
0011
,
0011
0110
0110
1100
,
1100
1001
1001
0010
,
0101
0101
0101
0100
,
1010
1010
1010
1000
,
0001
0010
0000
0100
0010
0000
0000
0000
,
0100
2000
0000
3010
,
0000
0100
0000
0002
,
0000
0000
0203
0000
0000
0000
0310
1000
,
0010
1000
0001
0100
0001
0100
0001
0000
,
0000
0000
0000
1001
,
1001
0000
0010
0000
0100
1000
0010
0000
0100
0000
0001
0000
0010
0100
1000
0000
,
0001
0000
0010
0000
0001
0100
0010
0000
0100
0000
0001
0000
2000
0000
0000
0000
,
3200
0000
0010
0000
0310
0100
1000
0000
0100
0000
1000
0000
0010
0100
0001
0000
,
0010
0100
0011
0000
0110
0000
1100
0000
,
1001
0000
0110
0000
0000
0100
0000
0000
,
0110
0000
0000
0000
1001
0000
0010
0001
0100
0000
0010
0000
1000
0000
0100
1000
,
0010
0000
0100
0000
0010
0000
1000
0001
0010
0000
0100
0000
0010
0000
0200
0000
,
1300
0100
0001
0100
1000
0000
0010
0000
0100
0000
0001
0000
0000
0000
0020
0000
,
1030
0010
0001
0010
1000
0000
0100
0000
1000
0000
0001
0000
1000
0100
0010
0001
,
0010
0100
0010
0001
1000
0100
0010
0100
1000
0100
0010
0001
0010
0100
0010
0001
,
0010
0100
1000
0100
0010
0100
1000
0100
0010
0001
0010
0100
0010
0001
0010
0100
,
1000
0100
0010
0100
1000
0100
0010
0001
0010
0100
0010
0001
0010
0100
1000
0100
,
0010
0100
1000
0100
0010
0001
0010
0100
0010
0001
0010
0100
0010
0001
1000
0010
,
0100
0010
0100
0001
1000
0010
0100
0001
1000
0100
0010
0001
1000
0100
0010
0001
,
1000
0010
1000
0010
0100
0001
0100
0001
0010
0001
0010
0001
1000
0100
1000
0100
,
1000
0001
0100
0001
0100
0001
0010
0001
0010
0001
1000
0010
1000
0010
1000
0100
,
0010
0100
1000
0001
0010
0100
0010
0001
0010
0100
1000
0001
0100
0000
0010
0000
,
1000
0010
0100
0001
0010
0000
0100
0000
0010
0000
0001
0000
0000
0000
1000
0000
,
0001
0010
0001
1000
0001
0000
0100
0000
0010
0000
1000
0000
0000
0000
0100
0000
,
0010
0100
1000
0100
0010
0000
0100
0000
1000
0000
0010
0000
0110
0000
0100
0000
,
0001
0010
1100
0100
0010
0001
0000
1000
,
0001
0100
0010
1000
0100
0000
0010
0000
0100
0000
1000
0000
0000
0000
0100
0000
,
0010
0001
1000
0100
0010
0000
0100
0000
1000
0000
0010
0000
0000
0000
0100
0000
,
0010
1000
0001
0010
0100
0000
0010
0000
0001
0000
1000
0000
0001
0000
0100
0000
,
1000
0010
0002
0000
1003
0000
0101
0000
,
1010
0000
1000
0100
0010
0000
0011
0000
,
1100
0000
0100
1000
0010
0000
0110
0000
,
0101
0000
0001
0010
0100
0000
1001
0000
,
0110
2002
3003
1001
,
1010
0000
1000
0001
0010
0000
1100
0000
,
0110
0000
0100
1000
0010
0000
0110
0000
,
0101
0000
0001
0010
0100
0000
0110
0000
,
0011
1001
0000
1001
,
1000
0100
0010
0100
,
0100
1000
1000
0000
,
0100
1000
0010
0100
,
0100
0001
0001
0000
,
1000
0100
0001
0100
,
0010
0001
1000
0110
,
0100
0000
1000
0000
0100
0000
0001
0000
0100
0000
0010
0000
0100
0010
0100
0000
,
1000
0000
0001
0000
0010
0100
0010
0001
,
1000
0001
0100
0010
,
0000
0000
0100
0000
0010
1000
0001
0010
,
0100
0010
0001
1000
,
0000
0000
0100
0000
1000
0010
0100
0010
,
1000
0001
0010
0100
,
1100
0100
0010
0001
,
0101
0001
0100
0010
,
0200
0000
0000
0310
1000
0001
0010
0000
,
0100
0010
0001
1000
,
0000
0000
0001
0000
0010
0001
0100
0001
,
1000
0000
0000
0100
0000
0000
1000
0000
0010
0000
0100
0000
,
0001
0010
0001
0010
0001
0000
0010
0000
,
0001
0000
0100
0000
0001
0000
1000
0100
,
0010
0000
0001
0010
0100
0000
0110
0000
,
0100
0001
0100
1000
0010
0000
1001
0000
,
0001
0100
0010
0100
0010
1000
0001
0010
,
0100
0010
0001
0100
0010
1000
0001
0010
,
0100
0010
0001
0100
0010
1000
0001
0010
,
0200
0000
0000
1300
0020
0000
0000
0000
,
0130
0001
0010
0001
0100
0010
1000
0001
,
0010
0100
0010
0001
0100
0010
1000
0100
,
0010
0100
1000
0010
0100
0001
0010
0100
,
0020
0000
0000
0031
0200
0000
0000
0310
,
1000
0100
0010
0100
1000
0010
0100
0001
,
0010
0100
0010
0001
0001
1000
0010
1000
,
0001
0010
0100
0010
0001
1000
0100
0010
,
0100
0010
0001
0000
0010
0000
0100
0000
,
1000
0010
0100
0000
0001
0000
1000
0000
,
0001
0100
0010
1000
0001
0010
0100
0000
,
0000
1000
0010
1000
,
0010
0100
0010
0100
,
0001
0100
0001
0100
,
0010
1000
0010
1000
,
0001
0100
0001
0100
,
0001
1000
0001
1000
,
0001
1001
0000
1001
,
0000
1001
0000
1001
,
0000
0100
0010
1000
,
0001
0100
0010
1000
,
0001
0100
0010
0100
,
0010
1000
0001
0100
,
0010
0110
0000
0110
,
0000
0000
0000
1000
0000
0001
0000
1000
0000
0001
0000
0000
,
1000
0000
0000
0001
0000
1000
0000
0001
0000
1000
0000
0000
,
0001
0000
0000
1000
0000
0001
0000
1000
0000
0001
0000
0000
,
1000
0220
0000
0000
,
0000
0330
0000
0000
;

//---------------dance-single - ----------------
#NOTES:
     dance-single:
     :
     Easy:
     13:
     0.552713,0.903876,0.375225,0.416917,0.004169,464.000000,419.000000,45.000000,50.000000,0.000000,0.000000,0.552713,0.903876,0.375225,0.416917,0.004169,464.000000,419.000000,45.000000,50.000000,0.000000,0.000000:
0000
0000
0000
0000
,
0000
0000
0000
0000
,
0000
0000
0000
0000
,
0000
0000
0000
0000
,
1000
0010
0100
0001
,
0010
1000
0010
0001
,
0010
0001
0100
0010
1000
0001
0010
0100
,
1000
0000
0100
0000
0010
0100
1000
0000
,
0110
0110
0000
0000
,
0000
0000
0000
0000
,
1001
1001
0000
0000
,
0110
0000
1001
0000
,
0001
0000
0100
0000
,
0010
0000
1000
0000
,
0001
0000
0010
0000
,
0100
0010
0001
1000
,
0010
0000
0100
0000
,
0010
0000
1000
0000
,
0001
0000
0000
0001
0000
0000
0001
0000
,
1000
0100
0010
0001
,
1000
0000
0001
0000
,
0100
0000
0010
0000
,
1000
0010
0100
0000
,
0001
0010
0100
0000
,
0010
0000
0001
0000
,
1000
0000
0010
0000
,
0210
0000
0000
0000
,
0302
0000
0000
0000
,
0013
0001
0010
0001
,
1000
0100
1000
0100
,
1000
0010
1000
0010
,
0100
0010
0100
0010
,
0100
0001
0100
0001
,
0010
0001
0010
0001
,
0010
0100
0010
0100
,
1000
0100
1000
0001
,
0000
1000
0100
0010
,
0100
1000
0010
0100
,
0001
0010
0100
0010
,
0001
0100
0010
0000
,
1000
0001
0110
0000
,
0100
0010
1001
0001
,
0000
0100
0000
0000
0010
0000
0000
0000
,
1000
0000
0000
1100
,
0000
0011
0000
0020
,
0000
0032
0000
0103
,
0010
2000
0002
0000
,
0000
3000
0003
0011
,
1200
0310
2100
3010
,
0102
0013
0100
1001
,
0001
0100
0120
0000
1030
0000
0120
0000
,
0130
0001
0010
0100
,
1000
0000
0100
0000
0000
1000
0000
0000
,
0010
0210
0301
0120
,
1030
0000
0120
0000
0130
0000
0000
0001
,
1000
0010
1000
0001
0010
0100
0000
0100
,
0010
0001
0010
0100
1000
0000
0200
0000
,
1300
0020
0130
0002
,
1003
0200
1300
0020
,
0130
0020
0031
0002
,
0103
0020
1030
1002
,
0203
0302
0023
0230
,
2300
3200
2300
3020
,
0230
0302
0023
0230
,
0320
0032
2003
3001
,
1000
0000
0010
1000
0010
1000
0000
0100
,
0010
0000
0001
1000
0100
0010
0000
0100
,
1000
0000
0100
0000
0010
0000
0001
0001
,
0010
0100
1000
1000
0100
0010
0000
0100
,
1000
0010
0100
0001
1000
0010
0000
1000
,
0010
0100
0001
0010
0100
0010
0000
0100
,
1000
0100
0010
0001
0100
0010
0100
1000
,
0100
0001
0020
0000
0030
0000
1001
0000
,
1001
0000
0000
0110
,
0110
0000
0000
1001
,
1001
0000
0000
0110
,
1001
0110
0000
1001
,
1001
0000
0000
0110
,
0110
0000
0000
1001
,
1001
0000
0000
0110
,
1001
0110
0000
0001
,
0000
1000
0000
0010
,
0000
1000
0000
0100
,
0000
0010
0000
0100
,
0000
1000
0000
0010
,
0100
0010
1000
0001
,
0010
0100
1000
0002
,
1003
0000
0100
0000
0010
0000
0100
0000
1000
0000
0001
0000
0010
0001
0010
0000
,
0001
1000
0100
1000
,
0010
0010
0100
0100
,
0000
0010
1000
0001
,
0010
0010
0001
0001
,
0000
1000
0001
0010
,
0100
0100
0010
0010
,
0100
0001
0100
1000
,
0100
0010
0001
1000
,
0000
0001
0100
1000
,
0100
0100
0010
0010
,
1000
0001
0010
0100
,
0010
0010
0001
0001
,
1000
0001
0010
0001
,
1000
1000
0001
0001
,
0100
1000
0100
0001
,
0010
0100
1000
0000
,
0001
0100
0010
1000
,
0001
0010
0100
0010
,
0001
0100
0010
1000
,
0200
0000
2300
0000
,
3010
1000
0001
0010
,
0100
0010
0001
1000
,
0010
1000
0001
0010
,
0200
0000
2300
0000
,
3010
1000
0001
0010
,
0100
1000
1000
0100
,
0010
0001
0010
0100
,
0010
0001
0100
0010
,
1000
0001
0010
0100
,
0010
0001
0100
0010
,
0000
2002
0000
0000
,
0000
0000
0000
0000
,
0000
0000
0000
0000
,
0000
0000
0000
0000
,
0000
0000
0000
0000
,
0000
3003
0000
0000
,
0000
0001
0000
0100
,
0000
0010
0000
1000
,
0000
2002
0000
0000
,
0000
0000
0000
0000
,
0000
0000
0000
0000
,
0000
3003
0000
0000
,
0000
1001
0000
1001
,
0000
0010
0000
0000
,
0000
0010
0000
0000
,
0000
0010
0000
0000
,
0000
2002
0000
0000
,
0000
0000
3003
0000
;

//---------------dance-single - ----------------
#NOTES:
     dance-single:
     :
     Medium:
     16:
     0.793333,1.071372,0.416917,0.175105,0.095891,666.000000,616.000000,50.000000,21.000000,0.000000,0.000000,0.793333,1.071372,0.416917,0.175105,0.095891,666.000000,616.000000,50.000000,21.000000,0.000000,0.000000:
0000
0000
0000
0000
,
0000
0000
0000
0000
,
0000
0000
0000
0000
,
0000
0000
0000
0000
,
1000
0010
0100
0001
0010
0100
0010
0001
,
1000
0010
0100
0001
0010
0100
0010
0001
,
1000
0100
0010
0001
1000
0100
0010
0001
,
1000
0000
0000
0000
,
1001
1001
0001
0100
,
0010
1000
0001
0100
,
1001
1001
0001
0100
,
0110
0000
0000
0000
0001
1000
0001
0000
,
1000
0100
1000
0001
,
0100
0001
0010
0100
,
0010
0001
0100
0010
,
0110
0100
0101
0001
,
1001
1000
0001
0010
,
0100
0010
0002
1003
,
0020
0130
0002
0013
,
1100
1100
0101
0101
,
1001
0001
0010
0001
,
0100
0010
1000
0100
,
0010
0001
0010
0001
0010
0000
0000
0000
,
0100
1000
0100
1000
0100
0000
0000
0000
,
1000
0001
0100
0010
,
1000
0100
0010
0001
,
2001
0000
0000
0000
,
3020
0000
0000
0000
,
0130
0100
0100
0100
,
0001
0001
0001
0001
,
1000
1000
1000
1000
,
0001
0001
0001
0001
,
1000
1000
1000
1000
,
0010
0010
0010
0010
,
0100
0100
0100
0100
,
0001
0000
0000
0001
0000
0001
1000
0000
,
0000
0001
0001
1000
,
1000
1000
1000
0001
,
0001
0001
0001
0100
,
0100
0100
0100
0010
,
0010
0010
0010
1000
,
1000
1000
1000
0010
,
0100
0010
0000
1000
0001
0000
0000
0000
,
0010
0100
0000
1100
,
0000
0101
0000
0002
,
0000
0000
2003
0000
0000
0000
3010
0100
,
0010
0100
0010
0100
0010
0200
0020
0000
,
0000
0300
0030
1001
,
1000
0001
0100
0001
0010
0100
0010
0001
,
1000
0100
0010
0100
1000
0010
0200
0000
,
0001
0000
0310
0100
0001
0010
0001
1000
,
0001
0010
0001
0000
0001
0000
1000
0000
,
1000
0000
0110
0000
0000
0100
0000
0000
,
1001
0000
1000
0100
0010
0001
0010
0001
,
0100
0001
1000
0100
0010
0100
0000
0010
,
0001
0100
0001
1000
0001
0000
1000
0000
0100
0000
0010
0000
0000
0000
0100
0000
,
1000
0100
1000
0001
0100
0000
0001
0000
0020
0000
0000
0000
0130
0000
0000
0010
,
0001
0000
0100
0000
0010
0000
0000
0100
0010
0000
1000
0000
0001
0000
0000
1000
,
0100
0000
1000
0000
0010
0000
0000
0100
0001
0000
0010
0000
0001
0000
0000
0010
,
0001
0000
0100
0000
0010
0000
0000
0100
0010
0000
1000
0000
0001
0000
0000
0010
,
0100
0000
0010
0000
0001
0000
0000
1000
0001
0000
0100
0000
0110
0000
0000
0100
,
0010
0000
1000
0000
0002
0000
0000
0013
0100
0000
0010
0000
0002
0000
0000
0103
,
0010
0000
1000
0000
0200
0000
0000
0310
0100
0000
1000
0000
0020
0000
0000
0130
,
0001
0000
0010
0000
0200
0000
0000
0310
0001
0000
1000
0000
0002
0000
0000
1003
,
0010
0000
0100
0000
0020
0000
0000
0130
0001
0000
1000
0000
1001
0000
0001
0000
,
0100
1000
0100
0100
0010
0010
0000
1000
,
0010
0100
0001
0001
0010
0010
0000
0100
,
0010
0001
1000
1000
0001
0001
1000
0100
,
0001
0100
1000
0100
0010
0001
0000
1000
,
0100
0001
0100
0100
0010
0010
0000
0100
,
0010
0001
0100
0100
0001
0001
0000
1000
,
0010
0100
0001
0010
0100
0010
0001
1000
,
0100
0010
0002
0000
0103
0000
1001
0000
,
1001
0010
0100
1001
,
1001
0100
0010
1001
,
1001
0010
0100
1001
,
0110
1001
0000
1001
,
1001
0100
0010
1001
,
1001
0010
0100
1001
,
1001
0100
0010
1001
,
1001
1001
0000
0001
,
0100
0010
1000
0001
,
0001
0100
0100
0000
,
0010
1000
0100
0010
,
0010
0100
0100
0000
,
0010
0001
0100
0001
,
0001
1000
1000
0110
,
0100
0000
0010
0000
1000
0000
0001
0000
0010
0000
0100
0000
1000
0001
1000
0000
,
0010
1000
0100
1000
,
0001
0100
0001
0010
,
0100
0010
0001
1000
,
0010
0000
0100
0000
0001
0000
0010
0100
,
1000
0100
1000
0010
,
0100
0001
0010
0001
,
1000
0001
0100
0001
1000
0000
0001
0000
,
1000
0001
0010
0001
1000
0000
0001
0000
,
0100
0000
0010
0100
0010
0000
1000
0000
,
0001
0010
0001
1000
,
0100
0010
0100
1000
,
0001
0000
0000
0100
0000
0000
0001
0000
0000
0100
0000
0000
0001
0000
0000
0000
0100
0000
0000
0000
0010
0000
0000
0000
,
1000
0001
1000
0001
1000
0000
0010
0000
,
0100
0010
1000
0001
,
1000
0000
0100
0010
0001
0000
0011
0000
,
0001
0010
0100
0000
1001
0000
0000
0000
,
0001
0100
0001
0000
0100
0000
0010
0000
,
1000
0001
1000
0000
0001
0000
0010
0000
,
0100
1000
0100
0000
1000
0000
0010
0000
,
0100
0001
0100
0000
0010
0100
0010
0000
,
1000
0010
1000
0000
0001
0000
0010
0000
,
0100
0010
0100
0000
1000
0000
0010
0000
,
0100
0001
0100
0000
0001
0000
0010
0000
,
0100
0010
0100
0000
0010
0001
0010
0000
,
0001
0100
0010
1000
,
0001
0010
0100
0010
,
0001
0100
0010
1000
,
0001
1000
0010
0001
,
0010
0100
0001
0010
,
0100
0010
0011
1100
,
0000
0001
1000
0001
,
1000
0001
1000
0001
,
1000
0001
1000
0001
,
1000
0001
1000
0001
,
1000
0001
1000
0001
,
1000
0001
1000
0001
,
0000
1001
0000
0110
,
0000
1001
0000
0110
,
0000
0001
1000
0001
,
1000
0001
1000
0001
,
1000
0001
1000
0001
,
1000
0001
1000
0001
,
1000
0001
0000
1001
,
0000
0100
0010
0100
,
0000
0010
0100
0010
,
0000
0100
0010
0100
,
0000
2002
0000
0000
,
0000
3003
0000
0000
;

//---------------dance-single - ----------------
#NOTES:
     dance-single:
     :
     Beginner:
     8:
     0.288268,0.447769,0.125075,0.000000,0.000000,242.000000,227.000000,15.000000,0.000000,0.000000,0.000000,0.288268,0.447769,0.125075,0.000000,0.000000,242.000000,227.000000,15.000000,0.000000,0.000000,0.000000:
0000
0000
0000
0000
,
0000
0000
0000
0000
,
0000
0000
0000
0000
,
0000
0000
0000
0000
,
1000
0000
0000
0000
,
0001
0000
0000
0000
,
0100
0000
0010
0000
,
1000
0000
0001
0000
,
0010
0010
0000
0000
,
0000
0000
0000
0000
,
0100
0100
0000
0000
,
1001
0000
0001
0000
,
1000
0000
1000
0000
,
0001
0000
0001
0000
,
1000
0000
1000
0000
,
0001
1000
0001
1000
,
0001
0000
0100
0000
,
0010
0000
1000
0000
,
0010
0000
0100
0000
,
0001
0010
0100
1000
,
0100
0000
1000
0000
,
0010
0000
0100
0000
,
0001
1000
0001
0000
,
1000
0001
1000
0000
,
0001
0000
1000
0000
,
0010
0000
0100
0000
,
1001
0000
0000
0000
,
0110
0000
0000
0000
,
1000
0000
1000
0000
,
0001
0000
0001
0000
,
0010
0000
0010
0000
,
0100
0000
0100
0000
,
0010
0000
0010
0000
,
0001
0000
1000
0000
,
0001
0000
0001
0000
,
1000
0000
1000
0000
,
0000
0001
0000
1000
,
0000
1000
0000
0001
,
0000
0001
0000
0100
,
0000
0100
0000
0000
,
0010
0010
0010
0000
,
0100
0100
0100
0010
,
0000
1000
0000
0001
,
0000
0000
0000
1000
,
0000
0001
0000
0110
,
0000
1001
0000
0001
,
1000
0001
1000
0000
,
0000
0000
0000
1000
,
0000
0001
0000
0010
,
0001
0100
0000
0010
,
0000
1000
0000
0100
,
1000
0010
0100
0010
,
1000
0001
0000
0000
,
0000
1000
0000
0001
,
0000
0010
0000
0001
,
0000
1000
0000
0001
,
0000
0100
0000
0001
,
0000
0010
0000
0100
,
0000
1000
0000
0100
,
0000
1000
0000
0010
,
0000
0100
0000
0010
,
0000
1000
0000
0001
,
0000
0010
0000
0001
,
0000
1000
0000
0100
,
0000
1000
0000
0010
,
0000
0000
0100
0001
,
0000
0000
0010
0001
,
0000
1000
0000
0001
,
0000
0000
0000
0100
,
0000
0000
0010
1000
,
0000
0000
0000
0100
,
0000
1000
0000
0001
,
0000
0000
0000
1000
,
1000
0000
0000
0001
,
0001
0000
0000
1000
,
1000
0000
0000
0001
,
1000
0001
0000
0100
,
0100
0000
0000
0010
,
0010
0000
0000
0100
,
0100
0000
0000
0010
,
0100
0010
0000
1001
,
0000
0001
0000
1000
,
0000
1000
0000
0000
,
0000
0001
0000
1000
,
0000
0010
0000
0000
,
0000
1000
0000
0001
,
0000
0010
0000
0000
,
0000
0000
0000
0000
,
1000
0000
0001
0000
,
0100
0001
0100
0000
,
0001
0000
1000
0000
,
0010
1000
0010
0000
,
1000
0000
0001
0000
,
0010
0001
0010
0000
,
0001
0000
1000
0000
,
0001
0000
0100
0000
,
0000
0000
0010
0000
,
1000
0000
0010
1000
,
0000
0000
0010
0000
,
0100
0000
0001
0010
,
0100
0000
0010
0000
,
0001
0000
1000
0000
,
0001
0000
0100
0000
,
0010
0000
1000
0000
,
1001
0000
0000
0000
,
0110
0000
0000
0000
,
1001
0000
0000
0000
,
0110
0000
0000
0000
,
1001
0000
0000
0000
,
0110
0000
0000
0000
,
0110
0000
0000
0000
,
1001
0000
0000
0000
,
0001
0000
1000
0000
,
0010
0000
1000
0000
,
0001
0000
0010
0000
,
0100
0000
0010
0000
,
0001
0000
0000
0000
,
1000
0000
0001
0000
,
0100
0010
0000
0000
,
0000
0000
0000
0000
,
0000
0000
0000
0000
,
0000
0000
0000
0000
,
0000
0000
0000
0000
,
0000
0000
0000
0000
,
0000
0100
0000
0000
,
0000
0010
0000
0000
,
0000
1000
0000
0000
,
0000
0000
0000
0000
,
0000
0000
0000
0000
,
0000
0000
0000
0000
,
0000
0001
0000
0000
,
0000
0000
0000
0000
,
0000
0000
0000
0000
,
0000
0000
0000
0000
,
0000
1001
0000
0000
;

//---------------dance-single - ----------------
#NOTES:
     dance-single:
     :
     Challenge:
     19:
     1.178088,2.029968,1.108999,0.358548,0.667067,989.000000,856.000000,133.000000,43.000000,0.000000,0.000000,1.178088,2.029968,1.108999,0.358548,0.667067,989.000000,856.000000,133.000000,43.000000,0.000000,0.000000:
// measure 0
0000
0000
0000
0000
,  // measure 1
0000
0000
0000
0000
,  // measure 2
0000
0000
0000
0000
,  // measure 3
0000
0000
0000
0000
,  // measure 4
0001
0100
0010
1000
0100
1000
0001
0010
,  // measure 5
0001
1000
0100
0010
0001
1000
0100
1000
,  // measure 6
0010
0100
0010
0100
0010
0100
0010
0100
0010
0100
0010
0100
0010
0100
0010
0100
,  // measure 7
0001
0010
0100
1000
0001
0010
0100
0010
0001
1000
0100
0010
0001
0000
0000
0000
,  // measure 8
1001
0000
0000
0000
0000
0000
1001
0000
0000
0000
0000
0000
0001
0000
1000
0000
0001
0000
1000
0000
0000
0001
0000
0000
,  // measure 9
1000
0000
0001
0000
1000
0000
0001
0000
0000
1000
0000
0000
0001
0000
1000
0000
0001
0000
1000
0000
0000
0001
0000
0000
,  // measure 10
1001
0000
0000
0000
0000
0000
1001
0000
0000
0000
0000
0000
1000
0000
0001
0000
1000
0000
0001
0000
0000
1000
0000
0000
,  // measure 11
1001
0000
0000
0000
0100
0010
1000
0000
,  // measure 12
1200
0000
0310
0001
0100
0010
1000
0100
,  // measure 13
0010
0100
1000
0010
0100
0001
0010
0100
,  // measure 14
1000
0100
1000
0010
0100
0001
0010
0100
,  // measure 15
1100
1100
0011
0011
,  // measure 16
1001
0000
0001
0100
0010
1000
0100
0010
,  // measure 17
0100
0010
0001
1000
0020
0130
0001
0010
,  // measure 18
0200
1300
0010
0200
0310
1000
0002
0013
,  // measure 19
0110
1100
0110
0011
,  // measure 20
1001
1000
0001
0100
0001
0010
0100
0010
,  // measure 21
0001
0100
0010
1000
0001
0010
0100
1000
,  // measure 22
0001
0100
1000
0100
0001
0000
1001
0000
,  // measure 23
1000
0010
0001
0010
1000
0000
1001
0000
,  // measure 24
0101
0000
0100
0010
2000
3100
0010
0100
,  // measure 25
1000
0100
0020
0230
1300
0100
0010
0001
,  // measure 26
2002
0000
0000
3003
,  // measure 27
0220
0000
0000
0330
,  // measure 28
1010
1010
1010
1010
,  // measure 29
0101
0101
0101
0101
,  // measure 30
0011
0011
0011
0011
,  // measure 31
1100
1100
1100
1100
,  // measure 32
1001
1001
1001
1001
,  // measure 33
0101
0000
0000
0101
0000
0000
0101
0000
0001
0000
0100
0000
,  // measure 34
1010
0000
1000
0001
1000
0100
0000
0010
,  // measure 35
0100
0000
0000
1100
0000
0010
0001
0000
,  // measure 36
1000
0000
0001
0100
0001
0000
0101
0000
,  // measure 37
0101
1010
1010
1001
,  // measure 38
1001
0000
1100
0000
1100
0000
0001
0010
,  // measure 39
0001
0010
0000
0100
0000
1000
0000
0000
,  // measure 40
1001
1010
0101
0000
,  // measure 41
1001
0011
1100
1100
,  // measure 42
0100
0010
0000
0010
0002
0000
0000
0000
,  // measure 43
1000
1003
0000
0110
,  // measure 44
0000
1010
0000
0002
,  // measure 45
0000
0000
0023
0000
0000
0000
0230
0320
,  // measure 46
0032
0203
0320
2030
3002
2000
0000
0000
,  // measure 47
0000
3000
0003
1001
,  // measure 48
0001
0100
0010
1000
0100
0010
0001
0010
0100
0010
0001
0100
0010
1000
0001
0010
,  // measure 49
0100
0010
0001
0100
0010
1000
0100
0010
0001
0010
0100
1000
2001
0000
0000
0000
,  // measure 50
3020
0000
0000
0000
0130
0010
1000
0100
0010
0100
1000
0010
0100
0001
0010
0100
,  // measure 51
0010
0001
0100
0010
1010
0000
0000
0000
0101
0000
0000
0000
0011
0000
0000
0000
,  // measure 52
0110
0000
1100
0000
0000
0110
0000
0000
,  // measure 53
0011
0000
0000
0000
1100
0100
1000
0010
0100
0001
0010
0100
0010
0001
0100
0010
,  // measure 54
1000
0100
1000
0010
0100
0001
0010
0100
0010
0100
1000
0001
1000
0000
0100
0000
,  // measure 55
1000
0010
0001
0010
1000
0000
0010
0000
1000
0000
0101
0000
0000
0000
0001
0000
,  // measure 56
0010
0000
0000
1000
0000
0000
0010
0000
0000
0001
0000
0000
0100
0000
0000
0000
0000
0000
0010
0000
0000
0000
0000
0000
1001
0000
0000
0000
0000
0000
0000
0000
0000
0000
0000
0000
1000
0000
0010
0000
1000
0000
0010
0000
0000
0100
0000
0000
,  // measure 57
0001
0000
0000
0000
0000
0000
0010
0000
0100
0000
0010
0000
0100
0000
0000
1000
0000
0000
0001
0000
0000
0000
0000
0000
1001
0000
0000
0000
0000
0000
0000
0000
0000
0000
0000
0000
0001
0000
0010
0000
0001
0000
0010
0000
0000
0100
0000
0000
,  // measure 58
1000
0000
0100
0000
1000
0000
0100
0000
0000
1000
0000
0000
1001
0000
0000
0000
0000
0000
0000
0000
0000
0000
0000
0000
0000
0000
0000
0000
0000
0000
0000
0000
0000
0000
0000
0000
0001
0000
0100
0000
0001
0000
0100
0000
0000
0010
0000
0000
,  // measure 59
1000
0000
0000
0100
0000
0000
1000
0000
0100
0000
1000
0000
0001
0000
0000
1000
0000
0000
0001
0000
0000
0000
0000
0000
1001
0000
0000
0000
0000
0000
0000
0000
0000
0000
0000
0000
1000
0000
0100
0000
1000
0000
0100
0000
0000
0010
0000
0000
,  // measure 60
0001
0000
0010
0000
0001
0000
0010
0000
0000
0100
0000
0000
1000
0000
0001
0000
1000
0000
0001
0000
0000
1000
0000
0000
1001
0000
0000
0000
0000
0000
0000
0000
0000
0000
0000
0000
1000
0000
0010
0000
1000
0000
0100
0000
0000
0000
0000
0000
,  // measure 61
0010
0000
0000
0001
1000
0001
0010
0000
0000
0100
0000
0000
0010
0000
0000
0001
0010
0001
1000
0000
0000
0001
0000
0000
,  // measure 62
0100
0000
0010
0000
1000
0000
0100
0000
0000
0000
0000
0000
0010
0000
0000
0000
0000
0000
0001
0000
0000
0000
0000
0000
1001
0000
0000
0000
0000
0000
0000
0000
0000
0000
0000
0000
1000
0000
0100
0000
0010
0000
0001
0000
0000
0010
0000
0000
,  // measure 63
0100
0000
0000
1000
0000
0000
0100
0000
0010
0000
0001
0000
0010
0000
0000
0100
0000
0000
1000
0000
0000
0100
0000
0000
0010
0000
0001
0000
0010
0000
0100
0000
0000
1000
0000
0000
0100
0000
0010
0000
0001
0000
0010
0000
0000
0100
0000
0000
,  // measure 64
1000
0000
0000
0100
0000
0000
0010
0000
0001
0000
0010
0000
0100
0000
0000
1000
0000
0000
0100
0000
0000
0010
0000
0000
0001
0000
0000
0000
0000
0000
0000
0000
0000
0000
0000
0000
1001
0000
0000
0000
0000
0000
1000
0000
0000
0000
0000
0000
,  // measure 65
0001
0010
0100
0010
0001
0000
0100
0000
0010
0000
0100
0000
0000
0000
0010
0000
,  // measure 66
1000
0100
1000
0100
1000
0000
0001
0000
0100
0000
0010
0000
0000
0000
0100
0000
,  // measure 67
0001
1000
0001
1000
0001
0000
0010
0000
0100
0000
0010
0000
0001
0000
0100
0000
,  // measure 68
1000
0100
0001
0010
1000
0010
0011
0010
,  // measure 69
0100
0010
0001
0100
0010
0000
1000
0000
0001
0000
1000
0000
0000
0000
0100
0000
,  // measure 70
0010
0100
1000
0010
0100
0000
0010
0000
1000
0000
0001
0000
1000
0010
1000
0010
,  // measure 71
0100
0001
0100
0001
0010
0001
0010
0100
1000
0100
1000
0001
1000
0000
0100
0000
,  // measure 72
0001
0010
1000
0000
0110
0000
1001
0000
,  // measure 73
1001
0000
0000
0010
0100
0010
0100
0000
0000
1001
0000
0000
,  // measure 74
1001
0000
0000
0100
0010
0100
0010
0000
0000
1001
0000
0000
,  // measure 75
1001
0000
0000
0010
0100
0010
0100
0000
0000
1001
0000
0000
,  // measure 76
0110
2002
3003
0110
,  // measure 77
0110
0000
0000
1000
0001
1000
0001
0000
0000
0110
0000
0000
,  // measure 78
0110
0000
0000
0001
1000
0001
1000
0000
0000
0110
0000
0000
,  // measure 79
0110
0000
0000
1000
0001
1000
0001
0000
0000
0110
0000
0000
,  // measure 80
1001
0220
0330
1000
,  // measure 81
0010
0100
0001
0010
,  // measure 82
0010
0100
0100
0000
,  // measure 83
0010
0001
1000
0010
,  // measure 84
0010
1000
1000
0000
,  // measure 85
0001
0010
0100
0010
,  // measure 86
0010
0000
0000
0100
0000
0000
0100
0000
0000
2002
3003
0000
,  // measure 87
0001
0000
0100
0000
0001
0000
1000
0000
0100
0000
0010
0000
0001
0010
0200
0300
,  // measure 88
1000
0000
1100
0000
1000
0100
0010
0100
,  // measure 89
1000
1010
0110
0101
,  // measure 90
0000
0000
0021
0000
0130
0010
0001
0100
,  // measure 91
0010
0110
0101
1001
,  // measure 92
0000
0000
1002
0000
1003
0100
1000
0010
,  // measure 93
0100
0101
0011
0110
,  // measure 94
0100
0010
0001
0100
0010
0000
0100
0000
,  // measure 95
0010
1000
0001
0000
1001
0000
0000
0000
,  // measure 96
0000
0001
0010
0001
0010
0100
1000
0100
,  // measure 97
1000
0011
1001
0101
,  // measure 98
0000
0000
2001
0000
3100
0010
0100
1000
,  // measure 99
0010
0000
0000
0100
0000
0000
0001
0000
0000
1000
0000
0000
0001
0000
0000
0000
1000
0000
0000
0000
0001
0000
0000
0000
,  // measure 100
1000
0001
0100
0001
0010
0100
1000
0000
,  // measure 101
1001
1100
0011
1001
,  // measure 102
0001
0100
1000
0100
0010
0000
1010
0000
,  // measure 103
1000
0010
0100
0000
0101
0000
0000
0000
,  // measure 104
1000
0100
1000
0010
0100
0001
0010
0100
,  // measure 105
0010
0001
0100
0010
1000
0100
0010
0100
,  // measure 106
1000
0010
0100
0001
0010
0100
1000
0001
,  // measure 107
1000
0000
0002
0000
0000
0000
0000
0000
0000
0003
0000
0000
0001
0000
2000
0000
0000
0000
0000
0000
0000
0000
0000
0000
,  // measure 108
3100
0010
0001
0010
0100
0010
0001
0100
,  // measure 109
0010
1000
0001
0010
0100
0010
0001
0100
,  // measure 110
0010
1000
0100
0010
0001
0010
0100
0010
,  // measure 111
0001
0020
0000
0000
0000
0130
2000
0000
0000
0000
0000
0000
,  // measure 112
3010
0100
0010
1000
0001
0010
0100
0010
,  // measure 113
0001
0100
0010
2000
3100
0010
0100
1000
,  // measure 114
0010
0100
0010
1000
0001
0010
0100
2000
,  // measure 115
3100
0001
0100
0010
0001
0100
0010
1000
,  // measure 116
0001
0010
0100
0010
0001
0100
0010
1000
,  // measure 117
0001
0010
0100
1000
0100
0010
0001
1000
,  // measure 118
0000
0001
0010
0100
,  // measure 119
1000
0001
0010
0100
,  // measure 120
1000
0001
0010
0100
,  // measure 121
1000
0001
0010
0100
,  // measure 122
1000
0001
0010
0100
,  // measure 123
1000
0001
0010
0100
,  // measure 124
1000
1100
0000
0011
,  // measure 125
0000
0101
0000
1010
,  // measure 126
0000
1001
0001
0100
,  // measure 127
0010
1000
0001
0100
,  // measure 128
0010
1000
0001
0100
,  // measure 129
0010
1000
0001
0100
,  // measure 130
0010
1001
0000
1001
,  // measure 131
0000
0000
0000
0001
0000
1000
0000
0001
0000
1000
0000
0000
,  // measure 132
0001
0000
0000
1000
0000
0001
0000
1000
0000
0001
0000
0000
,  // measure 133
1000
0000
0000
0001
0000
1000
0000
0001
0000
1000
0000
0000
,  // measure 134
0001
2002
0000
0000
,  // measure 135
0000
3003
0000
0000
;
