#TITLE:tape/stop/night;
#SUBTITLE:;
#ARTIST:Sugar & Co.;
#TITLETRANSLIT:;
#SUBTITLETRANSLIT:;
#ARTISTTRANSLIT:;
#GENRE:[FUTURE FUNK];
#CREDIT:;
#BANNER:banner.png;
#BACKGROUND:background.png;
#LYRICSPATH:;
#CDTITLE:;
#MUSIC:tapestopnight.ogg;
#OFFSET:-0.020000;
#SAMPLESTART:108.521751;
#SAMPLELENGTH:16.695648;
#SELECTABLE:YES;
#BPMS:0.000000=115.000000
;
#STOPS:44.000000=1.043000
;
#BGCHANGES:;
#KEYSOUNDS:;
#ATTACKS:;

//---------------dance-single - ----------------
#NOTES:
     dance-single:
     :
     Hard:
     10:
     0.352814,0.378320,0.235959,0.204497,0.027528,314.000000,284.000000,30.000000,26.000000,0.000000,0.000000,0.352814,0.378320,0.235959,0.204497,0.027528,314.000000,284.000000,30.000000,26.000000,0.000000,0.000000:
0000
0000
0000
0000
,
0000
0000
0000
0000
,
0000
0000
0000
0000
,
0020
0000
0000
0030
,
1001
0000
0000
0001
0010
0001
1000
0000
,
0000
0001
0000
0001
0000
0100
0000
0100
,
0110
0000
0000
0100
0001
1000
0100
0000
,
0020
0031
2000
3100
,
1001
0000
0000
1000
0001
0010
0100
0000
,
0000
0010
0000
0010
0000
0001
0000
0001
,
0101
0000
0000
1000
0001
0010
0100
0000
,
1100
0000
0002
0000
0103
0010
1000
0100
,
0010
1100
2000
3010
,
0100
0001
0010
0000
0100
0010
0100
1000
,
0001
0000
2000
0000
3010
0100
0001
0000
,
0110
0000
0011
0000
0100
1000
0001
0100
,
0010
0000
1000
0001
0200
0000
0310
0000
,
1000
0010
1000
0000
0002
0000
0013
0000
,
0200
0000
1300
0000
1000
0001
1001
0000
,
0010
0100
0110
0000
0001
0000
0010
0000
,
0100
0000
0000
0010
0000
0100
1000
0010
,
1000
0000
0001
1000
0000
0000
0100
0000
0010
0000
0000
0000
0001
0000
0000
0000
,
0100
0000
0000
0100
0000
0000
0010
0000
0000
0000
0100
0000
0001
0000
0010
0000
,
0001
0000
1000
0001
0000
0000
0000
0000
1000
0000
0000
0000
0010
0000
0000
0000
,
1000
0000
0000
0100
0000
0100
1000
0001
,
0100
0000
0010
0100
0000
0000
0010
0000
1000
0000
0000
0000
0001
0000
0100
0000
,
0010
1000
0100
0010
0000
0001
0010
0001
,
1000
0000
0010
1000
0000
0000
0000
0000
0102
0000
0000
0000
0010
0000
0000
0000
,
0100
0000
1003
0000
1000
0100
0010
0001
,
0010
0000
0001
0200
0000
0310
1000
0010
,
1000
0000
0001
0010
0000
0200
0300
0010
,
0001
1001
2100
0100
,
0010
0000
3001
1000
0100
0010
0100
1000
,
0001
0000
1000
0100
0000
1000
0000
0100
,
0000
1000
0000
0010
0110
0000
1001
0000
,
0110
0000
2001
0000
3100
0010
0100
1000
,
0001
0100
0001
0000
0200
0000
0301
0000
,
0001
0010
0110
0000
0100
0010
0001
1000
,
0010
0000
2000
0000
3001
1000
0100
0000
,
0110
0000
1001
0000
1000
0001
0010
0001
,
0100
0000
0010
1000
0100
0000
1100
0000
,
1000
0001
0100
0000
0002
0000
0013
0000
,
0200
0000
1300
0000
0001
1000
1001
0000
,
0100
0010
0110
0000
1000
0000
0001
0000
,
1000
0000
0000
0000
0001
0000
0000
0000
1000
0000
0000
1000
0000
0000
1000
0000
,
0000
0000
0010
0100
,
0010
0000
0000
0000
0200
0000
0301
0020
,
0000
0030
0000
0000
0100
0000
0010
0000
,
0100
0000
0000
0000
0010
0000
0000
0000
0100
0000
0000
0100
0000
0000
0100
0000
,
0000
0000
1000
0001
,
1000
0000
0102
0013
,
2100
0000
3010
0000
1000
0100
1000
0010
,
1000
0001
1000
0000
0100
0000
1100
0000
,
0100
1000
0010
0000
0100
0010
1000
0001
,
0010
0000
0200
0000
0310
0001
1000
0000
,
0101
0000
1001
0000
0001
0010
0100
0010
,
0001
0000
1000
0001
0100
0000
0010
0000
,
0010
1000
0100
0000
2000
0000
3010
0000
,
0200
0000
0310
0000
0100
0010
1001
0000
,
0100
0010
1001
0000
0020
0000
0000
0000
,
0000
0030
0000
0000
0000
0000
0000
0000
;

//---------------dance-single - ----------------
#NOTES:
     dance-single:
     :
     Medium:
     8:
     0.287645,0.354675,0.298881,0.110114,0.000000,256.000000,218.000000,38.000000,14.000000,0.000000,0.000000,0.287645,0.354675,0.298881,0.110114,0.000000,256.000000,218.000000,38.000000,14.000000,0.000000,0.000000:
0000
0000
0000
0000
,
0000
0000
0000
0000
,
0000
0000
0000
0000
,
0020
0000
0000
0030
,
1001
0000
0000
1000
0000
1000
0001
0000
,
0000
0100
0000
0100
0000
0010
0000
0010
,
1001
0000
0001
0010
0000
0010
0000
0000
,
0200
1300
0002
0013
,
1001
0000
0000
0100
0000
0100
0010
0000
,
0000
1000
0000
1000
0000
0001
0000
0001
,
1001
0000
0000
0001
0000
0001
0100
0000
,
0110
2000
3100
1000
,
0010
0011
0010
0100
,
0001
1000
0001
0000
1000
0000
0010
0000
,
1000
1100
0101
0001
,
1001
0110
1000
0010
,
1000
0011
0001
1000
,
0100
0010
0001
0000
0011
0000
0011
0000
,
1100
0000
1100
0000
1000
0001
1000
0000
,
0001
1000
0001
0000
0100
0000
0010
0000
,
2000
0000
0001
0000
,
3001
0000
0100
0010
,
1000
0100
0010
0001
,
1000
0000
0001
0010
,
0200
0000
1000
0000
,
1300
0000
0100
1000
,
0010
0100
0001
1000
,
0010
0000
1000
0001
,
0010
0001
0100
0010
,
1000
0100
1000
0010
,
0100
0001
0010
0100
,
1100
0101
1001
0001
,
1000
0010
1000
0100
,
1000
0010
0100
0001
,
0010
0100
2000
0200
,
3300
1010
0101
0001
,
0010
0001
1001
1010
,
1000
0001
1000
0000
0001
0000
1000
0000
,
0010
0101
0011
0100
,
0011
1001
1000
0001
,
0010
0100
0010
0001
,
1000
0010
0100
0000
1010
0000
1010
0000
,
0011
0000
0011
0000
0001
0100
0010
0000
,
0010
1000
0100
0000
1000
0000
0001
0000
,
0100
0001
2000
0000
,
3000
0000
0001
1000
,
0001
0000
0220
0000
,
0000
0330
0100
0010
,
0100
0010
0002
0000
,
0003
0000
1000
0001
,
1000
0000
0020
0000
,
0000
0000
0030
0000
0100
0001
0010
0000
,
0100
1100
0100
1000
,
0010
1000
0001
0000
0010
0100
1000
0000
,
0100
0000
1000
0000
0010
1000
0100
0000
,
1001
0000
0110
0000
0100
0010
1000
0000
,
0001
0000
0010
0001
0100
0000
0010
0000
,
0100
0010
1000
0000
1001
0000
1001
0000
,
0110
0000
0110
0000
0001
0100
0010
0000
,
0010
1000
0100
0000
0020
0000
0000
0000
,
0000
0030
0000
0000
0000
0000
0000
0000
;

//---------------dance-single - ----------------
#NOTES:
     dance-single:
     :
     Easy:
     5:
     0.185396,0.260095,0.110114,0.039326,0.000000,165.000000,151.000000,14.000000,5.000000,0.000000,0.000000,0.185396,0.260095,0.110114,0.039326,0.000000,165.000000,151.000000,14.000000,5.000000,0.000000,0.000000:
0000
0000
0000
0000
,
0000
0000
0000
0000
,
0000
0000
0000
0000
,
0000
0000
0000
0000
,
1001
0000
1000
0000
,
0001
0001
0001
0000
,
0100
0000
0010
0000
,
1000
0100
0010
0001
,
1000
0000
0001
0000
,
0100
0100
0010
0010
,
1000
0000
0001
0000
,
0110
0000
0010
0000
,
1000
0000
0001
0010
,
0001
1000
0100
0000
,
1000
0000
0010
0100
,
1001
0110
0010
1000
,
0001
0000
0010
0001
,
1000
0000
0100
1000
,
0010
0100
0001
1001
,
1000
1001
0010
0000
,
0000
0000
0100
0000
,
0000
0000
0001
0000
,
0000
0000
1000
0000
,
0001
0000
0100
0000
,
0000
0000
0010
0000
,
0000
0000
1000
0000
,
0100
0000
0010
0000
,
0001
0000
1001
1000
,
0000
0001
0000
0100
,
0000
0010
0000
1000
,
0000
0001
0000
0010
,
0001
0100
0010
1000
,
0000
0100
0000
0010
,
0000
0001
0000
1000
,
0000
0010
0100
0100
,
0010
0010
1001
0001
,
0010
0001
1000
0010
,
1000
0001
1000
0100
,
1000
0001
0100
0001
,
1000
1000
0001
0010
,
0001
1000
0100
1000
,
0010
0100
0001
0001
,
1000
1000
1001
0000
,
0110
0000
0010
0000
,
0010
0000
0020
0000
,
0030
0000
0100
0000
,
0100
0000
0002
0000
,
0000
0003
1000
0000
,
1000
0000
2000
0000
,
3000
0000
0001
0000
,
0001
0000
0200
0000
,
0000
0300
0010
1000
,
0100
1000
0001
1000
,
0010
1000
0001
0010
,
0100
1000
0100
1000
,
1001
0110
0100
0010
,
1000
0001
0010
0001
,
0100
0010
1000
0010
,
0100
0001
1001
0000
,
0110
0000
0002
0000
,
0000
0003
0000
0000
0000
0000
0000
0000
;

//---------------dance-single - ----------------
#NOTES:
     dance-single:
     :
     Beginner:
     2:
     0.078653,0.116996,0.023596,0.000000,0.000000,70.000000,67.000000,3.000000,0.000000,0.000000,0.000000,0.078653,0.116996,0.023596,0.000000,0.000000,70.000000,67.000000,3.000000,0.000000,0.000000,0.000000:
// measure 0
0000
0000
0000
0000
,  // measure 1
0000
0000
0000
0000
,  // measure 2
0000
0000
0000
0000
,  // measure 3
0000
0000
0000
0000
,  // measure 4
0010
0000
1000
0000
,  // measure 5
0001
0000
0000
0000
,  // measure 6
1000
0000
0100
0000
,  // measure 7
0010
0000
0000
0000
,  // measure 8
1000
0000
0001
0000
,  // measure 9
0100
0000
0000
0000
,  // measure 10
0010
0000
1000
0000
,  // measure 11
1001
0000
0001
0000
,  // measure 12
0000
0000
1000
0000
,  // measure 13
0000
0000
0010
0000
,  // measure 14
0000
0000
0100
0000
,  // measure 15
0000
0000
0010
0000
,  // measure 16
0000
0000
1000
0000
,  // measure 17
0000
0000
0100
0000
,  // measure 18
1000
0000
0001
0000
,  // measure 19
1000
0000
0010
0000
,  // measure 20
0000
0000
0100
0000
,  // measure 21
0000
0000
0001
0000
,  // measure 22
0000
0000
1000
0000
,  // measure 23
0000
0000
0100
0000
,  // measure 24
0000
0000
1000
0000
,  // measure 25
0000
0000
0010
0000
,  // measure 26
0000
0000
0100
0000
,  // measure 27
0000
0000
0001
0000
,  // measure 28
0000
0000
1000
0000
,  // measure 29
0000
0000
0010
0000
,  // measure 30
0000
0000
0100
0000
,  // measure 31
0000
0000
0010
0000
,  // measure 32
0000
0000
1000
0000
,  // measure 33
0000
0000
0001
0000
,  // measure 34
1000
0000
0010
0010
,  // measure 35
0000
0000
0100
0000
,  // measure 36
0000
0000
0001
0000
,  // measure 37
0000
0000
0010
0000
,  // measure 38
0000
0000
0100
0000
,  // measure 39
1000
0000
0001
0000
,  // measure 40
0000
0000
1000
0000
,  // measure 41
0000
0000
0010
0000
,  // measure 42
0000
0000
0100
0000
,  // measure 43
0010
0000
1000
0000
,  // measure 44
0000
0000
0000
0000
,  // measure 45
0000
0000
0001
0000
,  // measure 46
0000
0000
0110
0000
,  // measure 47
0000
0000
0010
0000
,  // measure 48
0000
0000
0000
0000
,  // measure 49
0000
0000
0100
0000
,  // measure 50
0000
0000
0001
0000
,  // measure 51
0000
0000
1000
0000
,  // measure 52
0000
0000
0010
0000
,  // measure 53
0000
0000
1000
0000
,  // measure 54
0000
0000
0001
0000
,  // measure 55
1000
0000
0001
0000
,  // measure 56
0000
0000
0010
0000
,  // measure 57
0000
0000
0100
0000
,  // measure 58
0000
0000
1000
0000
,  // measure 59
0001
0000
0110
0000
;
