#TITLE:rough percussionythm;
#SUBTITLE:;
#ARTIST:setup VS 謎の勢力;
#TITLETRANSLIT:;
#SUBTITLETRANSLIT:;
#ARTISTTRANSLIT:;
#GENRE:HARD D&B;
#CREDIT:;
#BANNER:banner.png;
#BACKGROUND:background.png;
#LYRICSPATH:;
#CDTITLE:CDTITLE.png;
#MUSIC:rough percussionythm.ogg;
#OFFSET:1.386000;
#SAMPLESTART:67.167458;
#SAMPLELENGTH:21.942856;
#LASTBEATHINT:1.125833;
#SELECTABLE:YES;
#BPMS:0.000000=175.000000
,4.000000=87.500000
,6.000000=175.000000
,289.500000=87.500000
,291.500000=175.000000
;
#STOPS:
;
#BGCHANGES:4.000=rough percussionythm.avi=1.000=1=0=1===CrossFade==,
99999=-nosongbg-=1.000=0=0=0 // don't automatically add -songbackground-
;
#KEYSOUNDS:;
#ATTACKS:;

//---------------dance-single - ----------------
#NOTES:
     dance-single:
     :
     Challenge:
     16:
     0.760391,1.068808,0.495859,0.364146,0.643067,687.000000,623.000000,64.000000,47.000000,48.000000,0.000000,0.760391,1.068808,0.495859,0.364146,0.643067,687.000000,623.000000,64.000000,47.000000,48.000000,0.000000:
0000
0000
0000
0000
,
0000
0000
0000
0000
0000
0000
0000
0000
0000
0000
0000
0000
1000
0000
0001
0100
0010
0000
0000
0000
0000
0000
0000
0000
1010
0000
0000
0000
0000
0000
0000
0000
,
0001
0000
0011
0000
1100
0000
1000
0001
,
0000
0000
0000
0000
0001
0000
1000
0010
0100
0000
0000
0000
1010
0000
0000
0000
,
0001
0000
0000
0000
1100
0000
0000
0000
0011
0000
0000
0000
0100
0000
1000
0010
,
1000
0000
0010
0000
0100
0001
0100
0001
0100
0000
0000
0000
1010
0000
0000
0000
,
1100
0000
1001
0000
0011
0000
0010
0100
,
0000
0100
1000
0000
0001
0100
1000
0010
,
0001
0100
1000
0010
0001
0100
1000
0010
,
0001
0100
1000
0000
0011
0000
0101
0000
,
1010
0000
1100
0000
0101
0000
0010
1000
,
0000
0000
0000
0000
0100
0000
0010
0001
1000
0000
0000
0000
1100
0000
0000
0000
,
1010
0000
0000
0000
0101
0000
0000
0000
1001
0000
0000
0000
0001
0000
1000
0001
,
1000
0100
0110
0000
1100
0000
0101
0000
,
1010
0000
0000
0000
1100
0000
0000
0000
0110
0000
0000
0000
0010
0000
0001
1000
,
0001
0100
0001
1000
0001
1000
0001
1000
0001
0000
0100
0000
1000
0000
0010
0000
,
0001
0100
1000
0010
0001
0100
1000
0010
,
0001
1000
1001
0001
2000
0000
0100
0000
,
0010
0000
3001
0020
0100
0000
0100
0000
,
0130
0000
0010
0001
0200
0000
0010
0000
,
0310
0000
0100
0010
2000
0002
0000
0000
,
0000
0000
3003
0000
0001
0000
0100
0010
2000
0000
0000
0000
0100
0000
0000
0000
,
3100
0000
0010
0002
0100
0000
0100
0000
,
0103
0000
0010
0100
0010
1000
0001
1000
0001
0000
0000
0001
0000
0000
0001
0000
,
1000
0010
1000
0010
1000
0000
0000
0000
0001
0000
0000
0001
0000
0000
0001
0000
,
1000
0010
1000
0000
1001
0000
0101
0000
,
0001
0100
0000
0100
0001
0000
1000
0000
1100
0000
0000
0000
1100
0000
0000
0000
,
1000
0001
0000
0001
1000
0000
0010
0000
1010
0000
0000
0000
1010
0000
0000
0000
,
1000
0001
0000
0001
1000
0000
0001
0000
0011
0000
0000
0000
0011
0000
0000
0000
,
0001
0100
0000
0010
1000
0000
0001
0000
0010
0100
0000
0100
1000
0000
0001
0000
,
1001
0000
0000
0000
0101
0000
0000
0000
0001
0100
0000
0100
0010
0000
1000
0000
,
0100
0010
0000
0010
0001
0000
0000
0000
1000
0000
0000
1000
0000
0000
1000
0000
,
0001
0100
0001
0100
0001
0000
0000
0000
1000
0000
0000
1000
0000
0000
1000
0000
,
0001
0100
0001
0000
0220
0000
0000
0000
,
0000
0000
0000
0000
0330
0000
0000
0000
0000
0000
1000
0001
0000
0000
1000
0001
,
0000
0000
0001
1000
0010
1000
0001
1000
0000
0000
0000
0000
0000
0000
0000
0000
,
0000
0000
0000
0000
0000
0000
0000
0000
0001
0100
0001
1000
0010
0000
1000
0000
,
0001
0010
0100
1000
1001
0000
0000
0000
0000
0000
0000
0000
0000
0000
0000
0000
,
0000
0000
0000
0000
0010
0100
0010
0100
0000
0000
0001
1000
0100
0010
0100
0010
,
1000
0001
1000
0001
2000
0000
3000
0000
0000
0000
0010
0100
0000
0000
0010
0100
,
0010
0000
1000
0001
1000
0000
0001
0000
0220
0000
0000
0000
0000
0000
0000
0000
,
0000
0000
0000
0000
0030
0000
0000
0000
0310
0000
0000
1000
0000
0000
MMMM
0000
,
0001
0000
0000
1000
0000
0000
MMMM
0000
0100
0000
0000
0010
0000
0000
MMMM
0000
,
0100
0000
0000
1000
0000
0000
MMMM
0100
0010
0000
0000
0100
0000
0000
MMMM
0010
,
0001
0000
0000
1000
0000
0000
MMMM
0000
0001
0000
0000
1000
0000
0000
MMMM
0000
,
0100
0000
0000
0010
0000
0000
MMMM
0000
0000
0000
0000
0000
0000
0000
MMMM
0000
,
1000
0000
0000
0001
0000
0000
MMMM
0000
0000
0000
0000
0000
0000
0000
MMMM
0000
,
0000
0000
MMMM
0000
1000
0010
0100
0001
0010
0000
0000
0010
0000
0000
0010
0000
,
0100
1000
0100
1000
0100
0000
0000
0000
0010
0000
0000
0010
0000
0000
0010
0000
,
0001
1000
1001
0000
0201
0000
0320
0000
,
1030
0100
0000
0100
0010
0000
0001
0000
0021
0000
0000
0000
0230
0000
0000
0000
,
0310
0001
0000
0001
0100
0000
0010
0000
2010
0000
0000
0000
3200
0000
0000
0000
,
0310
0100
0000
0100
1000
0000
0001
0000
0200
0000
0000
0000
0320
0000
0000
0000
,
1030
0100
0000
0100
1000
0000
0001
0000
1000
0001
0000
1000
0010
0000
0100
0000
,
0010
1000
0000
0100
0010
0000
0001
0000
0001
0010
0000
0100
1000
0000
0001
0000
,
1000
0001
0000
1000
0010
0000
0100
0000
0001
0010
0001
0010
0001
0000
1000
0000
,
0100
1000
0100
1000
0100
0010
0100
0010
0100
1000
0010
0100
0001
0100
0001
0010
,
0100
0010
0001
1000
0100
0010
0100
0010
0002
0000
0000
0000
0023
0000
0000
0000
,
0130
0010
0000
0010
0001
0000
0100
0000
2010
0000
0000
0000
3200
0000
0000
0000
,
0310
0100
0000
0100
1000
0000
0010
0000
0210
0000
0000
0000
0302
0000
0000
0000
,
0013
0001
0000
0001
0100
0000
0010
0000
1000
0000
0002
0000
0010
0000
0000
0000
,
0103
0001
0000
0001
0010
0000
0100
0000
0010
0001
0000
0010
0100
0000
1000
0000
,
0001
1000
0000
0010
1000
0000
0100
0000
0010
0100
0000
1000
0010
0000
0100
0000
,
0001
0010
0000
0100
1000
0000
0001
0000
0100
0010
0100
0010
0100
0000
0010
0100
,
0000
0100
0010
0000
0100
0010
0100
0010
0100
0000
0100
0010
0000
0010
0100
0000
,
0010
0000
1000
0000
0001
0000
0010
0000
1100
0000
1000
0100
0001
0000
0101
0000
,
0001
0100
1000
0000
1100
0000
1000
0100
0001
0000
0101
0000
0001
0100
1000
0000
,
0000
0000
0000
0000
0000
0000
0000
0000
0011
0000
0001
0010
1000
0000
1010
0000
,
1000
0010
0001
0000
0011
0000
0001
0010
1000
0000
1010
0000
1000
0010
0001
0000
,
0000
0000
0000
0000
0000
0000
0000
0000
1010
0000
0010
1000
0100
0000
1100
0000
,
0100
1000
0010
0000
1010
0000
0010
1000
0100
0000
1100
0000
0100
1000
0010
0000
,
0000
0000
0000
0000
0000
0000
0000
0000
0101
0000
0100
0001
0010
0000
0011
0000
,
0010
0001
0100
0000
0101
0000
2002
0000
0000
0000
0000
0000
0000
0000
3003
0000
,
0001
0200
0000
1300
0200
0000
0301
0200
,
0000
0000
0310
0000
1000
0000
1000
0000
0001
0000
0010
0000
0100
1000
0100
1000
,
0001
0020
0000
1030
0020
0000
0031
0020
,
0000
0000
0130
0000
0010
0000
0001
0000
1000
0001
0010
0001
0100
0001
0100
0001
,
0010
0200
0000
1300
0020
0000
0130
0002
,
0000
0000
1003
0000
0100
0000
0010
0000
0100
1000
0100
1000
0001
0000
0000
0000
,
1000
0000
0000
1000
0000
0000
1000
0000
0001
0010
0001
0010
0001
0000
0000
0000
,
1000
0000
0000
1000
0000
0000
1000
0000
0001
0000
0100
0000
1001
0000
0000
0000
,
0001
0020
0000
0130
2000
0000
3010
0200
,
0000
0000
0310
0000
0010
0000
1000
0000
0001
0000
0010
0100
0010
0100
0010
0100
,
1000
0200
0000
0301
0200
0000
1300
0200
,
0000
0000
0301
0000
0100
0000
0010
0001
0100
0000
0100
0001
1000
0001
1000
0001
,
0100
0020
0000
1030
0200
0000
0310
0002
,
0000
1003
0010
0100
0001
0010
0100
1000
,
0001
0000
0000
0001
0000
0000
0001
0000
0100
0010
0100
0010
0100
0000
0000
0000
,
0001
0000
0000
0001
0000
0000
0001
0000
0010
0000
0100
0000
1001
0000
0000
0000
,
0110
0000
0000
0000
;

//---------------dance-single - ----------------
#NOTES:
     dance-single:
     :
     Medium:
     9:
     0.412847,0.517165,0.457120,0.069730,0.042613,373.000000,314.000000,59.000000,9.000000,0.000000,0.000000,0.412847,0.517165,0.457120,0.069730,0.042613,373.000000,314.000000,59.000000,9.000000,0.000000,0.000000:
0000
0000
0000
0000
,
0000
0000
1000
0001
,
0010
0000
0001
0000
1000
0000
0000
0001
,
0000
1000
0001
0100
,
0001
0010
0100
0010
,
0001
0001
1000
0001
,
0100
0000
0001
0000
0010
0000
0000
0100
,
0000
0010
0001
0001
,
1000
0001
1000
0000
0001
0000
0001
0000
,
1000
0010
1000
0000
0010
0000
1000
0000
,
0100
0000
0010
0000
0100
0000
0000
1000
,
0000
0010
0100
0001
,
0010
1000
0010
0001
,
1000
0001
1000
0000
0001
0000
0100
0000
,
1000
0000
0100
0000
0010
0000
0000
1000
,
0000
0010
0100
0001
,
0010
0100
0010
0000
0100
0000
1000
0000
,
0001
0100
0001
0000
0200
0000
0000
0000
,
0000
0000
0310
2000
0000
0000
0000
0000
,
3000
0000
0001
0020
0000
0000
0000
0000
,
0000
0030
0100
0010
0001
2000
0000
0000
,
3000
0000
0001
1000
0020
0000
0000
0000
,
0030
0000
1000
0200
0000
0000
0000
0000
,
0300
1000
0010
0000
0100
0000
0001
0000
,
0010
0100
0010
0000
0001
0000
1000
0000
,
0001
0100
0001
0000
0101
0000
0101
0000
,
0101
0000
1010
1010
,
1010
0000
1001
1001
,
1001
0000
1100
1100
,
1100
0000
1001
0110
,
1001
0000
1001
1010
,
1001
0000
0001
1000
,
0010
1000
0010
0000
0100
0000
0001
0000
,
0010
0100
0010
0000
2002
0000
0000
0000
,
0000
0000
3003
0000
0000
0001
0000
1000
,
0000
0001
1000
0001
0000
0000
0000
0000
,
0000
0000
0000
0000
0100
0010
0100
0010
,
0100
0010
0100
0000
0000
0000
0000
0000
,
0000
0000
0001
0001
0000
0000
1000
0000
,
0100
0110
0000
0100
,
1000
0010
0200
0000
,
0000
0000
0000
0000
0000
0000
0000
0000
0310
0000
0000
0000
0000
1000
0000
0000
,
0000
0000
0000
0000
0000
0001
0000
0000
0000
0000
0000
0000
0000
0010
0000
0000
,
0000
0000
0000
0000
0000
0100
0000
0000
0000
0000
0000
0000
0000
0010
0000
0000
,
0000
0000
0000
0000
0000
0001
0000
0000
0000
0000
0000
0000
0000
1000
0000
0000
,
0000
0000
0000
0000
0000
0001
0000
0000
0000
0000
0000
0000
0000
0000
1000
0000
,
0000
0000
0000
0000
0000
0001
0000
0000
0000
0000
0000
0000
0000
1000
0000
0000
,
0000
1000
0000
0000
0000
0000
0000
0000
0001
0000
0000
0000
1000
0000
0000
0000
,
0010
0100
0010
0000
0100
0000
0001
0000
,
0010
0100
0010
0000
1100
0000
0110
0000
,
1100
0000
0110
0011
,
0110
0000
0011
0101
,
0011
0000
1001
0110
,
1001
0000
1100
1010
,
1100
0000
1010
0110
,
0101
0000
0001
1000
,
0010
0000
0100
0100
0010
0000
1000
0000
,
0001
0010
0110
1100
,
1010
0000
1100
0110
,
0011
0000
0101
0110
,
1010
0000
0110
1001
,
1100
0000
1001
0110
,
1001
0000
0011
0110
,
1100
0000
0100
1000
,
0010
0100
0001
1000
,
0001
0010
0100
1000
1100
0000
0000
0001
,
0000
0000
0100
0000
0000
0010
0000
0000
,
0000
0000
0000
0000
0100
0000
0000
0001
,
0000
0000
0010
0000
0000
0100
0000
0000
,
0000
0000
0000
0000
0010
0000
0000
0001
,
0000
0000
1000
0000
0000
0100
0000
0000
,
0000
0000
0000
0000
1000
0000
0000
0001
,
0000
0000
0000
0110
0000
0000
0000
0000
,
0100
0010
0000
0100
0010
0000
0100
0010
,
0000
0100
0010
1000
,
0001
0010
0000
0001
0010
0000
0001
0010
,
0000
0001
0010
0000
0100
0000
1000
0000
,
0100
1000
0000
0100
1000
0000
0100
1000
,
0000
0100
1000
0000
0100
0000
1000
0000
,
0010
0000
0100
0000
0001
1000
0001
0000
,
1000
0000
0100
0000
0010
0001
0010
0000
,
0001
0100
0000
0001
0100
0000
0001
0100
,
0000
0001
0100
0000
0001
0000
1000
0000
,
0100
1000
0000
0100
1000
0000
0100
1000
,
0000
0100
1000
0000
0100
0000
1000
0000
,
0010
1000
0000
0010
1000
0000
0010
1000
,
0000
0010
1000
0000
0010
0000
0100
0000
,
0001
0000
1000
0000
0010
0100
0010
0000
,
0100
0000
0001
0000
1000
0001
1000
0000
,
0110
0000
0000
0000
;

//---------------dance-single - ----------------
#NOTES:
     dance-single:
     :
     Hard:
     13:
     0.568909,0.620598,0.627571,0.263425,0.189821,514.000000,433.000000,81.000000,34.000000,0.000000,0.000000,0.568909,0.620598,0.627571,0.263425,0.189821,514.000000,433.000000,81.000000,34.000000,0.000000,0.000000:
// measure 0
0000
0000
0000
0000
,  // measure 1
0000
0000
0000
1000
0011
0000
0101
0000
,  // measure 2
1010
0000
1100
0000
0110
0000
0010
0002
,  // measure 3
0000
1003
0101
1100
,  // measure 4
0011
0000
1010
0000
1001
0000
1000
0100
,  // measure 5
0001
0100
0010
0001
1001
0000
0101
0000
,  // measure 6
1010
0000
1100
0000
0210
0000
1300
0001
,  // measure 7
1000
0000
0100
0000
1000
0000
0000
0000
0001
0000
0000
0001
0000
0000
0001
0000
,  // measure 8
1000
0000
0010
0000
0100
0000
0000
0000
0010
0000
0000
0010
0000
0000
0010
0000
,  // measure 9
1000
0001
0110
0000
0011
0000
1100
0000
,  // measure 10
0101
0000
1010
0000
1200
0000
0310
0001
,  // measure 11
0000
0000
1000
0001
0101
0000
1010
0000
,  // measure 12
1100
0000
1010
0000
0201
0000
0301
0010
,  // measure 13
1000
0010
0011
0000
0110
0000
0101
0000
,  // measure 14
0011
0000
1100
0000
1002
0000
1003
0010
,  // measure 15
0010
0000
0100
0000
0001
0000
0010
0000
0100
0000
0000
0100
0000
0000
0100
0000
,  // measure 16
0010
0000
0001
0000
1000
0000
0000
0000
0010
0000
0000
0010
0000
0000
0010
0000
,  // measure 17
0100
0001
1001
1000
0200
0000
0000
0000
,  // measure 18
0000
0310
0001
0200
0000
0000
0000
0000
,  // measure 19
0300
0000
0010
1000
0002
0000
0000
0000
,  // measure 20
0000
0003
1000
0100
0010
0200
0000
0000
,  // measure 21
0000
0300
0010
0001
2000
0000
0000
0000
,  // measure 22
0000
3001
0100
0020
0000
0000
0000
0000
,  // measure 23
0030
0000
0100
0000
0001
0000
1000
0000
0100
0000
0000
0100
0000
0000
0100
0000
,  // measure 24
0010
0000
0100
0000
1000
0000
0000
0000
0010
0000
0000
0010
0000
0000
0010
0000
,  // measure 25
0100
0001
0110
0000
1010
0000
0101
0000
,  // measure 26
0010
0001
0000
0000
0000
0000
0000
0000
0011
0000
0000
0000
0110
0000
0000
0000
,  // measure 27
0100
1000
0000
0000
0000
0000
0000
0000
1010
0000
0000
0000
0101
0000
0000
0000
,  // measure 28
0001
0010
0000
0000
0000
0000
0000
0000
1001
0000
0000
0000
0110
0000
0000
0000
,  // measure 29
0100
0001
0000
0000
0000
0000
0000
0000
0010
0001
0000
0001
1000
0000
0001
0000
,  // measure 30
0100
0000
0010
0000
0000
0000
0000
0000
1000
0100
0000
0100
0010
0000
0001
0000
,  // measure 31
0010
0000
0100
0000
0000
0000
0000
0000
1000
0000
0000
1000
0000
0000
1000
0000
,  // measure 32
0001
0000
0100
0000
0001
0000
0000
0000
0010
0000
0000
0010
0000
0000
0010
0000
,  // measure 33
0100
1000
0110
0000
2002
0000
0000
0000
,  // measure 34
0000
0000
3003
0000
0000
1000
0000
0001
,  // measure 35
0000
1000
0010
0001
0000
0000
0000
0000
,  // measure 36
0000
0000
0000
0000
0100
0001
1000
0100
,  // measure 37
0010
0010
0011
0000
0000
0000
0000
0000
,  // measure 38
0000
0000
0001
0001
0000
0001
1000
0010
,  // measure 39
1000
0100
0020
0000
0030
0100
0000
0100
,  // measure 40
0010
0001
1000
0000
0220
0000
0000
0000
,  // measure 41
0000
0000
0000
0000
0330
0000
0000
0000
1000
0000
0000
1000
0000
0000
0010
0000
,  // measure 42
0100
0000
0000
0100
0000
0000
0001
0000
0010
0000
0000
0010
0000
0000
0100
0000
,  // measure 43
1000
0000
0000
1000
0000
0000
0001
0000
0100
0000
0000
0100
0000
0000
0001
0000
,  // measure 44
0010
0000
0000
0010
0000
0000
0100
0000
1000
0000
0000
1000
0000
0000
0010
0000
,  // measure 45
0100
0000
0000
0100
0000
0000
0001
0000
0000
0000
0000
0000
0000
0000
1000
0000
,  // measure 46
0001
0000
0000
0001
0000
0000
0100
0000
0000
0000
0000
0000
0000
0000
0100
0000
,  // measure 47
0000
0000
0100
0000
0010
0000
1000
0000
0001
0000
0000
0001
0000
0000
0001
0000
,  // measure 48
1000
0000
0010
0000
0100
0000
0000
0000
0010
0000
0000
0010
0000
0000
0010
0000
,  // measure 49
1000
0001
1001
0000
1010
0000
0101
0000
,  // measure 50
0001
0010
0000
0000
0000
0000
0000
0000
0110
0000
0000
0000
0011
0000
0000
0000
,  // measure 51
1000
0100
0000
0000
0000
0000
0000
0000
1010
0000
0000
0000
0110
0000
0000
0000
,  // measure 52
0001
1000
0000
0000
0000
0000
0000
0000
1100
0000
0000
0000
0110
0000
0000
0000
,  // measure 53
0010
0001
0000
0000
0000
0000
0000
0000
0001
0100
0000
0100
0010
0000
1000
0000
,  // measure 54
0001
0000
0000
0000
0000
0000
0000
0000
1000
0100
0000
0100
1000
0000
0010
0000
,  // measure 55
0100
0000
0000
0000
0001
0100
0010
0010
,  // measure 56
0100
0010
0100
0100
0001
0001
1000
1000
,  // measure 57
0001
0001
1000
1000
1001
0000
0101
0000
,  // measure 58
1000
0100
0000
0000
0000
0000
0000
0000
0110
0000
0000
0000
1100
0000
0000
0000
,  // measure 59
1000
0010
0000
0000
0000
0000
0000
0000
0110
0000
0000
0000
1001
0000
0000
0000
,  // measure 60
0001
0010
0000
0000
0000
0000
0000
0000
0110
0000
0000
0000
1100
0000
0000
0000
,  // measure 61
0100
1000
0000
0000
0000
0000
0000
0000
1000
0100
0000
0100
0010
0000
0010
0000
,  // measure 62
0001
0000
0000
0000
0000
0000
0000
0000
0001
0010
0000
0010
0100
0000
1000
0000
,  // measure 63
0001
0000
0001
0000
0000
0000
0000
0000
1000
0000
0010
0000
0100
0000
0000
0100
,  // measure 64
0000
0000
0100
0000
0010
0000
1000
0000
0001
0000
0000
0001
0000
0000
0001
0000
,  // measure 65
1000
0100
0010
0001
1001
0000
0000
0011
,  // measure 66
0000
0000
1001
0000
0000
1010
0000
0000
,  // measure 67
0000
0000
0000
0000
1001
0000
0000
1100
,  // measure 68
0000
0000
1001
0000
0000
0101
0000
0000
,  // measure 69
0000
0000
0000
0000
0101
0000
0000
1010
,  // measure 70
0000
0000
0101
0000
0000
1001
0000
0000
,  // measure 71
0000
0000
0000
0000
1100
0000
0000
0011
,  // measure 72
0000
0000
0000
0110
0000
0000
0000
0000
,  // measure 73
1000
0200
0000
0310
0002
0000
0103
0020
,  // measure 74
0000
0130
0100
0001
0010
0100
1000
0001
,  // measure 75
1000
0020
0000
0130
0002
0000
0013
0200
,  // measure 76
0000
0310
0001
1000
0010
0100
0100
0100
,  // measure 77
0010
2000
0000
3100
0020
0000
0130
2000
,  // measure 78
0000
3001
0100
0001
0010
0100
1000
0000
,  // measure 79
0010
0000
0000
0010
0000
0000
0010
0000
0100
0000
0001
0000
0010
0000
0000
0000
,  // measure 80
0100
0000
0000
0100
0000
0000
0100
0000
0010
0000
0001
0000
1001
0000
0000
0000
,  // measure 81
0001
0020
0000
0130
2000
0000
3010
0200
,  // measure 82
0000
0310
1000
0001
0010
0100
1000
0001
,  // measure 83
1000
0200
0000
1300
0020
0000
0130
0002
,  // measure 84
0000
0013
0100
0010
0001
1000
1000
1000
,  // measure 85
0001
0200
0000
0310
2000
0000
3100
0020
,  // measure 86
0000
0130
0010
0001
1000
0010
0100
0000
,  // measure 87
0001
0000
0000
0001
0000
0000
0001
0000
1000
0000
0010
0000
0100
0000
0000
0000
,  // measure 88
0010
0000
0000
0010
0000
0000
0010
0000
0100
0000
0001
0000
1001
0000
0000
0000
,  // measure 89
0110
0000
0000
0000
;

//---------------dance-single - ----------------
#NOTES:
     dance-single:
     :
     Easy:
     6:
     0.264532,0.344777,0.015496,0.054235,0.000000,239.000000,237.000000,2.000000,7.000000,0.000000,0.000000,0.264532,0.344777,0.015496,0.054235,0.000000,239.000000,237.000000,2.000000,7.000000,0.000000,0.000000:
0000
0000
0000
0000
,
0000
0000
1000
0000
,
0001
0000
0100
0000
,
0000
0010
0100
0000
,
0001
0000
0010
0000
,
0001
1000
0001
0000
,
0100
0000
0001
0000
,
0000
1000
0001
0100
,
0001
0100
1000
0100
,
1000
0100
0001
0000
,
1000
0000
0100
0000
,
0000
0010
0001
0000
,
0100
0000
0010
0000
,
0100
0001
1000
0000
,
0100
0000
1000
0000
,
0010
0100
0010
1000
,
0001
0010
0001
1000
,
0100
0010
0200
0000
,
0300
0000
0000
2000
0000
0000
0000
0000
,
3000
0001
2000
0000
,
3000
0010
0200
0000
,
0300
0010
2000
0000
,
3000
0000
0000
0002
0000
0000
0000
0000
,
0003
0000
0010
0001
,
0100
0001
1000
0100
,
0010
0001
1000
1000
,
1000
0000
0010
0010
,
0010
0000
0100
0100
,
0100
0000
0010
0010
,
0010
0000
1000
0001
,
0001
0000
0010
0100
,
0100
0000
0010
0001
,
1000
0010
0001
0010
,
1000
0001
0100
0000
,
0000
0000
0000
0000
0000
0010
0000
1000
,
0000
0001
0000
0000
0000
0000
0000
0000
,
0000
0000
1000
1000
,
1000
1001
0000
0000
,
0000
0010
0000
0100
,
0010
1000
0000
0001
,
0000
1000
0020
0000
,
0000
0000
0130
0000
,
0001
0000
0010
0000
,
0001
0000
1000
0000
,
0100
0000
1000
0000
,
0010
0000
0100
0000
,
0010
0000
1000
0000
,
0001
0000
1000
0001
,
0100
0000
0001
1000
,
0010
0010
1000
0100
,
0010
0000
0100
1000
,
0010
0000
0100
0001
,
0010
0000
0100
0010
,
0001
0000
1000
0001
,
0100
0000
0001
1000
,
0100
0000
1000
0100
,
0001
0100
1000
0010
,
0100
0001
1000
0010
,
0100
0000
0010
1000
,
0001
0000
0010
0001
,
0100
0000
0010
1000
,
0100
0000
1000
0001
,
1000
0000
0010
0100
,
0010
0000
1000
0000
,
0010
0000
0100
0000
,
0010
0000
0100
0000
0001
0000
0000
0001
,
0000
0000
0001
0000
0000
0001
0000
0000
,
0000
0000
0000
0000
1000
0000
0000
1000
,
0000
0000
1000
0000
0000
1000
0000
0000
,
0000
0000
0000
0000
0010
0000
0000
0010
,
0000
0000
0010
0000
0000
0010
0000
0000
,
0000
0000
0000
0000
0100
0000
0000
0100
,
0000
0000
0000
0100
0000
0000
0000
0000
,
0010
0000
0000
1000
0000
0000
0001
0000
,
0000
1000
0001
0100
,
0001
0000
0000
0010
0000
0000
0100
0000
,
0000
0010
0001
1000
,
0010
0000
0000
1000
0000
0000
0100
0000
,
0000
1000
0010
0100
,
0001
1000
0010
0010
,
1000
0001
0010
0010
,
0100
0000
0000
0010
0000
0000
0001
0000
,
0000
1000
0001
0100
,
0001
0000
0000
0010
0000
0000
0001
0000
,
0000
1000
0100
1000
,
0010
0000
0000
1000
0000
0000
0001
0000
,
0000
1000
0010
1000
,
0001
0010
1000
0010
,
0001
0100
1000
0100
,
0110
0000
0000
0000
;

//---------------dance-single - ----------------
#NOTES:
     dance-single:
     :
     Beginner:
     4:
     0.158276,0.275821,0.092974,0.000000,0.000000,143.000000,131.000000,12.000000,0.000000,0.000000,0.000000,0.158276,0.275821,0.092974,0.000000,0.000000,143.000000,131.000000,12.000000,0.000000,0.000000,0.000000:
0000
0000
0000
0000
,
0000
0000
1000
0000
,
0000
0000
1000
0000
,
0000
0000
0001
0000
,
0000
0000
0001
0000
,
0000
0000
0100
0000
,
0000
0000
0100
0000
,
0000
0000
0010
0000
,
0000
0000
0100
0000
,
0000
0000
0001
0000
,
0000
0000
0001
0000
,
0000
0000
1000
0000
,
0000
0000
1000
0000
,
0010
0000
0100
0000
,
0000
0000
0100
0000
,
0000
0000
0010
0000
,
0000
0000
1000
0000
,
0000
0000
0001
0000
,
0000
0000
1000
0000
,
0000
0000
0010
0000
,
0000
0000
0100
0000
,
0000
0000
0010
0000
,
0000
0000
1000
0000
,
0000
0000
0100
0000
,
1000
0000
0001
0000
,
0100
0000
0010
0010
,
0010
0000
0010
0010
,
0010
0000
0010
0010
,
0010
0000
0010
0010
,
0010
0000
1001
0000
,
0000
0000
1001
0000
,
0000
0000
0100
0000
,
0000
0000
0010
0000
,
0000
0000
1001
0000
,
0000
0000
0000
1000
,
0000
0000
0000
0000
,
0000
0000
0001
0000
,
0000
0000
0000
0000
,
0000
0010
0000
0100
,
0000
0000
0000
0010
,
0000
0000
0001
0000
,
0000
0000
1000
0000
,
1000
0000
1000
0000
,
1000
0000
0001
0000
,
0001
0000
0001
0000
,
0001
0000
0100
0000
,
0010
0000
1000
0000
,
0000
0100
0100
0000
,
0000
0000
1000
0000
,
0000
0000
0001
0001
,
0001
0000
0001
0001
,
0001
0000
0001
0001
,
0001
0000
0001
0001
,
0001
0000
1001
0000
,
0000
0000
1001
0000
,
0000
0000
0010
0000
,
0100
0000
0010
0000
,
1000
0000
1000
1000
,
1000
0000
1000
1000
,
1000
0000
1000
1000
,
1000
0000
1000
1000
,
1000
0000
1001
0000
,
0000
0000
0110
0000
,
0000
0000
0010
0000
,
0000
0000
0010
0000
,
0000
0000
0110
0000
,
0000
0010
0000
0000
,
0000
0000
1001
0000
,
0000
1000
0000
0000
,
0000
0000
1001
0000
,
0000
0010
0000
0000
,
0000
0000
0110
0000
,
0000
0000
0000
0001
0000
0000
0000
0000
,
1000
0000
0000
0000
,
0001
0000
0000
0000
,
0100
0000
0000
0000
,
0010
0000
1000
0001
,
1000
0000
0000
0000
,
0100
0000
0000
0000
,
1000
0000
0001
0000
,
1000
0000
0010
0000
,
0100
0000
0000
0000
,
0010
0000
0000
0000
,
1000
0000
0000
0000
,
0001
0000
1000
0001
,
0100
0000
0000
0000
,
0010
0000
0000
0000
,
1000
0000
0001
0000
,
0100
0000
0010
0000
,
0110
0000
0000
0000
;
