#TITLE:rage against usual;
#SUBTITLE:;
#ARTIST:dj TAKA feat.Gt.Shintaro;
#TITLETRANSLIT:;
#SUBTITLETRANSLIT:;
#ARTISTTRANSLIT:;
#GENRE:DIGI-ROCK;
#CREDIT:;
#BANNER:banner.png;
#BACKGROUND:background.png;
#LYRICSPATH:;
#CDTITLE:CDTITLE.png;
#MUSIC:rage against usual.ogg;
#OFFSET:-0.269000;
#SAMPLESTART:25.503159;
#SAMPLELENGTH:18.947365;
#SELECTABLE:YES;
#BPMS:0.000000=152.000000
;
#STOPS:
;
#BGCHANGES:;
#KEYSOUNDS:;
#ATTACKS:;

//---------------dance-single - ----------------
#NOTES:
     dance-single:
     :
     Hard:
     12:
     0.510300,0.616370,0.301065,0.252244,0.260381,439.000000,402.000000,37.000000,31.000000,0.000000,0.000000,0.510300,0.616370,0.301065,0.252244,0.260381,439.000000,402.000000,37.000000,31.000000,0.000000,0.000000:
// measure 0
0000
0000
0000
0000
,  // measure 1
0000
0000
0000
0000
,  // measure 2
0000
0000
0000
0000
,  // measure 3
0000
0000
0000
0000
,  // measure 4
2000
0000
3002
0000
0003
0100
0100
0000
,  // measure 5
0020
0000
2030
0000
3000
0100
0010
0000
,  // measure 6
0200
0000
0320
0000
0030
0001
0001
0000
,  // measure 7
1000
0000
0000
1000
0000
0000
1000
0000
0010
0000
0000
0010
0000
0000
0010
0000
,  // measure 8
1001
1000
0100
0000
1000
0000
0010
0100
,  // measure 9
0000
0001
0000
0010
0000
0100
0010
0001
,  // measure 10
1000
0001
0100
0000
0001
0000
0010
1000
,  // measure 11
0000
0000
0010
0000
0000
0000
0100
0000
0010
0001
0000
0001
0100
0000
0010
0000
,  // measure 12
1010
1000
0001
0000
0010
0000
0100
1000
,  // measure 13
0000
0010
0000
0100
0000
0010
1000
0001
,  // measure 14
0000
1000
0010
0000
0100
0000
0010
1000
,  // measure 15
0001
0000
0010
0000
1000
0000
0000
0000
0010
0100
0000
0100
1000
0000
0001
0000
,  // measure 16
1001
0000
0000
0001
0000
0000
1000
0000
0000
0010
0000
0000
0100
0000
0010
0000
,  // measure 17
1000
0000
0000
0001
0000
0000
0022
0000
0030
0000
0013
0000
0100
0000
1000
0000
,  // measure 18
0100
0000
0000
1000
0000
0000
0020
0000
0000
0000
0130
0000
0010
0000
1000
0000
,  // measure 19
0001
0000
0000
1000
0000
0000
0100
0000
0010
0000
0001
0000
0010
0000
0000
0000
,  // measure 20
0100
0000
0000
0010
0000
0000
0001
0000
0000
0100
0000
0000
0010
0000
0100
0000
,  // measure 21
0001
0000
0000
1000
0000
0000
0202
0000
0300
0000
1003
0000
0001
0000
0100
0000
,  // measure 22
0010
0000
0000
1000
0000
0000
2002
0000
0003
0000
3100
0000
1000
0000
0001
0000
,  // measure 23
0010
0000
0100
0000
0100
0000
0100
1000
0000
1000
0100
0000
0010
0000
0001
0000
,  // measure 24
1000
0000
0000
0100
0000
0000
0001
0000
0000
0100
0000
0000
0010
0000
0100
0000
,  // measure 25
1000
0000
0000
0010
0000
0000
0202
0000
0003
0000
0310
0000
1000
0000
0100
0000
,  // measure 26
0010
0000
0000
0100
0000
0000
2002
0000
0003
0000
3001
0000
0010
0000
1000
0000
,  // measure 27
0010
0000
0100
0000
1000
0000
0010
1000
0000
1000
0001
0000
0010
0100
0000
0000
,  // measure 28
0001
0000
0000
0100
0000
0000
1000
0000
0000
0100
0000
0000
0010
0000
1000
0000
,  // measure 29
0001
0000
0000
1000
0000
0000
0010
0000
1000
0000
0100
0000
0001
0000
0100
0000
,  // measure 30
0110
0000
0000
1000
0000
0000
0001
0000
0011
0000
0000
0010
0000
0000
0100
0000
,  // measure 31
1100
0000
0001
0000
0001
0000
0100
0010
0000
0100
0010
0000
1000
0000
0001
0000
,  // measure 32
0010
0000
0000
0000
,  // measure 33
0000
0000
0000
0000
,  // measure 34
1000
0000
0000
0001
0000
0000
0100
0000
0001
0000
0000
0100
0000
0000
0010
0000
,  // measure 35
1000
0000
0000
0010
0000
0000
0100
0000
0001
0000
0000
0010
0000
0000
0100
0000
,  // measure 36
0010
0000
0000
0001
0000
0000
1000
0000
0010
0000
0000
1000
0000
0000
0001
0000
,  // measure 37
0010
0000
0000
0100
0000
0000
0010
0000
0001
0000
0000
1000
0000
0000
0010
0000
,  // measure 38
0200
0000
0000
0302
0000
0013
0002
0000
,  // measure 39
0003
0010
0100
1000
0100
0001
0100
1000
,  // measure 40
0020
0000
0000
1030
0000
0000
0001
0000
0020
0000
0000
0130
0000
0000
0010
0000
,  // measure 41
0001
0000
0000
1000
0000
0000
0020
0000
0200
0000
0000
0000
0330
0000
0000
0000
,  // measure 42
0001
1000
0100
1000
0001
0100
0001
0010
,  // measure 43
0100
0000
0000
0010
0000
0000
0001
0000
0000
0100
0000
0000
0010
0000
1000
0000
,  // measure 44
0001
0000
0010
0000
0000
0010
0000
0000
0100
0000
0000
0100
0000
0000
1000
0000
,  // measure 45
0001
0010
0100
1000
0001
0010
0100
0010
,  // measure 46
0001
0001
0001
0001
1000
1000
1000
1000
,  // measure 47
0010
0010
0010
0010
0100
0100
0100
0100
,  // measure 48
0010
0000
0000
1000
0000
0000
0010
0000
0000
0100
0000
0000
0010
0000
1000
0000
,  // measure 49
0001
0000
0000
1000
0000
0000
0010
0000
0000
0100
0000
0000
0001
0000
0000
0000
,  // measure 50
4004
0000
0000
0000
,  // measure 51
0000
0000
0000
0000
,  // measure 52
0000
0000
0000
0000
0000
0000
0000
3003
,  // measure 53
0020
0000
0000
0000
0000
0000
0000
0200
0030
0000
0000
0000
0000
0000
0000
0000
,  // measure 54
0301
1000
0001
0000
0000
0010
0110
0000
,  // measure 55
0100
1000
0010
0000
0000
0100
0101
0000
,  // measure 56
0001
1000
0100
0000
0000
0010
0011
0000
,  // measure 57
0001
0000
0100
0000
1000
0000
0100
0010
0000
0010
0100
0000
0001
1000
0000
0000
,  // measure 58
0100
0010
0001
0000
0000
1000
1010
0000
,  // measure 59
1000
0001
0010
0000
0000
0100
1100
0000
,  // measure 60
1000
0100
0001
0000
0000
0100
0110
0000
,  // measure 61
0100
0000
0010
0000
0001
0000
0010
0001
0000
1000
0100
0000
1000
0010
0000
0000
,  // measure 62
0100
0001
0011
0000
0000
0100
1001
0000
,  // measure 63
1000
0010
0110
0000
0000
0001
1001
0000
,  // measure 64
0001
0100
0110
0000
0000
1000
0101
0000
,  // measure 65
0001
0000
0010
0000
0110
0000
0100
0010
0000
0010
0001
0000
1000
0001
0000
0000
,  // measure 66
1000
0001
0100
0000
1100
0000
0100
0001
,  // measure 67
0000
0010
1000
0010
0000
0110
0000
0011
,  // measure 68
0000
0001
0010
0000
1010
0000
0010
0200
,  // measure 69
0000
0310
0001
0100
0010
1000
0002
0000
,  // measure 70
0003
0010
0100
0000
1100
0000
1000
0100
,  // measure 71
0000
0101
0000
1100
0000
1010
0000
0011
,  // measure 72
0000
0001
0010
0000
0110
0000
0010
2000
,  // measure 73
0000
3001
0010
0100
0010
0001
1000
0000
,  // measure 74
0001
0000
1000
0010
0000
0100
0001
0000
1000
0010
0000
0100
0001
0000
1000
0000
,  // measure 75
1001
2002
0000
0000
0000
0000
3003
0000
;

//---------------dance-single - ----------------
#NOTES:
     dance-single:
     :
     Challenge:
     18:
     0.914819,1.510106,0.528898,0.577720,1.118823,787.000000,722.000000,65.000000,71.000000,0.000000,0.000000,0.914819,1.510106,0.528898,0.577720,1.118823,787.000000,722.000000,65.000000,71.000000,0.000000,0.000000:
// measure 0
0000
0000
0000
0000
,  // measure 1
0000
0000
0000
0000
,  // measure 2
0000
0000
0000
0000
,  // measure 3
0000
0000
0000
0000
,  // measure 4
1020
0000
0000
0000
0230
0000
0000
0000
0301
0010
0001
0000
1100
0000
0000
0000
,  // measure 5
1002
0000
0000
0000
0023
0000
0000
0000
0130
1000
0100
0000
0011
0000
0000
0000
,  // measure 6
0201
0000
0000
0000
0320
0000
0000
0000
0130
0001
0100
0000
1010
0000
0000
0000
,  // measure 7
1001
0000
1000
0100
0000
0001
0100
0000
1001
0000
1000
0010
0000
0001
0010
0000
,  // measure 8
1100
0000
1000
0000
0010
0000
0100
0001
0000
0001
0010
0000
0100
0000
0010
0000
,  // measure 9
0001
0000
1000
0000
0010
0000
0100
0001
0000
0001
1000
0000
1100
0000
0000
0000
,  // measure 10
1000
0000
0001
0000
0010
0000
0100
0010
0000
0010
0001
0000
1000
0000
0001
0000
,  // measure 11
0100
0000
0010
0000
1000
0000
0001
0010
0100
1000
0100
1000
0100
1000
0100
1000
,  // measure 12
0001
0000
0100
0000
0010
0000
1000
0100
0000
0100
0010
0000
0001
0000
0100
0000
,  // measure 13
0010
0000
1000
0000
0001
0000
1000
0010
0000
0010
0100
0000
0101
0000
0000
0000
,  // measure 14
0001
0000
1000
0000
0100
0000
0010
0100
0000
0100
1000
0000
0010
0000
0100
0000
,  // measure 15
0001
0000
1000
0000
0010
0000
0100
0001
0010
0100
0000
0000
0010
0000
0001
0000
,  // measure 16
1001
0000
1000
0001
0000
0010
0100
0000
0010
0001
0000
0100
0010
0000
1000
0000
,  // measure 17
1001
0000
0000
0101
0000
0000
0120
0000
0000
0000
1030
0000
0100
0000
0001
0000
,  // measure 18
0101
0000
0000
0110
0000
0000
2000
0000
0000
0000
3010
0000
0100
0000
1000
0000
,  // measure 19
0001
0000
0100
0000
1010
0000
1000
0001
0100
0001
0100
0001
0100
0001
0000
0000
,  // measure 20
1010
0000
1000
0001
0000
0010
0100
0000
0010
0001
0000
0100
0010
0000
1000
0000
,  // measure 21
1001
0000
0000
1010
0000
0000
0201
0000
0000
0000
1300
0000
0100
0000
0001
0000
,  // measure 22
0011
0000
0000
0110
0000
0000
2100
0000
0000
0000
3001
0000
0010
0000
0100
0000
,  // measure 23
0010
0000
0011
0000
1100
0000
0011
0000
0001
0010
0000
0010
0100
1000
0010
0100
,  // measure 24
0001
0000
1000
0001
0000
0100
0010
1000
0010
1000
0010
1000
0010
0000
0100
0000
,  // measure 25
0001
0000
0010
0100
0000
0010
0001
0100
0001
0100
0001
0100
0001
0000
1000
0000
,  // measure 26
0100
0000
0010
0100
0000
1000
0001
0010
0001
0010
0001
0010
0001
0000
1000
0000
,  // measure 27
0001
0000
0100
0010
1000
0000
0001
0010
0100
1000
0100
1000
0100
1000
0000
0000
,  // measure 28
1001
0000
0001
0100
0000
0010
1000
0001
1000
0001
1000
0001
1000
0000
0001
0000
,  // measure 29
0011
0000
0010
0100
0000
0100
1000
0010
1000
0010
1000
0010
1000
0000
0010
0000
,  // measure 30
0101
0000
1000
0001
0000
0010
0100
0000
0011
0000
0001
0100
0000
0010
1000
0000
,  // measure 31
1001
0000
0110
0000
0110
0000
1000
0010
0000
0100
0001
0000
0010
0000
0100
0000
,  // measure 32
1001
0000
0000
0001
0000
0000
0001
0000
1000
0000
0000
1000
0000
0000
1000
0000
,  // measure 33
0010
0000
0000
0010
0000
0000
0010
0000
0100
0000
0000
0100
0000
0000
0100
0000
,  // measure 34
0010
0000
1000
0020
0000
0130
0002
0000
0013
0000
0100
0020
0000
0031
2000
0000
,  // measure 35
3002
0000
0103
0020
0000
1030
0200
0000
0310
0000
0100
2000
0000
3001
0200
0000
,  // measure 36
0320
0000
1030
0002
0000
0013
0200
0000
0320
0000
0031
0020
0000
0130
2000
0000
,  // measure 37
3002
0000
0103
0020
0000
1030
0200
0000
0320
0000
0130
2000
0000
3010
0200
0000
,  // measure 38
0301
0000
0000
2100
0000
0010
0020
0000
,  // measure 39
3030
0000
1000
0010
0100
0001
0010
0100
0010
0001
1000
0100
0010
0001
0010
0100
,  // measure 40
1000
0000
0001
0100
0000
0001
1000
0000
1001
0000
1000
0100
0000
1000
0001
0000
,  // measure 41
0101
0000
0001
0100
0000
0010
1000
0000
0200
0000
0000
0000
0000
0000
0000
0000
,  // measure 42
2300
0000
3100
0001
0000
0100
1000
0000
0100
0001
0000
0100
1000
0000
0010
0000
,  // measure 43
1001
0000
0001
0010
0000
1000
0010
0000
0001
0010
0000
1000
0010
0001
0010
0100
,  // measure 44
1000
0001
0010
0001
1000
0010
1000
0001
0010
0001
1000
0001
1000
0010
1000
0001
,  // measure 45
1000
0100
1000
0100
0001
0100
0001
0100
1000
0100
0001
0100
1000
0100
0001
1000
,  // measure 46
0020
2030
3020
2030
3002
0203
0302
0203
,  // measure 47
0302
0023
0032
0023
0230
2300
3200
2300
,  // measure 48
3001
0000
0100
0010
0000
1000
0001
0000
0010
0100
0000
0010
0001
0000
1000
0000
,  // measure 49
0001
0000
0100
0010
0000
1000
0001
0000
0010
0100
0000
0010
0001
0000
0000
0000
,  // measure 50
1000
0100
0010
0001
0010
0100
1000
0100
0010
0001
0010
0100
1000
0100
0010
0001
0010
0100
1000
0100
0010
0001
0010
0100
,  // measure 51
1000
0010
0100
0001
1000
0010
0100
0001
1000
0010
0100
0001
1000
0010
0100
0001
1000
0010
0100
0001
1000
0010
0100
0001
,  // measure 52
1000
0001
1000
0010
0100
0010
1000
0001
1000
0010
0100
0010
1000
0001
1000
0010
0100
0010
1000
0001
1000
0010
0100
0010
,  // measure 53
2000
0000
0000
0000
0000
0000
0000
0002
0000
0000
0000
0000
0000
0000
3003
0000
,  // measure 54
1000
0000
0100
0000
0011
0000
0010
0100
0000
0100
1000
0000
1010
0000
0010
0100
,  // measure 55
0001
0000
0010
0000
0110
0000
0100
1000
0000
0010
0100
0000
0101
0000
0001
1000
,  // measure 56
0100
0000
1000
0000
1010
0000
1000
0001
0000
0010
0100
0000
0110
0000
0010
0001
,  // measure 57
0100
0000
0010
0000
1000
0010
0000
0010
0100
0001
0100
0001
0100
0010
0000
0000
,  // measure 58
1000
0000
0100
0000
0110
0000
0100
1000
0000
0010
0100
0000
0101
0000
0001
1000
,  // measure 59
0100
0000
1000
0000
1010
0000
0010
0100
0000
0001
0010
0000
0110
0000
0010
0001
,  // measure 60
1000
0000
0001
0000
0101
0000
0001
1000
0000
0010
1000
0000
1100
0000
0100
0010
,  // measure 61
0001
0000
1000
0100
1000
0010
0100
0001
0010
0100
0010
0001
0100
0010
1000
0001
,  // measure 62
0010
0000
0100
0000
1100
0000
1000
0010
0100
0000
0001
0000
1001
0000
0001
0010
,  // measure 63
0100
0000
1000
0100
1000
0100
0010
0001
0010
0001
0100
0001
0100
0010
0100
0010
,  // measure 64
1000
0010
1000
0010
0100
0010
0100
0001
0100
0001
0010
0001
0010
0100
0010
0100
1000
0100
1000
0001
1000
0001
0100
0010
,  // measure 65
0100
0001
0100
0001
0010
0001
0010
0100
0010
0100
1000
0100
2000
0000
0000
0000
0000
0000
0000
0000
0000
0000
0000
0000
,  // measure 66
3001
0100
1020
0000
0230
0000
1300
1200
,  // measure 67
0000
0301
0010
2000
0000
3010
0000
1001
,  // measure 68
0000
0001
0020
0000
2030
0000
3010
0012
,  // measure 69
0000
0000
0013
0100
1000
0001
0010
0100
0010
0001
1000
0100
0020
0000
0000
0000
,  // measure 70
0031
0100
1200
0000
0302
0000
0013
1020
,  // measure 71
0000
0230
0000
1000
0000
0310
0100
1001
,  // measure 72
0000
0001
0021
0000
0230
0000
0310
0002
,  // measure 73
0000
0000
0103
0010
1000
0001
0010
0100
0010
0001
1000
0100
0010
0000
0000
0000
,  // measure 74
1001
0000
0001
0001
0000
0100
0100
0000
0010
0010
0000
1000
1000
0000
0001
0000
,  // measure 75
0110
0220
0000
0000
0000
0000
0330
0000
;

//---------------dance-single - ----------------
#NOTES:
     dance-single:
     :
     Medium:
     11:
     0.437068,0.461515,0.203422,0.317339,0.158669,376.000000,351.000000,25.000000,39.000000,0.000000,0.000000,0.437068,0.461515,0.203422,0.317339,0.158669,376.000000,351.000000,25.000000,39.000000,0.000000,0.000000:
// measure 0
0000
0000
0000
0000
,  // measure 1
0000
0000
0000
0000
,  // measure 2
0000
0000
0000
0000
,  // measure 3
0000
0000
0000
0000
,  // measure 4
1000
0000
0001
0000
0000
0100
0010
0000
,  // measure 5
1000
0000
0001
0000
0000
0010
0100
0000
,  // measure 6
1000
0000
0001
0000
0000
0100
0010
0000
,  // measure 7
2000
0000
3002
0000
,  // measure 8
0103
0101
0001
0011
,  // measure 9
0001
0000
1000
0000
0001
0100
0010
0000
,  // measure 10
1000
1100
1000
1010
,  // measure 11
0100
0000
0001
0000
1000
0100
1000
0100
,  // measure 12
1000
1010
0010
0110
,  // measure 13
0100
0000
0001
0000
0010
0100
1000
0000
,  // measure 14
0100
0110
0010
0011
,  // measure 15
1000
0000
0001
0000
0100
0010
0100
0010
,  // measure 16
1000
0000
0000
1000
0000
0000
0001
0000
0000
0001
0000
0000
0100
0000
0010
0000
,  // measure 17
1000
0000
0000
0100
0000
0000
0020
0000
0000
0000
0130
0000
0010
0000
0001
0000
,  // measure 18
1000
0000
0000
0001
0000
0000
0200
0000
0000
0000
0310
0000
1000
0000
0001
0000
,  // measure 19
0010
0110
1000
1001
,  // measure 20
1000
0000
0000
0010
0000
0000
1000
0000
0000
0100
0000
0000
0010
0000
0100
0000
,  // measure 21
1000
0000
0000
0001
0000
0000
0020
0000
0000
0000
0130
0000
1000
0000
0010
0000
,  // measure 22
0100
0000
0000
0001
0000
0000
0020
0000
0000
0000
0130
0000
0010
0000
0001
0000
,  // measure 23
1000
0001
0100
0000
0010
1000
0100
0000
,  // measure 24
0010
0000
0000
0100
0000
0000
1000
0000
0001
0000
1000
0000
0001
0000
0000
0000
,  // measure 25
0100
0000
0000
0010
0000
0000
1000
0000
0100
0000
1000
0000
0100
0000
0000
0000
,  // measure 26
0010
0000
0000
0001
0000
0000
0100
0000
0010
0000
0100
0000
0010
0000
0000
0000
,  // measure 27
1000
0000
0000
0001
0000
0000
0010
0000
0000
0100
0000
0000
0010
0000
0000
0000
,  // measure 28
0001
0000
0000
0010
0000
0000
0100
0000
0000
1000
0000
0000
0100
0000
0010
0000
,  // measure 29
0001
0000
0000
0010
0000
0000
0100
0000
0000
1000
0000
0000
0100
0000
0010
0000
,  // measure 30
0001
0000
0000
0001
0000
0000
0001
0000
0100
0000
0000
0100
0000
0000
0100
0000
,  // measure 31
0010
0000
0000
1000
0000
0000
0001
0000
0010
0000
0100
0000
1000
0000
0001
0000
,  // measure 32
1001
0000
0000
0000
,  // measure 33
0000
0000
0000
0000
,  // measure 34
1000
0010
1000
0000
0010
1000
0010
0000
,  // measure 35
1000
0010
1000
0000
0010
1000
0010
0000
,  // measure 36
0100
0001
0100
0000
0001
0100
0001
0000
,  // measure 37
0100
0001
0100
0000
0001
0100
0001
0000
,  // measure 38
2001
0000
0000
3020
0000
0000
0200
0000
,  // measure 39
0030
0301
1000
0000
0100
0000
0010
0000
,  // measure 40
0100
0000
0000
1000
0000
0000
0010
0000
0100
0000
0000
0001
0000
0000
0010
0000
,  // measure 41
0100
0000
0000
0010
0000
0000
0002
0000
2000
0000
0000
0000
0000
0000
3003
0000
,  // measure 42
0010
0000
0000
0010
0000
0000
1000
0000
0000
0100
0000
0000
0010
0000
0100
0000
,  // measure 43
1000
0000
0000
1000
0000
0000
0001
0000
0000
0010
0000
0000
0100
0000
0010
0000
,  // measure 44
0001
0000
1000
0000
0000
1000
0000
0000
1000
0000
0000
0001
0000
0000
1000
0000
,  // measure 45
0010
1000
0100
0010
0001
1000
0100
0010
,  // measure 46
0002
0203
2300
3200
,  // measure 47
0302
0023
2030
3020
,  // measure 48
0031
0000
0000
1000
0000
0000
0010
0000
0000
1000
0000
0000
0001
0000
0010
0000
,  // measure 49
0100
0000
0000
0010
0000
0000
0001
0000
0000
0100
0000
0000
0010
0000
0000
0000
,  // measure 50
2002
3000
2000
0003
0002
3000
2000
0003
,  // measure 51
0020
3000
0200
0030
0020
0300
0200
0030
,  // measure 52
0020
0300
2000
0030
0020
3000
0200
0030
,  // measure 53
0002
0000
0000
0000
0300
0000
0000
0020
0000
0000
0000
0000
0000
0000
0033
0000
,  // measure 54
1000
0000
0101
0000
0000
0001
0011
0000
,  // measure 55
1000
0000
1100
0000
0000
1000
1010
0000
,  // measure 56
1000
0000
1001
0000
0000
0010
0110
0000
,  // measure 57
1000
0000
1100
0000
1000
0010
1000
0010
,  // measure 58
0100
0001
0010
0000
0000
1000
1100
0000
,  // measure 59
1000
0100
0010
0000
0000
0010
0011
0000
,  // measure 60
0001
1000
0010
0000
0000
0100
1001
0000
,  // measure 61
0001
0010
0100
0000
0000
0010
1001
0000
,  // measure 62
0001
1000
0010
0100
,  // measure 63
0001
0010
0100
0010
,  // measure 64
0001
0000
0000
0001
0000
0000
0001
0000
0100
0000
0000
0100
0000
0000
0100
0000
,  // measure 65
0010
0000
0000
1000
0000
0000
0010
0000
0200
0000
0000
0000
0000
0000
0000
0000
,  // measure 66
0300
0001
0010
0000
0100
0000
0010
0001
,  // measure 67
0000
1000
0000
0010
0000
0100
0000
0010
,  // measure 68
0000
1000
0100
0000
1000
0000
0010
0200
,  // measure 69
0000
0310
1000
0100
0010
0001
0020
0000
,  // measure 70
0030
0100
0010
0000
0001
0000
1000
0010
,  // measure 71
0000
1000
0000
0001
0000
0010
0000
0001
,  // measure 72
0000
1000
0001
0000
0100
0000
0010
1000
,  // measure 73
0000
0001
0010
0100
0010
0001
1000
0000
,  // measure 74
0001
0000
0000
0100
0000
0000
1000
0000
0000
0100
0000
0000
0010
0000
1000
0000
,  // measure 75
1002
2000
0000
0000
0000
3003
0000
0000
;

//---------------dance-single - ----------------
#NOTES:
     dance-single:
     :
     Easy:
     6:
     0.280142,0.430747,0.130190,0.187149,0.000000,241.000000,225.000000,16.000000,23.000000,0.000000,0.000000,0.280142,0.430747,0.130190,0.187149,0.000000,241.000000,225.000000,16.000000,23.000000,0.000000,0.000000:
// measure 0
0000
0000
0000
0000
,  // measure 1
0000
0000
0000
0000
,  // measure 2
0000
0000
0000
0000
,  // measure 3
0000
0000
0000
0000
,  // measure 4
1000
0001
0000
0100
,  // measure 5
0001
1000
0000
0100
,  // measure 6
1000
0001
0000
0100
,  // measure 7
0010
0000
2000
0000
,  // measure 8
3001
1000
0010
1000
,  // measure 9
0100
0010
0100
1000
,  // measure 10
0000
0001
0010
0001
,  // measure 11
0100
0010
0100
0100
,  // measure 12
1001
1000
0001
0010
,  // measure 13
0001
0100
0010
1000
,  // measure 14
0001
0010
0001
1000
,  // measure 15
0010
0010
0100
0100
,  // measure 16
1001
0000
0000
1000
0000
0000
0001
0000
,  // measure 17
0100
0000
0000
0020
0000
0000
0130
0000
,  // measure 18
0001
0000
0000
0010
0000
0000
0001
0000
,  // measure 19
1000
0001
0100
0010
,  // measure 20
1000
0000
0000
0001
0000
0000
0010
0000
,  // measure 21
0001
0000
0000
0200
0000
0000
0301
0000
,  // measure 22
0010
0000
0000
0200
0000
0000
1300
0000
,  // measure 23
0100
1000
0010
0100
,  // measure 24
0001
0000
0000
1000
0000
0000
0010
0000
,  // measure 25
1000
0000
0000
0200
0000
0000
1300
0000
,  // measure 26
0010
0000
0000
0200
0000
0000
0310
0000
,  // measure 27
0100
0001
0010
0001
,  // measure 28
1000
0000
0000
0001
0000
0000
0010
0000
,  // measure 29
0001
0000
0000
1000
0000
0000
0010
0000
,  // measure 30
1001
0000
0110
0000
,  // measure 31
1001
0110
1001
0110
,  // measure 32
2002
0000
0000
0000
,  // measure 33
0000
0000
0000
3003
,  // measure 34
1000
0000
0001
0000
,  // measure 35
0100
0000
0010
0000
,  // measure 36
1000
0000
0100
0000
,  // measure 37
1000
0000
0001
0000
,  // measure 38
0200
0000
0000
0000
,  // measure 39
0300
0010
1000
0100
,  // measure 40
0010
0001
0010
0100
,  // measure 41
0010
0001
0200
0000
,  // measure 42
0310
1000
0001
0010
,  // measure 43
0001
1000
0100
0010
,  // measure 44
0001
0001
0001
0001
,  // measure 45
1000
1000
1000
1000
,  // measure 46
0001
0100
1000
0100
,  // measure 47
0001
0100
1000
0100
,  // measure 48
0010
1000
0001
0010
,  // measure 49
0001
1000
0010
0100
,  // measure 50
1002
1000
1000
1003
,  // measure 51
2001
0001
0001
3001
,  // measure 52
1002
1003
2001
3001
,  // measure 53
0220
0000
0000
0330
,  // measure 54
2002
0000
0000
0000
,  // measure 55
0000
0000
0000
0000
0000
0000
0000
3003
,  // measure 56
1000
0001
0000
0010
,  // measure 57
0001
0100
0010
1000
,  // measure 58
0200
1000
0000
1000
,  // measure 59
0000
1300
0100
0010
,  // measure 60
0002
0100
0000
0100
,  // measure 61
1003
0001
0010
0100
,  // measure 62
1000
0100
0000
1000
,  // measure 63
0000
0010
0000
0100
,  // measure 64
0010
0010
1000
1000
,  // measure 65
0001
0001
0200
0000
,  // measure 66
0301
0010
0001
1000
,  // measure 67
0100
1000
0010
0100
,  // measure 68
0000
0010
1000
0100
,  // measure 69
0010
0001
0010
0100
,  // measure 70
0000
0010
0001
1000
,  // measure 71
0010
1000
0001
0100
,  // measure 72
0001
0010
0100
0010
,  // measure 73
0001
0010
0100
1000
,  // measure 74
0010
0000
0000
0100
0000
0000
0010
0000
,  // measure 75
2002
0000
0000
0000
0000
3003
0000
0000
;

//---------------dance-single - ----------------
#NOTES:
     dance-single:
     :
     Beginner:
     3:
     0.102292,0.152567,0.032548,0.000000,0.000000,88.000000,84.000000,4.000000,0.000000,0.000000,0.000000,0.102292,0.152567,0.032548,0.000000,0.000000,88.000000,84.000000,4.000000,0.000000,0.000000,0.000000:
// measure 0
0000
0000
0000
0000
,  // measure 1
0000
0000
0000
0000
,  // measure 2
0000
0000
0000
0000
,  // measure 3
0000
0000
0000
0000
,  // measure 4
1000
0000
0000
0000
,  // measure 5
1000
0000
0000
0000
,  // measure 6
1000
0000
0000
0000
,  // measure 7
0010
0000
0000
0000
,  // measure 8
0100
0000
0000
0000
,  // measure 9
0010
0000
0000
0000
,  // measure 10
1000
0000
0000
0000
,  // measure 11
0001
0000
1000
0001
,  // measure 12
1000
0000
0000
0000
,  // measure 13
0010
0000
0000
0000
,  // measure 14
1000
0000
0000
0000
,  // measure 15
0100
0000
0010
0001
,  // measure 16
0010
0000
0000
0000
,  // measure 17
0001
0000
0000
0000
,  // measure 18
1000
0000
0000
0000
,  // measure 19
0010
0000
1000
0000
,  // measure 20
0100
0000
0000
0000
,  // measure 21
1000
0000
0000
0000
,  // measure 22
0001
0000
0000
0000
,  // measure 23
0100
0000
0010
0000
,  // measure 24
0100
0000
0000
0000
,  // measure 25
0010
0000
0000
0000
,  // measure 26
1000
0000
0000
0000
,  // measure 27
0001
0000
1000
0000
,  // measure 28
0001
0000
0000
0000
,  // measure 29
0001
0000
0000
0000
,  // measure 30
1000
0000
1000
0000
,  // measure 31
1000
0000
0000
0000
,  // measure 32
0110
0000
0000
0000
,  // measure 33
0000
0000
0000
0000
,  // measure 34
0010
0000
0000
0000
,  // measure 35
1000
0000
0000
0000
,  // measure 36
0100
0000
0000
0000
,  // measure 37
1000
0000
0000
0000
,  // measure 38
1001
0000
0000
0000
,  // measure 39
0010
0000
0000
0000
,  // measure 40
1000
0000
0000
0000
,  // measure 41
0100
0000
0000
0000
,  // measure 42
1000
0000
0000
0000
,  // measure 43
0001
0000
0000
0000
,  // measure 44
0010
0000
0000
0000
,  // measure 45
0001
0000
0000
0000
,  // measure 46
1000
0000
0000
0000
,  // measure 47
0001
0000
0000
0000
,  // measure 48
0100
0000
0000
0000
,  // measure 49
0010
0000
0000
0000
,  // measure 50
1001
0000
0000
0000
,  // measure 51
0000
0000
0000
0000
,  // measure 52
0000
0000
0000
0000
,  // measure 53
1000
0000
0000
0000
,  // measure 54
0010
0000
0000
0000
,  // measure 55
0100
0000
0000
0000
,  // measure 56
0001
0000
0000
0000
,  // measure 57
0010
0000
0000
0000
,  // measure 58
0001
0000
0000
0000
,  // measure 59
1000
0000
0000
0000
,  // measure 60
0010
0000
0000
0000
,  // measure 61
1000
0000
0000
0000
,  // measure 62
0100
0000
0000
0000
,  // measure 63
1000
0000
0000
0000
,  // measure 64
0010
0000
0100
0000
,  // measure 65
0010
0000
1000
0000
,  // measure 66
0000
0001
0001
0000
,  // measure 67
1000
0000
0000
0000
,  // measure 68
0000
0010
0010
0000
,  // measure 69
0100
0000
0000
0000
,  // measure 70
0000
0010
0010
0000
,  // measure 71
1000
0000
0000
0000
,  // measure 72
0000
0100
0100
0000
,  // measure 73
0010
0000
0000
0000
,  // measure 74
0001
0000
1000
0000
,  // measure 75
0110
0000
0000
0000
;
