#TITLE:prop the world;
#SUBTITLE:;
#ARTIST:S-C-U;
#TITLETRANSLIT:;
#SUBTITLETRANSLIT:;
#ARTISTTRANSLIT:;
#GENRE:CONCEPT;
#CREDIT:;
#BANNER:banner.png;
#BACKGROUND:background.png;
#LYRICSPATH:;
#CDTITLE:CDTITLE.png;
#MUSIC:prop the world.ogg;
#OFFSET:-0.002000;
#SAMPLESTART:0.000000;
#SAMPLELENGTH:12.000000;
#SELECTABLE:YES;
#BPMS:0.000000=130.000000
;
#STOPS:
;
#BGCHANGES:;
#KEYSOUNDS:;
#ATTACKS:;

//---------------dance-single - ----------------
#NOTES:
     dance-single:
     :
     Hard:
     11:
     0.429367,0.449074,0.056354,0.234810,0.225418,320.000000,314.000000,6.000000,25.000000,0.000000,0.000000,0.429367,0.449074,0.056354,0.234810,0.225418,320.000000,314.000000,6.000000,25.000000,0.000000,0.000000:
// measure 0
0000
0000
0000
0000
,  // measure 1
0000
0000
0000
0000
,  // measure 2
0000
0000
0000
0000
,  // measure 3
0000
0000
0000
0000
,  // measure 4
0002
0000
0000
0203
0000
0000
0320
0000
,  // measure 5
0000
0000
0000
0000
,  // measure 6
2030
0000
0000
3002
0000
0000
0203
0000
,  // measure 7
0000
0000
0000
0000
,  // measure 8
0300
0010
0100
0001
1000
0100
0000
0100
,  // measure 9
0000
0010
0001
0100
0001
0010
0100
1000
,  // measure 10
0000
0001
0100
0010
1000
0001
0000
0001
,  // measure 11
0000
1000
0010
1000
0001
0010
0100
1000
,  // measure 12
0000
0100
1000
0010
1000
0100
0000
0100
,  // measure 13
0000
0010
0100
0010
0001
0010
0100
1000
,  // measure 14
0000
0001
0100
0010
0100
0010
0000
0100
,  // measure 15
0010
0000
1000
0000
0010
0000
1000
0000
0001
1000
0001
1000
0002
0000
0000
0000
,  // measure 16
0103
0000
0000
0100
0000
0000
0001
0000
0000
0001
0000
0000
0010
0000
0000
0100
,  // measure 17
0000
0000
0100
0000
0000
0100
0000
0000
0100
0000
0000
0100
0000
0000
0100
0000
,  // measure 18
0010
0000
0000
0010
0000
0000
0001
0000
0000
0001
0000
0000
1000
0000
0000
0100
,  // measure 19
0000
0000
0100
0000
0000
0100
0000
0000
0100
0000
0000
0100
0000
0000
0100
0000
,  // measure 20
0010
0000
0000
0010
0000
0000
0100
0000
0000
0100
0000
0000
1000
0000
0000
0001
,  // measure 21
0000
0000
0001
0000
0000
0001
0000
0000
0001
0000
0000
0001
0000
0000
0001
0000
,  // measure 22
0010
0000
0000
0010
0000
0000
0001
0000
0000
0001
0000
0000
0100
0000
0000
0010
,  // measure 23
0000
0000
0010
0000
0000
0010
0000
0000
0010
0000
0000
0010
0000
0000
0010
0000
,  // measure 24
1001
1000
0200
0000
0310
0000
0001
0020
,  // measure 25
0000
0130
0020
0000
0031
0010
0001
1000
,  // measure 26
0100
0001
0100
1000
0010
0100
0000
0100
,  // measure 27
0000
0100
0010
1000
0001
0010
0000
0100
,  // measure 28
1000
0010
0200
0000
0302
0000
0013
0200
,  // measure 29
0000
0310
0001
0100
0001
1000
0100
0010
,  // measure 30
0001
0000
0000
1000
0000
0000
0010
0000
0000
0000
1000
0000
1000
0000
0000
0000
,  // measure 31
0000
0100
0001
0100
0010
0001
1000
0010
,  // measure 32
0100
0000
0101
0000
0001
0010
0100
0000
,  // measure 33
1000
0000
0101
0000
1000
0100
0010
0000
,  // measure 34
0000
0100
1000
0010
0100
0001
0000
0001
,  // measure 35
0000
1000
0010
0100
0001
0010
0100
1000
,  // measure 36
0001
0100
0010
0000
1000
0000
0101
0000
,  // measure 37
0001
1000
0100
0000
0010
0000
1100
0000
,  // measure 38
0001
0000
1000
0010
0000
0100
0001
0000
,  // measure 39
0000
1000
0100
1000
0010
0100
0001
0020
,  // measure 40
0000
0000
0000
0000
,  // measure 41
0000
0000
0130
1000
0001
1000
0001
0020
,  // measure 42
0000
0000
0130
0000
0010
0000
0001
0000
0100
0000
0010
1000
0000
0001
0000
1000
,  // measure 43
0000
0010
0100
0010
1000
0100
0010
0002
,  // measure 44
0000
0000
1003
0000
0100
0000
1000
0000
0010
0000
0100
0001
0000
0010
0000
0100
,  // measure 45
0000
0010
0001
0010
1000
0010
0100
1000
,  // measure 46
0010
0000
0100
0000
1000
0000
0100
0000
0010
0000
1000
0001
0000
0010
0000
0100
,  // measure 47
0000
0010
0100
1000
0010
0100
0001
0010
,  // measure 48
0200
0000
0000
0000
0310
0000
0001
0000
0100
0000
0010
1000
0000
0001
0000
0200
,  // measure 49
0000
0000
0301
0000
1000
0010
1000
0000
0010
0000
0100
0000
0001
0000
0020
0000
,  // measure 50
0000
0000
0130
0000
0010
0000
0001
0000
0100
0000
0010
0100
0000
0001
0000
2000
,  // measure 51
0000
3001
0010
0100
0010
0001
1000
0020
,  // measure 52
0000
0000
0130
0000
0001
0000
0010
0000
0001
0000
1000
0001
0000
0010
0000
0200
,  // measure 53
0000
0000
0310
0000
0001
0100
0001
0000
0100
0000
0001
0000
1000
0000
0200
0000
,  // measure 54
0000
0000
0310
0000
0100
0000
1000
0000
0010
0000
0100
0010
0000
1000
0000
0001
,  // measure 55
0000
0000
0010
0000
0100
0000
0010
0000
0001
0000
1000
0010
0000
0010
0000
0000
,  // measure 56
2002
3003
0000
0000
;

//---------------dance-single - ----------------
#NOTES:
     dance-single:
     :
     Medium:
     7:
     0.262987,0.316994,0.046962,0.225418,0.000000,196.000000,191.000000,5.000000,24.000000,0.000000,0.000000,0.262987,0.316994,0.046962,0.225418,0.000000,196.000000,191.000000,5.000000,24.000000,0.000000,0.000000:
// measure 0
0000
0000
0000
0000
,  // measure 1
0000
0000
0000
0000
,  // measure 2
0000
0000
0000
0000
,  // measure 3
0000
0000
0000
0000
,  // measure 4
2000
0000
0000
3002
0000
0000
0020
0000
,  // measure 5
0000
0000
0000
0033
,  // measure 6
0002
0000
0000
2003
0000
0000
0020
0000
,  // measure 7
0000
0000
0000
3030
,  // measure 8
1000
0001
0010
0001
,  // measure 9
0100
0000
0010
0000
1000
0100
0010
0001
,  // measure 10
0000
1000
0001
0100
,  // measure 11
0001
0000
1000
0000
0001
0010
0100
1000
,  // measure 12
0000
0100
1000
0010
,  // measure 13
1000
0000
0001
0000
1000
0100
0010
0001
,  // measure 14
0000
0010
0001
0100
,  // measure 15
0001
0000
0001
0000
0001
1000
0002
0000
,  // measure 16
0013
0001
0100
0010
,  // measure 17
1000
0000
0001
0000
0010
0000
0100
1000
,  // measure 18
0010
0100
0001
0010
,  // measure 19
0001
0000
1000
0000
0100
0000
0010
0100
,  // measure 20
1000
0010
1000
0001
,  // measure 21
0010
0000
0100
0000
0010
0000
0001
0100
,  // measure 22
0010
1000
0100
0010
,  // measure 23
0001
1000
0010
0100
,  // measure 24
1001
0000
0000
1010
0000
0000
0100
0002
,  // measure 25
0000
0013
0001
1000
,  // measure 26
0010
0000
0100
0000
0001
0100
0001
0000
,  // measure 27
0100
0000
0010
0000
1000
0001
0100
0000
,  // measure 28
1010
0000
0000
1100
0000
0000
0001
0020
,  // measure 29
0000
0031
0100
0000
0001
0000
1000
0000
,  // measure 30
0200
1300
0020
0130
,  // measure 31
0002
1003
0200
0320
,  // measure 32
0031
0100
0001
1000
,  // measure 33
0100
0000
1000
0000
0010
0000
0100
0001
,  // measure 34
0010
0100
0010
0001
,  // measure 35
1000
0001
0100
0001
,  // measure 36
1000
0010
0100
0001
,  // measure 37
0010
0000
0100
0000
0010
0100
1000
0000
,  // measure 38
0010
0100
0000
0000
0010
1000
0001
0000
,  // measure 39
0000
1000
0100
0000
0000
1000
0001
0020
,  // measure 40
0000
0000
0000
0000
,  // measure 41
0000
0000
0130
0010
0001
1000
0010
0200
,  // measure 42
0000
0000
0000
0000
,  // measure 43
0000
0000
0000
0000
0000
0310
1000
0002
,  // measure 44
0000
0000
0000
0000
,  // measure 45
0000
0000
1003
0100
0010
0100
1000
0020
,  // measure 46
0000
0000
0000
0000
,  // measure 47
0000
0000
0000
0000
0000
0130
0001
2000
,  // measure 48
0000
0100
0000
0100
,  // measure 49
0000
0000
3100
0010
0001
1000
0001
0200
,  // measure 50
0000
0010
0000
0010
,  // measure 51
0000
0000
0010
0000
0000
0310
1000
0200
,  // measure 52
0000
0010
0000
0010
,  // measure 53
0000
0000
0310
0001
1000
0100
0010
0002
,  // measure 54
0000
1000
0000
1000
,  // measure 55
0000
1000
0000
1003
,  // measure 56
0220
0330
0000
0000
;

//---------------dance-single - ----------------
#NOTES:
     dance-single:
     :
     Easy:
     5:
     0.189190,0.264161,0.009392,0.084532,0.000000,141.000000,140.000000,1.000000,9.000000,0.000000,0.000000,0.189190,0.264161,0.009392,0.084532,0.000000,141.000000,140.000000,1.000000,9.000000,0.000000,0.000000:
// measure 0
0000
0000
0000
0000
,  // measure 1
0000
0000
0000
0000
,  // measure 2
0000
0000
0000
0000
,  // measure 3
0000
0000
0000
0000
,  // measure 4
1000
0000
0000
0001
0000
0000
0200
0000
,  // measure 5
0000
0000
0000
0300
,  // measure 6
0001
0000
0000
1000
0000
0000
0020
0000
,  // measure 7
0000
0000
0000
0030
,  // measure 8
1000
0001
0010
0000
,  // measure 9
0001
1000
0010
1000
,  // measure 10
0001
1000
0100
0000
,  // measure 11
1000
0001
0010
0100
,  // measure 12
1000
0100
0010
0000
,  // measure 13
0100
1000
0010
0100
,  // measure 14
0001
1000
0010
0000
,  // measure 15
0010
0010
0020
0030
,  // measure 16
0100
0000
0001
0000
,  // measure 17
1000
0000
0100
1000
,  // measure 18
0010
0000
1000
0000
,  // measure 19
0001
0000
0010
0001
,  // measure 20
0100
0000
0001
0000
,  // measure 21
1000
0001
0010
0000
,  // measure 22
0100
0000
1000
0000
,  // measure 23
0100
1000
0100
1000
,  // measure 24
0100
0000
1000
0000
,  // measure 25
0010
0000
0100
0000
,  // measure 26
0001
0000
1000
0000
,  // measure 27
0001
0000
1000
0001
,  // measure 28
0100
0000
0010
0000
,  // measure 29
1000
0000
0100
0000
,  // measure 30
1000
0000
0001
0000
,  // measure 31
0100
0000
0000
0000
,  // measure 32
0001
1000
0010
1000
,  // measure 33
0001
0010
0001
1000
,  // measure 34
0100
0000
1000
0000
,  // measure 35
0010
0000
0100
0000
,  // measure 36
0010
1000
0001
0010
,  // measure 37
0001
1000
0100
0010
,  // measure 38
0001
0000
1000
0000
,  // measure 39
0010
0000
0100
0001
,  // measure 40
0020
0000
0000
0000
,  // measure 41
0030
0100
1000
0001
,  // measure 42
0200
0000
0000
0000
,  // measure 43
0000
0000
0300
0010
,  // measure 44
2000
0000
0000
0000
,  // measure 45
3000
0001
1000
0001
,  // measure 46
0020
0000
0000
0000
,  // measure 47
0000
0000
0030
0100
,  // measure 48
0010
0100
1000
0001
,  // measure 49
0100
0001
0010
0100
,  // measure 50
0010
0001
0100
0010
,  // measure 51
1000
0001
0100
0001
,  // measure 52
0010
0100
1000
0100
,  // measure 53
1000
0010
0100
0001
,  // measure 54
1000
0001
0100
0010
,  // measure 55
0100
0001
1000
0001
,  // measure 56
0220
0330
0000
0000
;

//---------------dance-single - ----------------
#NOTES:
     dance-single:
     :
     Beginner:
     2:
     0.076481,0.131494,0.018785,0.000000,0.000000,57.000000,55.000000,2.000000,0.000000,0.000000,0.000000,0.076481,0.131494,0.018785,0.000000,0.000000,57.000000,55.000000,2.000000,0.000000,0.000000,0.000000:
// measure 0
0000
0000
0000
0000
,  // measure 1
0000
0000
0000
0000
,  // measure 2
0000
0000
0000
0000
,  // measure 3
0000
0000
0000
0000
,  // measure 4
1000
0000
0000
0000
,  // measure 5
0000
0000
0000
0000
,  // measure 6
0001
0000
0000
0000
,  // measure 7
0000
0000
0000
0000
,  // measure 8
0010
0000
0000
0000
,  // measure 9
0100
0000
0000
0000
,  // measure 10
1000
0000
0000
0000
,  // measure 11
0001
0000
0000
0000
,  // measure 12
0100
0000
0000
0000
,  // measure 13
0010
0000
0000
0000
,  // measure 14
1000
0000
0000
0000
,  // measure 15
0001
0000
0001
0000
,  // measure 16
1000
0000
0000
0000
,  // measure 17
0000
0000
0000
0000
,  // measure 18
0010
0000
0000
0000
,  // measure 19
0000
0000
0000
0000
,  // measure 20
0100
0000
0000
0000
,  // measure 21
0000
0000
0000
0000
,  // measure 22
0001
0000
0000
0000
,  // measure 23
0000
0000
0000
0000
,  // measure 24
1001
0000
1000
0000
,  // measure 25
0001
0000
0000
0000
,  // measure 26
0010
0000
0000
0000
,  // measure 27
0100
0000
0000
0000
,  // measure 28
1000
0000
0010
0000
,  // measure 29
1000
0000
0000
0000
,  // measure 30
0100
0000
0000
0000
,  // measure 31
0010
0000
0000
0000
,  // measure 32
0001
0000
1000
0000
,  // measure 33
0010
0000
0000
0000
,  // measure 34
0100
0000
0000
0000
,  // measure 35
0100
0000
0000
0000
,  // measure 36
0010
0000
1000
0000
,  // measure 37
0100
0000
0000
0000
,  // measure 38
0010
0000
0000
0000
,  // measure 39
0001
0000
0000
1000
,  // measure 40
1000
0000
0000
0000
,  // measure 41
0000
0010
0000
0000
,  // measure 42
0100
0000
0000
0000
,  // measure 43
0000
0000
0000
0001
,  // measure 44
1000
0000
0000
0000
,  // measure 45
0000
0100
0000
0000
,  // measure 46
0010
0000
0000
0000
,  // measure 47
0001
0000
0000
1000
,  // measure 48
0010
0000
0000
0000
,  // measure 49
0000
0100
0000
0000
,  // measure 50
0010
0000
0000
0000
,  // measure 51
0000
0000
0000
1000
,  // measure 52
0100
0000
0000
0000
,  // measure 53
0000
1000
0001
0000
,  // measure 54
0100
0000
0000
0000
,  // measure 55
0010
0000
0000
0000
,  // measure 56
1001
0000
0000
0000
;
