#VERSION:0.83;
#TITLE:fallen leaves;
#SUBTITLE:-IIDX edition-;
#ARTIST:猫叉Master;
#TITLETRANSLIT:;
#SUBTITLETRANSLIT:;
#ARTISTTRANSLIT:Nekomata Master;
#GENRE:WORLD/ELECTRONICA;
#ORIGIN:;
#CREDIT:;
#BANNER:banner.png;
#BACKGROUND:background.png;
#PREVIEWVID:;
#JACKET:jacket.png;
#CDIMAGE:;
#DISCIMAGE:;
#LYRICSPATH:;
#CDTITLE:CDTITLE.png;
#MUSIC:fallen leaves -IIDX edition-.ogg;
#OFFSET:-0.398000;
#SAMPLESTART:72.559822;
#SAMPLELENGTH:12.181824;
#SELECTABLE:YES;
#BPMS:0.000=165.000;
#STOPS:;
#DELAYS:;
#WARPS:;
#TIMESIGNATURES:0.000=4=4;
#TICKCOUNTS:0.000=4;
#COMBOS:0.000=1;
#SPEEDS:0.000=1.000=0.000=0;
#SCROLLS:0.000=1.000;
#FAKES:;
#LABELS:0.000=Song Start;
#BGCHANGES:;
#KEYSOUNDS:;
#ATTACKS:
;

//---------------dance-single - ----------------
#NOTEDATA:;
#CHARTNAME:;
#STEPSTYPE:dance-single;
#DESCRIPTION:;
#CHARTSTYLE:;
#DIFFICULTY:Hard;
#METER:13;
#RADARVALUES:0.569995,0.736076,0.418083,0.608947,0.363550,439.000000,393.000000,46.000000,67.000000,0.000000,0.000000,2.000000,0.000000,0.000000,0.569995,0.736076,0.418083,0.608947,0.363550,439.000000,393.000000,46.000000,67.000000,0.000000,0.000000,2.000000,0.000000,0.000000;
#CREDIT:Pandemonium X;
#NOTES:
// measure 0
0000
0000
0000
0000
,  // measure 1
0000
0000
0000
0000
,  // measure 2
0000
0000
0000
0000
,  // measure 3
0000
0000
0000
0000
,  // measure 4
0000
0000
0000
0000
,  // measure 5
0000
0000
0000
0000
,  // measure 6
0000
0000
0000
0000
,  // measure 7
0000
0000
0000
0000
0000
0000
0000
0000
0000
0000
0000
0000
1000
0001
0100
0001
,  // measure 8
2000
3010
0100
0002
,  // measure 9
0023
0130
0020
0032
,  // measure 10
2003
3020
0230
0001
,  // measure 11
0010
0001
0310
1000
,  // measure 12
0001
0000
1000
0000
0001
0000
1000
1000
,  // measure 13
0001
0000
0000
0000
1000
0000
0000
0000
0001
0000
0000
1000
0001
0000
0001
0000
,  // measure 14
1000
0100
0010
0001
,  // measure 15
0100
0010
0100
0000
0010
1000
0010
0000
0100
0001
0100
0000
0002
0000
0000
0000
,  // measure 16
0013
0001
1000
0100
0000
1100
0000
1010
,  // measure 17
0000
1100
0000
1000
0001
0010
0001
1000
,  // measure 18
0100
0010
0100
0110
0000
0011
0000
0110
,  // measure 19
0000
0011
0000
1001
1000
0100
0001
0100
,  // measure 20
1000
0001
1000
0200
0000
0310
0000
0100
,  // measure 21
1000
0001
0100
0020
0000
1030
0000
0010
,  // measure 22
1000
0010
0100
0002
0000
1003
0000
0100
,  // measure 23
1000
0000
0000
0001
0000
0000
0110
0000
0000
0000
0010
0100
0001
1000
0010
0100
,  // measure 24
0002
0000
0000
0000
0013
0000
0200
0000
0300
0000
0200
0000
0000
0000
0310
0001
,  // measure 25
2000
0000
0000
0000
3001
0000
0020
0000
0000
0000
0130
0000
0010
0001
0100
0000
,  // measure 26
0010
0000
1000
0002
0000
0000
0000
0000
,  // measure 27
1003
0100
1000
0000
0100
0010
0100
0000
0010
0001
0010
0000
0001
1000
0001
0000
,  // measure 28
0200
0000
0000
0000
0301
0000
0020
0000
0030
0000
0020
0000
0000
0000
0130
1000
,  // measure 29
0002
0000
0000
0000
1003
0000
0020
0000
0000
0000
0130
0000
0010
1000
0100
0000
,  // measure 30
0010
0000
0000
0000
0001
0000
2000
0000
0000
0000
0000
0000
3000
0000
0001
0010
,  // measure 31
1000
0010
0100
2000
0000
3002
0000
0003
,  // measure 32
0102
0000
0000
0000
1003
0000
2001
0000
0000
0000
3200
0000
0000
0000
0310
0001
,  // measure 33
0020
0000
0000
0000
0130
0000
1200
0000
0000
0000
0310
0000
0001
0010
0100
0000
,  // measure 34
1000
0000
0001
0200
0000
0000
0000
0000
,  // measure 35
0310
1000
0010
0000
0100
0001
0100
0000
0001
0010
0001
0000
0100
1000
0100
0000
,  // measure 36
0210
0000
0000
0000
1300
0000
2100
0000
0000
0000
3010
0000
0000
0000
0100
0001
,  // measure 37
0020
0000
0130
0110
0010
0100
1000
0001
,  // measure 38
1000
0000
0000
0001
0000
0000
0200
0000
0000
0000
0000
0000
0000
0000
0000
0000
,  // measure 39
0310
1000
0010
0000
0100
0001
0100
0000
0001
0010
0001
0000
1000
0100
1000
0000
,  // measure 40
1001
0000
0000
0011
0000
0000
1100
0000
0000
0000
0000
0000
1100
0000
0000
1010
,  // measure 41
0000
0000
0101
0000
0000
0000
0001
0010
0100
0000
0010
0000
0001
0000
1000
0000
,  // measure 42
1010
0000
0000
1001
0000
0000
0011
0000
0000
0000
0000
0000
0011
0000
0000
0101
,  // measure 43
0000
0000
1001
0000
0000
0000
1000
0100
0010
0000
0100
0000
1000
0000
0001
0000
,  // measure 44
0101
0000
0000
0011
0000
0000
1100
0000
0000
0000
0000
0000
1100
0000
0000
0011
,  // measure 45
0000
0000
0101
0000
0000
0000
0001
1000
0100
0000
0010
0000
0001
0000
1000
0000
,  // measure 46
1010
0000
0000
0101
0000
0000
0011
0000
0000
0000
0010
0100
2000
0000
0000
0100
,  // measure 47
0000
0000
3100
0000
0000
0000
0100
0010
0001
0000
0000
0000
1001
0000
0000
0000
,  // measure 48
0400
4000
0000
0000
0000
0000
0000
0000
0000
0000
0000
0000
0000
0000
0000
0000
,  // measure 49
0000
0000
0000
0000
0000
0000
0000
3300
0000
0000
0001
1000
0001
0010
0100
1000
,  // measure 50
0001
0000
0000
1000
0010
0000
0000
0010
0200
0000
0000
0301
0020
0000
0000
0130
,  // measure 51
2000
0100
3010
0200
,  // measure 52
0302
0000
0000
0000
1003
0000
0000
0100
0020
0000
0000
0031
0200
0000
0000
0310
,  // measure 53
2000
0000
0000
0000
0001
0000
0000
0000
3010
0000
1000
0100
0010
0100
1000
0001
,  // measure 54
1000
0000
0000
0001
0200
0000
0000
0000
0001
0000
0000
0000
0010
0000
0000
0000
,  // measure 55
0001
0310
1000
0200
,  // measure 56
0320
0000
0000
0001
0000
0000
0031
0000
0011
0000
0000
0000
1000
0000
0000
1000
,  // measure 57
0000
0000
1000
0000
1001
0000
0000
0000
0001
0000
1000
0000
0001
1000
0100
1000
,  // measure 58
0020
0000
0000
1030
0100
0000
0000
0010
0200
0000
0000
1300
0002
0000
0000
0103
,  // measure 59
0020
0000
0000
0000
1000
0000
0000
0000
0130
0000
0000
0000
0002
0000
0000
0013
,  // measure 60
0200
0000
0000
0310
0001
0000
0000
1000
0020
0000
0000
1030
0200
0000
0000
0310
,  // measure 61
0002
0000
0010
0000
1000
0000
0013
0100
,  // measure 62
1000
0000
0000
0100
0020
0000
0000
0000
0001
0000
0000
0000
0100
0000
0100
0000
,  // measure 63
0100
0031
0010
0001
,  // measure 64
1001
0000
0000
0101
0000
0000
0010
0000
1001
0000
0000
0000
1100
0000
0000
0011
,  // measure 65
0000
0100
1001
0000
2000
0000
0000
0000
,  // measure 66
0002
0000
0000
0000
,  // measure 67
0000
0000
0000
3003
,  // measure 68
1000
0001
0100
0010
,  // measure 69
1000
0000
0100
0010
0001
1000
0100
0010
,  // measure 70
0001
0000
1000
0010
1000
0000
0002
0000
0000
0000
2003
0000
0000
0000
3100
0000
,  // measure 71
0010
0000
0100
1000
0100
0000
0020
0000
0000
0000
0032
0000
0000
0000
0103
0000
,  // measure 72
0010
0000
1000
0001
1000
0000
0002
0000
0000
0000
0023
0000
0000
0000
0130
0000
,  // measure 73
0110
0000
0001
0010
0000
0100
2000
0000
0000
0000
3000
0000
0000
0000
0000
0000
;

//---------------dance-single - ----------------
#NOTEDATA:;
#CHARTNAME:;
#STEPSTYPE:dance-single;
#DESCRIPTION:;
#CHARTSTYLE:;
#DIFFICULTY:Medium;
#METER:9;
#RADARVALUES:0.390817,0.501870,0.145420,0.363550,0.072710,301.000000,285.000000,16.000000,40.000000,0.000000,0.000000,0.000000,0.000000,0.000000,0.390817,0.501870,0.145420,0.363550,0.072710,301.000000,285.000000,16.000000,40.000000,0.000000,0.000000,0.000000,0.000000,0.000000;
#CREDIT:Pandemonium X;
#NOTES:
// measure 0
0000
0000
0000
0000
,  // measure 1
0000
0000
0000
0000
,  // measure 2
0000
0000
0000
0000
,  // measure 3
0000
0000
0000
0000
,  // measure 4
0000
0000
0000
0000
,  // measure 5
0000
0000
0000
0000
,  // measure 6
0000
0000
0000
0000
,  // measure 7
0000
0000
0000
0000
0000
0000
1000
0100
,  // measure 8
0020
0000
0030
0100
,  // measure 9
2000
0000
3001
0100
,  // measure 10
0001
0010
0200
0000
,  // measure 11
0000
0000
0000
0310
,  // measure 12
0001
1000
0001
0000
0100
0000
0010
0000
,  // measure 13
1000
0001
1000
0000
0001
0000
0010
0000
,  // measure 14
0100
0010
0001
0000
0010
0100
1000
0000
,  // measure 15
0200
2300
3020
0230
,  // measure 16
0301
1000
0001
0010
,  // measure 17
0100
0010
0011
0011
,  // measure 18
0001
0100
0010
1000
,  // measure 19
0100
0010
0110
0110
,  // measure 20
0100
0000
0010
0001
0000
0100
0000
0010
,  // measure 21
1000
0000
0001
0010
0000
0001
0000
1000
,  // measure 22
0100
0000
1000
0010
0000
0100
0000
0001
,  // measure 23
1000
0000
0000
0001
0000
0000
0110
0000
0000
0000
0100
0000
0010
0000
1000
0000
,  // measure 24
0001
0000
1000
0100
0000
0100
0000
0100
,  // measure 25
1000
0000
1000
0010
0000
0010
0100
0001
,  // measure 26
1000
0000
0001
0020
0000
0000
0000
0000
,  // measure 27
0130
0000
0010
0000
0001
0010
0100
1000
,  // measure 28
0001
0000
1000
0001
0000
0100
0000
0001
,  // measure 29
0010
0000
0100
0010
0000
0100
0010
0001
,  // measure 30
1000
0000
0001
0200
0000
0000
0000
0310
,  // measure 31
1000
0100
0001
0100
0000
0020
0000
0030
,  // measure 32
1001
0000
0001
0010
0000
0010
0000
0010
,  // measure 33
0001
0000
0001
0100
0000
0100
0010
1000
,  // measure 34
0001
0000
1000
0200
0000
0000
0000
0000
,  // measure 35
0310
0000
0100
0000
1000
0100
0010
0001
,  // measure 36
1000
0000
0001
0100
0000
0100
0000
0100
,  // measure 37
0010
0000
0100
0010
1000
0001
0010
0100
,  // measure 38
1000
0000
0100
2000
0000
0000
0000
0000
,  // measure 39
3100
1000
0010
0100
,  // measure 40
1001
0000
0000
1000
0000
0000
0001
0000
0100
0000
0000
0000
0001
0000
0000
0100
,  // measure 41
0000
0010
0000
0100
0010
1000
0001
0010
,  // measure 42
0100
0000
0000
0010
0000
0000
0001
0000
0000
0000
0000
0000
0001
0000
0000
0010
,  // measure 43
0000
0100
0000
0000
0010
0100
1000
0100
,  // measure 44
0010
0000
0000
0100
0000
0000
1000
0000
0000
0000
0000
0000
0100
0000
0000
0010
,  // measure 45
0000
0001
0000
0000
0010
0001
0100
0010
,  // measure 46
0100
0000
0000
0010
0000
0000
1000
0000
0000
0000
0000
0000
0001
0000
0000
1000
,  // measure 47
0000
0100
0000
0010
0001
0000
1001
2002
,  // measure 48
0000
0000
0000
0000
,  // measure 49
0000
0000
0000
0000
3003
1000
0100
0010
,  // measure 50
0002
0000
0023
0032
,  // measure 51
0200
0000
0303
0002
,  // measure 52
0203
0000
0320
2030
,  // measure 53
0002
0000
0000
3003
0002
0000
2003
0000
,  // measure 54
3100
0000
0000
0010
0000
0000
0002
0000
0000
0000
0000
0000
0000
0000
0000
0000
,  // measure 55
1003
0100
0010
0000
0100
1000
0010
0000
,  // measure 56
0100
0000
0000
0001
0000
0000
1000
0000
0001
0000
0000
0000
0010
0000
0000
0100
,  // measure 57
0000
1000
0001
0000
0100
0000
0010
0100
,  // measure 58
0002
0000
2003
3020
,  // measure 59
0200
0000
0330
0200
,  // measure 60
0320
0000
2030
3200
,  // measure 61
0020
0000
0000
0330
0100
0000
0010
0001
,  // measure 62
1000
0000
0000
0001
0000
0000
0200
0000
0000
0000
0000
0000
0000
0000
0000
0000
,  // measure 63
0310
1000
0001
0000
0010
0001
1000
0000
,  // measure 64
1000
0000
0000
0100
0000
0000
0010
0000
0011
0000
0000
0000
0001
0000
0000
0010
,  // measure 65
0000
0100
1100
0000
1002
0000
0000
0003
,  // measure 66
0210
0000
0000
0000
,  // measure 67
0301
1000
0100
1000
,  // measure 68
0001
0100
0010
1000
,  // measure 69
0010
0100
0101
0101
,  // measure 70
0001
0000
1000
0001
0000
0010
0000
0100
,  // measure 71
0010
0000
0001
0010
0000
1000
0000
0010
,  // measure 72
0100
0000
1000
0100
0000
0010
0001
0010
,  // measure 73
0100
0000
0000
1000
0000
0000
2002
0000
0000
0000
3003
0000
0000
0000
0000
0000
;

//---------------dance-single - ----------------
#NOTEDATA:;
#CHARTNAME:;
#STEPSTYPE:dance-single;
#DESCRIPTION:;
#CHARTSTYLE:;
#DIFFICULTY:Easy;
#METER:6;
#RADARVALUES:0.245397,0.366788,0.163598,0.181775,0.000000,189.000000,171.000000,18.000000,20.000000,0.000000,0.000000,0.000000,0.000000,0.000000,0.245397,0.366788,0.163598,0.181775,0.000000,189.000000,171.000000,18.000000,20.000000,0.000000,0.000000,0.000000,0.000000,0.000000;
#CREDIT:Pandemonium X;
#NOTES:
// measure 0
0000
0000
0000
0000
,  // measure 1
0000
0000
0000
0000
,  // measure 2
0000
0000
0000
0000
,  // measure 3
0000
0000
0000
0000
,  // measure 4
0000
0000
0000
0000
,  // measure 5
0000
0000
0000
0000
,  // measure 6
0000
0000
0000
0000
,  // measure 7
0000
0000
0000
1000
,  // measure 8
0020
0000
0000
0130
,  // measure 9
0002
0000
0013
0100
,  // measure 10
0010
0001
2000
0000
,  // measure 11
0000
0000
0000
3000
,  // measure 12
0001
1000
0010
1000
,  // measure 13
0001
0010
0001
1000
,  // measure 14
0010
1000
0001
0100
,  // measure 15
1001
0000
0000
0000
,  // measure 16
0001
0000
0100
0000
,  // measure 17
0010
0000
1000
0010
,  // measure 18
0100
0000
0010
0000
,  // measure 19
1000
0000
0001
0001
,  // measure 20
1000
0100
0010
0000
,  // measure 21
0100
0010
0001
0000
,  // measure 22
0010
0100
1000
0000
,  // measure 23
1001
0000
0000
0110
0000
0000
0000
0000
,  // measure 24
0100
0000
0000
0010
0000
0010
0000
0000
,  // measure 25
0100
0000
0000
0001
0000
0000
1000
0000
,  // measure 26
0100
0000
0000
2000
0000
0000
0000
0000
,  // measure 27
3000
0000
0001
1000
,  // measure 28
0010
0000
0000
1000
0000
1000
0000
0000
,  // measure 29
0100
0000
0000
0010
0000
0000
0100
0000
,  // measure 30
0010
0000
0000
0002
0000
0000
0000
0000
,  // measure 31
1003
0100
0010
0001
,  // measure 32
1000
0000
0000
0001
0000
0001
0000
0000
,  // measure 33
0100
0000
0000
0001
0000
0000
0010
0000
,  // measure 34
0100
0000
0000
2000
0000
0000
0000
0000
,  // measure 35
3000
0000
0100
1000
,  // measure 36
0010
0000
0000
0100
0000
0100
0000
0000
,  // measure 37
0010
0000
1000
0100
,  // measure 38
0010
0000
0000
0200
0000
0000
0000
0000
,  // measure 39
0300
0000
0000
0010
,  // measure 40
1001
0000
0000
0110
,  // measure 41
0000
0000
0010
1000
,  // measure 42
0101
0000
0000
0011
,  // measure 43
0000
0000
0010
0100
,  // measure 44
1100
0000
0000
1010
,  // measure 45
0000
0000
1000
0001
,  // measure 46
0110
0000
0000
1001
,  // measure 47
0000
0000
0000
0000
0110
0000
0001
2000
,  // measure 48
0000
0000
0000
0000
,  // measure 49
0000
0000
0000
0000
,  // measure 50
3002
0000
0013
0100
,  // measure 51
2000
0000
3000
0100
,  // measure 52
2000
0000
3100
1000
,  // measure 53
0020
0000
0130
0001
,  // measure 54
1000
0001
0200
0000
,  // measure 55
0310
1000
0010
0100
,  // measure 56
0010
0000
0000
0100
0000
0000
0010
0000
,  // measure 57
0000
1000
0000
0000
0001
0000
1000
0000
,  // measure 58
0200
0000
1300
0001
,  // measure 59
2000
0000
3000
2000
,  // measure 60
3002
0000
0103
0001
,  // measure 61
0020
0000
0130
0010
,  // measure 62
0001
0010
0200
0000
,  // measure 63
0310
0001
1000
0010
,  // measure 64
0110
0000
1001
0110
,  // measure 65
0000
1001
0001
1000
,  // measure 66
0020
0000
0000
0000
,  // measure 67
0030
0000
1000
0001
,  // measure 68
0100
0000
0010
0000
,  // measure 69
1000
0000
0001
0001
,  // measure 70
1000
0100
0010
0001
,  // measure 71
0010
0100
0010
0001
,  // measure 72
1000
0010
0100
0001
,  // measure 73
1010
0000
0000
0101
0000
0000
0000
0000
;

//---------------dance-single - ----------------
#NOTEDATA:;
#CHARTNAME:;
#STEPSTYPE:dance-single;
#DESCRIPTION:;
#CHARTSTYLE:;
#DIFFICULTY:Beginner;
#METER:4;
#RADARVALUES:0.155807,0.266755,0.136331,0.000000,0.000000,120.000000,105.000000,15.000000,0.000000,0.000000,0.000000,0.000000,0.000000,0.000000,0.155807,0.266755,0.136331,0.000000,0.000000,120.000000,105.000000,15.000000,0.000000,0.000000,0.000000,0.000000,0.000000,0.000000;
#CREDIT:Pandemonium X;
#NOTES:
// measure 0
0000
0000
0000
0000
,  // measure 1
0000
0000
0000
0000
,  // measure 2
0000
0000
0000
0000
,  // measure 3
0000
0000
0000
0000
,  // measure 4
0000
0000
0000
0000
,  // measure 5
0000
0000
0000
0000
,  // measure 6
0000
0000
0000
0000
,  // measure 7
0000
0000
0000
0010
,  // measure 8
0100
0000
0000
0010
,  // measure 9
0010
0000
1000
0000
,  // measure 10
0001
0000
1000
0000
,  // measure 11
0000
0000
0000
0000
,  // measure 12
0010
0000
0000
0000
,  // measure 13
0100
0000
0000
0000
,  // measure 14
0001
0000
1000
0000
,  // measure 15
0110
0000
0000
0000
,  // measure 16
1000
0000
0000
0000
,  // measure 17
0000
0000
0001
1000
,  // measure 18
0001
0000
0000
0000
,  // measure 19
0000
0000
0010
0100
,  // measure 20
0010
0000
0000
0000
,  // measure 21
0001
0000
0000
0000
,  // measure 22
0100
0000
0000
0000
,  // measure 23
0110
0000
0000
0000
,  // measure 24
0010
0000
0000
0000
,  // measure 25
1000
0000
0000
0000
,  // measure 26
0001
1000
0001
0000
,  // measure 27
0100
0000
0000
0000
,  // measure 28
0010
0000
0000
0000
,  // measure 29
1000
0000
0000
0000
,  // measure 30
0100
0010
0001
0000
,  // measure 31
0010
0001
1000
0000
,  // measure 32
0100
0000
0000
0000
,  // measure 33
1000
0000
0000
0000
,  // measure 34
0010
0000
0000
0000
,  // measure 35
0100
0000
0010
0000
,  // measure 36
1000
0000
0000
0000
,  // measure 37
0001
0000
0000
0000
,  // measure 38
0010
0000
0000
0000
,  // measure 39
0001
0000
1000
0000
,  // measure 40
0110
0000
0000
0010
,  // measure 41
0000
0000
1000
0001
,  // measure 42
1001
0000
0000
1000
,  // measure 43
0000
0000
0001
1000
,  // measure 44
0110
0000
0000
1001
,  // measure 45
0000
0000
0001
1000
,  // measure 46
0110
0000
0000
1001
,  // measure 47
0000
0000
0110
0010
,  // measure 48
0000
0000
0000
0000
,  // measure 49
0000
0000
0000
0000
,  // measure 50
1000
0000
0001
0001
,  // measure 51
0001
0000
0000
0100
,  // measure 52
0010
0000
1000
1000
,  // measure 53
1000
0000
0000
0001
,  // measure 54
1000
0000
0000
0000
,  // measure 55
0100
0000
0000
1000
,  // measure 56
0001
0000
0000
0100
,  // measure 57
0000
0000
0010
0100
,  // measure 58
0010
0000
1000
1000
,  // measure 59
1000
0000
0000
0001
,  // measure 60
1000
0000
0010
0010
,  // measure 61
0010
0000
0100
0000
,  // measure 62
0001
0000
0000
0000
,  // measure 63
0010
0000
0000
0000
,  // measure 64
1001
0000
0000
0110
,  // measure 65
0000
0000
1001
0000
,  // measure 66
0110
0000
0000
0000
,  // measure 67
0000
0000
0010
0010
,  // measure 68
1000
0000
0000
0000
,  // measure 69
0000
0000
0001
0001
,  // measure 70
0010
0000
0000
0000
,  // measure 71
0100
0000
0000
0000
,  // measure 72
1000
0000
0000
0000
,  // measure 73
1001
0000
0000
0110
0000
0000
0000
0000
;
